#VERSION:0.83;
#TITLE:White Eve;
#SUBTITLE:;
#ARTIST:Sana;
#TITLETRANSLIT:;
#SUBTITLETRANSLIT:;
#ARTISTTRANSLIT:;
#GENRE:;
#ORIGIN:;
#CREDIT:;
#BANNER:White Eve.png;
#BACKGROUND:White Eve-bg.png;
#PREVIEWVID:;
#JACKET:;
#CDIMAGE:;
#DISCIMAGE:;
#LYRICSPATH:;
#CDTITLE:;
#MUSIC:White Eve.mp3;
#OFFSET:-8.670000;
#SAMPLESTART:0.470000;
#SAMPLELENGTH:15.360000;
#SELECTABLE:YES;
#BPMS:0.000=125.000;
#STOPS:;
#DELAYS:;
#WARPS:;
#TIMESIGNATURES:0.000=4=4;
#TICKCOUNTS:0.000=4;
#COMBOS:0.000=1;
#SPEEDS:0.000=1.000=0.000=0;
#SCROLLS:0.000=1.000;
#FAKES:;
#LABELS:0.000=Song Start;
#BGCHANGES:;
#KEYSOUNDS:;
#ATTACKS:
;

//---------------dance-single - Oni-91----------------
#NOTEDATA:;
#CHARTNAME:;
#STEPSTYPE:dance-single;
#DESCRIPTION:Oni-91;
#CHARTSTYLE:;
#DIFFICULTY:Hard;
#METER:7;
#RADARVALUES:0.399539,0.396522,0.185275,0.123517,0.039702,317.000000,296.000000,21.000000,14.000000,0.000000,0.000000,0.000000,0.000000,0.000000,0.399539,0.396522,0.185275,0.123517,0.039702,317.000000,296.000000,21.000000,14.000000,0.000000,0.000000,0.000000,0.000000,0.000000;
#CREDIT:Oni-91;
#NOTES:
// measure 0
1000
0000
0000
1000
0001
0000
0100
0000
,  // measure 1
0110
0000
0000
0010
1000
0000
0001
1000
,  // measure 2
0100
0010
0001
0100
,  // measure 3
1100
0001
1010
1100
,  // measure 4
0011
0000
0010
0001
0100
0000
0010
1000
,  // measure 5
0200
0000
0000
0010
0310
0000
0001
0000
,  // measure 6
1000
0000
0001
0100
0010
0000
0100
0010
,  // measure 7
1000
0100
0010
0001
0000
0001
0100
1000
,  // measure 8
0100
0000
0010
0100
0001
0000
1000
0000
,  // measure 9
0100
0000
0010
0001
0100
0000
0010
0000
,  // measure 10
1000
0001
1000
0100
,  // measure 11
0010
0001
0000
0001
0010
0000
0001
0000
1000
0000
0010
0000
0100
0000
0010
0000
,  // measure 12
2002
0000
0000
3003
,  // measure 13
1000
0001
1000
0000
0001
0000
0010
0000
1000
0000
0001
0000
0100
0000
1000
0000
,  // measure 14
0002
0000
0003
0000
1000
0010
0100
0010
,  // measure 15
2000
0000
0000
0000
0000
0000
0000
0000
3001
0000
0000
0000
0001
0000
0100
0001
,  // measure 16
0100
0000
0001
0000
0000
0000
0001
0000
1000
0000
0000
0000
0100
0000
1000
0100
,  // measure 17
1000
0100
0000
0010
0001
0000
1000
0001
,  // measure 18
0100
0000
0010
0000
0100
0001
0000
1000
,  // measure 19
2002
0000
0000
3003
,  // measure 20
1001
0000
0001
0000
0100
0000
0010
0100
,  // measure 21
0001
1000
0000
1000
0100
0000
0010
0000
,  // measure 22
0100
0000
1000
0100
0001
0000
0100
0000
,  // measure 23
1000
0010
0001
0010
0100
0001
0010
0100
,  // measure 24
0010
0000
0001
1000
0001
0000
1000
0000
,  // measure 25
1010
0000
0010
0000
0100
0001
0010
0000
,  // measure 26
1001
0000
0001
1000
0001
0100
0010
0000
,  // measure 27
0100
0100
0001
0001
1000
0100
0010
0001
,  // measure 28
2001
0000
3100
1000
0100
0010
0001
0100
,  // measure 29
0002
0000
0103
0001
1000
0100
0001
0100
,  // measure 30
2000
0000
3001
1000
0100
0001
1000
0010
,  // measure 31
0001
0000
0001
0100
0000
0010
0100
0001
,  // measure 32
1001
0000
0110
0000
0001
1000
0100
0010
,  // measure 33
0100
0000
1001
0000
0001
0010
0100
0010
,  // measure 34
0001
0000
1001
0000
1000
0010
0001
0010
,  // measure 35
1000
0000
0000
0000
0001
0000
0010
0000
0001
0000
1000
0000
0001
1000
0001
1000
,  // measure 36
0002
0000
0000
0000
0000
0000
1003
1000
,  // measure 37
1001
0000
0001
1000
0200
0000
0010
0000
,  // measure 38
1300
0000
0001
0100
0020
0000
0001
0000
,  // measure 39
0130
0000
0010
1000
0002
0000
0010
0000
,  // measure 40
1003
0100
0010
0001
0000
0010
0001
0100
,  // measure 41
0010
0000
1000
0010
0001
0000
0010
0000
,  // measure 42
1000
0000
0001
0010
1000
0000
0010
0000
,  // measure 43
0001
0100
1000
0010
,  // measure 44
0011
0001
1010
0101
,  // measure 45
1001
0000
1000
0100
0001
0100
1000
0000
,  // measure 46
0001
0000
1000
0010
0001
0010
1000
0000
,  // measure 47
0001
0000
0010
0001
0100
0000
0010
1000
,  // measure 48
0001
0100
0001
0010
0000
0001
1000
0100
,  // measure 49
0010
0000
0100
1000
0001
0100
1000
0000
,  // measure 50
0100
0000
0001
0010
1000
0010
0100
0000
,  // measure 51
0010
0001
0100
0010
,  // measure 52
1000
0010
0000
0010
1000
0000
0001
0000
0010
0000
0001
0000
1000
0000
1001
0000
;

//---------------dance-single - Oni-91----------------
#NOTEDATA:;
#CHARTNAME:;
#STEPSTYPE:dance-single;
#DESCRIPTION:Oni-91;
#CHARTSTYLE:;
#DIFFICULTY:Medium;
#METER:4;
#RADARVALUES:0.281063,0.303222,0.079404,0.194098,0.000000,223.000000,214.000000,9.000000,22.000000,0.000000,0.000000,0.000000,0.000000,0.000000,0.281063,0.303222,0.079404,0.194098,0.000000,223.000000,214.000000,9.000000,22.000000,0.000000,0.000000,0.000000,0.000000,0.000000;
#CREDIT:Oni-91;
#NOTES:
// measure 0
0001
0000
0000
1000
0001
0000
1000
0000
,  // measure 1
0100
0000
0000
0010
0100
0000
0010
0000
,  // measure 2
0001
1000
0010
0100
,  // measure 3
0002
0010
2000
3003
,  // measure 4
1001
0000
0000
1000
0100
0000
1000
0000
,  // measure 5
0001
0000
0000
0001
0100
0000
0010
0000
,  // measure 6
0100
0000
0000
0010
1000
0000
0001
0000
,  // measure 7
1000
0100
0001
0100
,  // measure 8
1000
0000
0000
1000
0001
0000
0100
0000
,  // measure 9
0010
0000
0000
0010
0100
0000
0001
0000
,  // measure 10
1000
0100
0001
0100
,  // measure 11
1000
0000
0010
0000
0100
0000
0001
1000
,  // measure 12
0200
0000
0000
0300
,  // measure 13
0010
0100
0010
0000
0001
0010
0001
0000
,  // measure 14
1000
0000
0010
0000
0100
0000
0001
1000
,  // measure 15
0002
0000
0000
0000
0003
0000
1000
0100
,  // measure 16
2000
0000
0000
0000
3010
0000
0001
0100
,  // measure 17
0002
0000
0013
0001
,  // measure 18
1000
0000
0100
0000
0010
0001
0000
0001
,  // measure 19
2002
0000
0000
3003
,  // measure 20
0110
0000
0010
0000
1000
0000
0001
2000
,  // measure 21
0000
0010
0000
0002
0000
0000
3003
0000
,  // measure 22
1000
0000
0001
0100
0001
0000
1000
0000
,  // measure 23
0001
0010
0001
0000
1000
0000
0010
0000
,  // measure 24
0110
0000
0100
0000
0001
0000
1000
0002
,  // measure 25
0000
0010
0000
2000
0000
0000
3003
0000
,  // measure 26
1100
0000
1000
0001
0000
0001
0100
0000
,  // measure 27
0010
0000
0100
0000
0001
1000
0001
1000
,  // measure 28
0002
0000
0003
0000
1000
0010
1000
0000
,  // measure 29
0002
0000
0003
0000
0010
0001
0010
0000
,  // measure 30
0200
0000
0300
0000
0010
0001
1000
0000
,  // measure 31
0001
0000
1000
0001
0000
0001
0100
0000
,  // measure 32
0220
0000
0330
0000
0010
1000
0001
0000
,  // measure 33
2000
0000
3000
0000
0001
0010
0100
0000
,  // measure 34
0020
0000
0030
0000
0001
1000
0001
0000
,  // measure 35
1000
0000
0100
0020
0000
0000
0030
0000
,  // measure 36
2002
0000
0000
3003
,  // measure 37
0110
0000
0000
0010
1000
0000
0001
0000
,  // measure 38
1000
0000
0000
1000
0100
0000
0010
0000
,  // measure 39
0100
0000
0000
0010
0001
0000
1000
0000
,  // measure 40
0001
1000
0001
1000
0000
0000
1000
0000
,  // measure 41
0001
0000
0000
0100
0001
0000
1000
0000
,  // measure 42
0001
0000
0000
0010
0100
0000
0010
0000
,  // measure 43
0001
0100
1000
0001
,  // measure 44
0010
0000
1000
0000
0001
0000
1000
0001
,  // measure 45
1000
0000
0000
1000
0100
0000
0010
0000
,  // measure 46
0100
0000
0000
0100
1000
0000
0001
0000
,  // measure 47
0100
0000
0000
0010
0100
0000
0001
0000
,  // measure 48
1000
0001
1000
0001
0000
0000
1000
0000
,  // measure 49
0100
0000
0010
0100
0010
0000
0001
0000
,  // measure 50
1000
0000
0001
0100
0001
0000
0100
0000
,  // measure 51
0010
1000
0100
0001
,  // measure 52
0010
0000
1000
0000
0001
0000
1000
1001
;

//---------------dance-single - Oni-91----------------
#NOTEDATA:;
#CHARTNAME:;
#STEPSTYPE:dance-single;
#DESCRIPTION:Oni-91;
#CHARTSTYLE:;
#DIFFICULTY:Easy;
#METER:3;
#RADARVALUES:0.221826,0.233248,0.079404,0.132339,0.000000,176.000000,167.000000,9.000000,15.000000,0.000000,0.000000,0.000000,0.000000,0.000000,0.221826,0.233248,0.079404,0.132339,0.000000,176.000000,167.000000,9.000000,15.000000,0.000000,0.000000,0.000000,0.000000,0.000000;
#CREDIT:Oni-91;
#NOTES:
// measure 0
1001
0000
0001
1000
,  // measure 1
0001
0000
1000
0100
,  // measure 2
1000
1000
0100
0100
,  // measure 3
0010
0010
0002
0003
,  // measure 4
1001
0000
1000
0010
,  // measure 5
1000
0000
0001
0100
,  // measure 6
0001
0000
1000
0100
,  // measure 7
0010
0001
0100
0010
,  // measure 8
0100
0000
0100
0001
,  // measure 9
1000
0000
0001
1000
,  // measure 10
0001
0010
0100
0010
,  // measure 11
0001
1000
0001
0100
,  // measure 12
0220
0000
0000
0330
,  // measure 13
0010
1000
0001
1000
,  // measure 14
0100
0000
0010
0001
,  // measure 15
0100
0000
0000
0000
,  // measure 16
0010
1000
0001
0000
,  // measure 17
0010
0001
1000
0000
,  // measure 18
0001
0010
0100
1000
,  // measure 19
2002
0000
0000
3003
,  // measure 20
0110
0010
1000
0001
,  // measure 21
1000
0100
0010
0000
,  // measure 22
0100
0010
0001
0000
,  // measure 23
0010
0001
0100
0000
,  // measure 24
0010
0100
0001
1000
,  // measure 25
0001
0010
0100
0000
,  // measure 26
0010
0001
1000
0100
,  // measure 27
1000
0000
0001
0000
,  // measure 28
2002
3003
1000
1000
,  // measure 29
2000
3000
0100
0100
,  // measure 30
0200
0300
0010
0010
,  // measure 31
0010
0001
1000
0010
,  // measure 32
0220
0330
0100
0100
,  // measure 33
0200
0300
0001
0001
,  // measure 34
0002
0003
1000
1000
,  // measure 35
1000
0100
0010
0001
,  // measure 36
2002
0000
0000
3003
,  // measure 37
0110
0000
0010
1000
,  // measure 38
0001
0000
1000
0000
,  // measure 39
0001
0000
0010
0001
,  // measure 40
0100
0010
0100
0001
,  // measure 41
1000
0000
0100
1000
,  // measure 42
0100
0000
0010
0001
,  // measure 43
0100
1000
0100
0001
,  // measure 44
0010
0100
0010
0100
,  // measure 45
1000
0000
0001
1000
,  // measure 46
0001
0000
1000
0010
,  // measure 47
1000
0000
0010
0100
,  // measure 48
0001
0010
0100
0010
,  // measure 49
0001
0000
1000
0100
,  // measure 50
0010
0000
0100
1000
,  // measure 51
0001
0100
1000
0001
,  // measure 52
0010
0000
1000
0000
0001
0000
1000
1000
;

//---------------dance-single - Oni-91----------------
#NOTEDATA:;
#CHARTNAME:;
#STEPSTYPE:dance-single;
#DESCRIPTION:Oni-91;
#CHARTSTYLE:;
#DIFFICULTY:Beginner;
#METER:1;
#RADARVALUES:0.120996,0.139618,0.070581,0.000000,0.000000,96.000000,88.000000,8.000000,0.000000,0.000000,0.000000,0.000000,0.000000,0.000000,0.120996,0.139618,0.070581,0.000000,0.000000,96.000000,88.000000,8.000000,0.000000,0.000000,0.000000,0.000000,0.000000,0.000000;
#CREDIT:Oni-91;
#NOTES:
// measure 0
1001
0000
0001
0000
,  // measure 1
0100
0000
0010
0000
,  // measure 2
0100
0000
0000
0000
,  // measure 3
0010
0000
1000
0000
,  // measure 4
1001
0000
0000
0000
,  // measure 5
0001
0000
0010
0000
,  // measure 6
0001
0000
0000
0000
,  // measure 7
1000
0000
0100
0000
,  // measure 8
0010
0000
0100
0000
,  // measure 9
1000
0000
0001
0000
,  // measure 10
0100
0000
0000
0000
,  // measure 11
0010
0000
0000
0000
,  // measure 12
1001
0000
0000
0000
,  // measure 13
1000
0000
0100
0000
,  // measure 14
0010
0000
0001
0000
,  // measure 15
1000
0000
0000
0000
,  // measure 16
0001
0000
0100
0000
,  // measure 17
0001
0000
0000
0000
,  // measure 18
1000
0000
0000
0000
,  // measure 19
1001
0000
0000
0000
,  // measure 20
1001
0000
0000
0000
,  // measure 21
1000
0000
0010
0000
,  // measure 22
0100
0000
0000
0000
,  // measure 23
0010
0000
0100
0000
,  // measure 24
0001
0000
0000
0000
,  // measure 25
1000
0000
0001
0000
,  // measure 26
1000
0000
0001
0000
,  // measure 27
0010
0000
0000
0000
,  // measure 28
0100
0000
0100
0000
,  // measure 29
0100
0000
0010
0000
,  // measure 30
0010
0000
0001
0000
,  // measure 31
0001
0000
1000
0000
,  // measure 32
1001
0000
0000
0000
,  // measure 33
0001
0000
1000
0000
,  // measure 34
0001
0000
1000
0000
,  // measure 35
0010
0000
0100
0000
,  // measure 36
0110
0000
0000
0000
,  // measure 37
1001
0000
1000
0000
,  // measure 38
0100
0000
1000
0000
,  // measure 39
0001
0000
0100
0000
,  // measure 40
0010
0000
0000
0000
,  // measure 41
0100
0000
0010
0000
,  // measure 42
0100
0000
0001
0000
,  // measure 43
1000
0000
0100
0000
,  // measure 44
0010
0000
0000
0000
,  // measure 45
0100
0000
1000
0000
,  // measure 46
0100
0000
0010
0000
,  // measure 47
0001
0000
0010
0000
,  // measure 48
0001
0000
0000
0000
,  // measure 49
1000
0000
0001
0000
,  // measure 50
1000
0000
0010
0000
,  // measure 51
0100
0000
0001
0000
,  // measure 52
0010
0000
0100
0100
;
