#TITLE:Welcome;
#SUBTITLE:;
#ARTIST:Uraken;
#TITLETRANSLIT:;
#SUBTITLETRANSLIT:;
#ARTISTTRANSLIT:;
#GENRE:;
#CREDIT:;
#BANNER:Welcome.png;
#BACKGROUND:Welcome-bg.png;
#LYRICSPATH:;
#CDTITLE:;
#MUSIC:Welcome.mp3;
#OFFSET:-1.430000;
#SAMPLESTART:74.309998;
#SAMPLELENGTH:11.290000;
#SELECTABLE:YES;
#BPMS:0.000000=170.000000
;
#STOPS:
;
#BGCHANGES:-5.000=Welcome.avi=1.000=0=0=1=====,
99999=-nosongbg-=1.000=0=0=0 // don't automatically add -songbackground-
;
#KEYSOUNDS:;
#ATTACKS:;

//---------------dance-double - ----------------
#NOTES:
     dance-double:
     :
     Hard:
     1:
     0.000000,0.000000,0.000000,0.000000,0.000000,0.000000,0.000000,0.000000,0.000000,0.000000,0.000000,0.000000,0.000000,0.000000,0.000000,0.000000,0.000000,0.000000,0.000000,0.000000,0.000000,0.000000:
00000000
00000000
00000000
00000000
;

//---------------dance-single - Oni-91----------------
#NOTES:
     dance-single:
     :
     Hard:
     8:
     0.503395,0.615234,0.333659,0.504557,0.073242,433.000000,392.000000,41.000000,62.000000,0.000000,0.000000,0.503395,0.615234,0.333659,0.504557,0.073242,433.000000,392.000000,41.000000,62.000000,0.000000,0.000000:
// measure 0
1000
0000
0001
0100
0001
0000
1000
0000
,  // measure 1
0100
0000
0010
0000
0100
0010
0100
0000
,  // measure 2
0001
0000
1000
0010
0100
0000
0001
0000
,  // measure 3
1000
1000
0001
0001
0100
0010
0200
0000
,  // measure 4
0301
0000
1000
0100
1000
0000
0001
0000
,  // measure 5
1000
0000
0010
0000
0100
0001
0010
0000
,  // measure 6
1100
0011
1010
0101
,  // measure 7
0010
0100
0010
0000
2002
0000
3003
0000
,  // measure 8
0001
0000
0100
0010
1000
0000
1001
0000
,  // measure 9
0001
0000
0010
0001
0100
0000
0110
0000
,  // measure 10
0010
0000
1000
0100
0010
0000
0110
0000
,  // measure 11
0100
0010
0001
0010
0100
0100
0020
0030
,  // measure 12
1001
0000
0010
0100
0010
0000
1010
0000
,  // measure 13
0101
0000
0001
0010
0100
0000
1100
0000
,  // measure 14
0011
1001
1100
1001
,  // measure 15
0001
0100
0010
0000
2002
0000
3003
0000
,  // measure 16
2000
0000
0000
0000
,  // measure 17
3200
0000
0000
0000
,  // measure 18
0320
0000
0000
0000
,  // measure 19
0032
0000
0000
0000
,  // measure 20
2003
0000
0000
0000
,  // measure 21
3020
0000
0000
0000
,  // measure 22
0230
0000
0000
0000
,  // measure 23
0302
0000
0000
0000
,  // measure 24
0203
0000
0000
0000
,  // measure 25
0302
0000
2003
3200
,  // measure 26
0310
0000
0001
0100
0000
0010
1000
0100
,  // measure 27
0010
0000
0100
0010
0000
0001
1000
0000
,  // measure 28
0002
0000
0000
0000
,  // measure 29
0203
0000
0302
2003
,  // measure 30
3100
0000
1000
0001
0000
0100
0001
0020
,  // measure 31
0200
0000
0000
0000
,  // measure 32
0000
0000
0000
0000
,  // measure 33
0000
0000
0000
0000
,  // measure 34
0000
0000
0000
0000
,  // measure 35
0330
0000
0000
0000
,  // measure 36
1001
0000
0001
0100
0001
0000
2000
0000
,  // measure 37
0010
0001
0100
3001
,  // measure 38
1000
0000
0100
0010
0100
0000
0020
0000
,  // measure 39
0001
1000
0001
0130
,  // measure 40
0010
0000
0011
0001
0100
0000
2010
0000
,  // measure 41
0001
0100
0001
3010
,  // measure 42
1000
0000
0101
0001
0010
0000
1100
0000
,  // measure 43
1000
0000
0100
0000
0010
0000
0001
0000
0100
0000
0000
0010
0000
0000
0100
0000
,  // measure 44
0002
0000
0010
0010
0013
0000
1001
0000
,  // measure 45
2000
0000
0100
0100
3100
0000
1001
0000
,  // measure 46
0002
0000
0103
0001
2000
0000
3001
0010
,  // measure 47
0200
0000
0010
0010
0310
0000
0110
0000
,  // measure 48
2002
0000
0000
0000
3003
0000
0000
0000
0011
0000
0000
1100
0000
0000
1001
0000
,  // measure 49
2002
0000
0000
0000
3003
0000
0000
0000
1010
0000
0000
0101
0000
0000
0110
0000
,  // measure 50
0220
0000
0000
0330
,  // measure 51
2002
0000
3003
0000
0100
0010
0100
0001
,  // measure 52
2000
0010
0001
0100
,  // measure 53
3002
0010
0203
0010
,  // measure 54
0301
0100
0010
2000
0000
3001
0010
0100
,  // measure 55
1000
0000
0000
0001
0000
0000
1000
0000
0001
0100
0000
0001
0000
0100
0001
0000
,  // measure 56
0200
1000
0010
0001
,  // measure 57
0320
1000
0230
0001
,  // measure 58
0310
1000
0100
0010
0001
0100
0010
1000
,  // measure 59
0001
0000
0020
0000
0031
0000
1000
0000
0001
0000
0000
1000
0000
0000
0001
0000
,  // measure 60
0010
0001
0100
0020
0000
0130
0010
1000
,  // measure 61
0001
1000
0100
0020
0000
0031
1000
0001
,  // measure 62
1000
0010
0100
0010
0001
0010
0100
0001
,  // measure 63
1000
0000
0000
0001
0000
0000
1000
0000
0001
1000
0000
0001
0000
1000
0001
0000
,  // measure 64
0100
0010
0100
0010
1000
0010
1000
0001
,  // measure 65
0010
0001
0010
0100
0010
0001
1000
0001
,  // measure 66
1000
0010
0001
1000
0100
0001
1000
0001
,  // measure 67
2002
0000
0000
3003
,  // measure 68
0200
0000
0310
0000
0010
1000
0100
0010
,  // measure 69
0002
0000
1003
0000
1000
0010
0100
0001
,  // measure 70
0020
0000
0031
0100
0000
0100
0010
1000
,  // measure 71
0100
0000
0000
0100
0000
0000
0100
0000
0010
0001
0000
0010
0000
0001
0010
0000
,  // measure 72
0002
0000
0010
0000
1003
0001
0100
0010
,  // measure 73
1000
0100
0010
0200
0000
1300
0001
0100
,  // measure 74
0010
0000
1010
0000
1000
0100
0010
0001
,  // measure 75
1000
0000
2000
0000
3001
0000
1000
0000
0100
0000
0000
0010
0000
0000
0100
0000
,  // measure 76
1001
0000
0001
0100
0010
1000
0100
0010
,  // measure 77
0002
0000
1003
0001
0100
1000
0100
0010
,  // measure 78
2000
0000
3010
1000
0010
0100
0001
0010
,  // measure 79
0011
0000
0000
1100
0000
0000
1002
0000
0000
0000
1000
0000
1003
0000
0000
0000
,  // measure 80
0001
0100
0001
0100
0010
1000
0010
1000
,  // measure 81
0001
0010
0100
1000
0001
0100
0010
1000
,  // measure 82
0001
1000
0100
0010
0100
1000
0001
0100
,  // measure 83
0020
0000
0000
0000
,  // measure 84
0030
0000
0000
0000
;

//---------------dance-single - Oni-91----------------
#NOTES:
     dance-single:
     :
     Medium:
     5:
     0.378999,0.512695,0.170898,0.480143,0.000000,326.000000,305.000000,21.000000,59.000000,0.000000,0.000000,0.378999,0.512695,0.170898,0.480143,0.000000,326.000000,305.000000,21.000000,59.000000,0.000000,0.000000:
// measure 0
0010
0000
1000
0001
1000
0000
0100
0000
,  // measure 1
0020
0001
0100
0031
,  // measure 2
1000
0000
0001
0100
0001
0000
0100
0000
,  // measure 3
0010
1000
0100
0000
0020
0000
0031
0000
,  // measure 4
1000
0000
0001
0100
0001
0000
1000
0000
,  // measure 5
0020
1000
0100
1030
,  // measure 6
0001
0000
1000
0100
1000
0000
0001
0000
,  // measure 7
1000
0001
0100
0000
0220
0000
0330
0000
,  // measure 8
1001
0000
1000
0001
0020
0000
0031
0000
,  // measure 9
0010
0000
0001
0100
0020
0000
0130
0000
,  // measure 10
0010
0000
1000
0001
2000
0000
3001
0000
,  // measure 11
0100
0010
0100
0001
2000
0000
3001
0000
,  // measure 12
0011
0000
0001
0100
0020
0000
1030
0000
,  // measure 13
1010
0000
1000
0001
0020
0000
0031
0000
,  // measure 14
1100
1001
0101
1001
,  // measure 15
0010
0100
0010
0000
2002
0000
3003
0000
,  // measure 16
0002
0000
0000
0000
,  // measure 17
2003
0000
0000
0000
,  // measure 18
3200
0000
0000
0000
,  // measure 19
2300
0000
0000
0000
,  // measure 20
3002
0000
0000
0000
,  // measure 21
0203
0000
0000
0000
,  // measure 22
0320
0000
0000
0000
,  // measure 23
2030
0000
0000
0000
,  // measure 24
3002
0000
0000
0000
,  // measure 25
2003
0000
3001
1000
,  // measure 26
0001
0000
0000
0100
0000
0000
0001
0000
,  // measure 27
1000
0000
0000
0100
0000
0000
0010
0000
,  // measure 28
0002
0000
0000
0000
,  // measure 29
0203
0000
0310
0100
,  // measure 30
0001
0000
0000
1000
0000
0000
0001
0000
,  // measure 31
0220
0000
0000
0000
,  // measure 32
0000
0000
0000
0000
,  // measure 33
0000
0000
0000
0000
,  // measure 34
0000
0000
0000
0000
,  // measure 35
0330
0000
0000
0000
,  // measure 36
0002
0010
1000
0010
,  // measure 37
1000
0100
1000
0100
,  // measure 38
2003
0010
0001
0010
,  // measure 39
0100
0001
0100
3001
,  // measure 40
0020
0100
1000
0100
,  // measure 41
0001
0100
1000
0100
,  // measure 42
0230
1000
0010
0001
,  // measure 43
0010
0001
0010
0301
,  // measure 44
2000
0000
0010
0010
0010
0000
3001
0000
,  // measure 45
0002
0000
0010
0010
0010
0000
1003
0000
,  // measure 46
0020
0000
0130
0100
0200
0000
0301
0001
,  // measure 47
0002
0000
0010
0010
0010
0000
1003
0000
,  // measure 48
0220
0000
0330
0000
,  // measure 49
2002
0000
3003
0000
,  // measure 50
0220
0000
0330
0000
,  // measure 51
2002
3003
2002
3003
,  // measure 52
0001
0000
0100
0000
0010
1000
0100
0000
,  // measure 53
0010
0000
0001
0000
1000
0001
1000
0000
,  // measure 54
0002
0000
0100
0100
0000
1000
1003
0000
,  // measure 55
2000
0000
0010
0010
0000
0001
3001
0000
,  // measure 56
1000
0000
0100
0000
0010
0001
0100
0000
,  // measure 57
0001
0000
0100
0000
0010
1000
0010
0000
,  // measure 58
1000
0000
0001
0100
0000
0010
1000
0001
,  // measure 59
2000
0010
0001
3010
,  // measure 60
1000
0000
0100
0000
0010
0001
0010
0000
,  // measure 61
0001
0000
0100
0000
0010
1000
0010
0000
,  // measure 62
1000
0000
0001
1000
0000
0001
1000
0000
,  // measure 63
0020
1000
0001
1030
,  // measure 64
0100
0000
0010
0001
0100
0000
0001
0000
,  // measure 65
1000
0000
0010
0100
0001
0000
1000
0000
,  // measure 66
0100
0000
1000
0001
0000
0100
0010
0000
,  // measure 67
2002
0000
0000
3003
,  // measure 68
0001
0000
0100
0000
0010
1000
0010
1000
,  // measure 69
0010
0000
1000
0000
0100
0000
0010
0001
,  // measure 70
0010
0001
0100
0010
,  // measure 71
1000
0101
0010
1100
,  // measure 72
0010
0000
0001
0000
0100
0010
0100
0010
,  // measure 73
0100
0000
0001
0000
1000
0000
0001
0100
,  // measure 74
0020
1000
0100
1030
,  // measure 75
2002
0000
0000
3003
,  // measure 76
1000
0000
0100
0000
0010
0001
0010
0001
,  // measure 77
1000
0000
0001
0000
0100
0000
0010
0100
,  // measure 78
0001
1000
0100
0010
,  // measure 79
2002
0000
3003
0000
,  // measure 80
0001
0100
0001
0000
1000
0010
1000
0000
,  // measure 81
0001
1000
0001
0000
1000
0100
1000
0000
,  // measure 82
0001
0010
0100
0000
0010
0001
1000
0000
,  // measure 83
0220
0000
0000
0000
,  // measure 84
0330
0000
0000
0000
;

//---------------dance-single - Oni-91----------------
#NOTES:
     dance-single:
     :
     Easy:
     4:
     0.285993,0.478516,0.203451,0.577799,0.000000,246.000000,221.000000,25.000000,71.000000,0.000000,0.000000,0.285993,0.478516,0.203451,0.577799,0.000000,246.000000,221.000000,25.000000,71.000000,0.000000,0.000000:
// measure 0
1000
0100
0010
0001
,  // measure 1
0200
0000
0000
0300
,  // measure 2
0001
0100
0010
1000
,  // measure 3
0001
0010
0100
1000
,  // measure 4
0001
1000
0001
0100
,  // measure 5
0020
0000
0000
0030
,  // measure 6
1000
0100
0010
0001
,  // measure 7
1000
0001
2002
3003
,  // measure 8
0001
0100
0002
0003
,  // measure 9
1000
0100
2000
3000
,  // measure 10
0001
0010
0100
0100
,  // measure 11
1000
0010
0200
0300
,  // measure 12
0010
0100
2002
3003
,  // measure 13
0010
0100
2002
3003
,  // measure 14
0110
0110
1001
1001
,  // measure 15
0220
0000
0330
0000
,  // measure 16
2000
0000
0000
0000
,  // measure 17
3200
0000
0000
0000
,  // measure 18
0320
0000
0000
0000
,  // measure 19
0230
0000
0000
0000
,  // measure 20
2300
0000
0000
0000
,  // measure 21
3002
0000
0000
0000
,  // measure 22
0203
0000
0000
0000
,  // measure 23
0302
0000
0000
0000
,  // measure 24
2003
0000
0000
0000
,  // measure 25
3002
0000
0023
0000
,  // measure 26
0230
0000
0000
0000
,  // measure 27
2300
0000
0000
0000
,  // measure 28
3020
0000
0000
0000
,  // measure 29
0230
0000
0302
0000
,  // measure 30
2003
0000
0000
0000
,  // measure 31
0002
0000
0000
0000
,  // measure 32
0000
0000
0000
0000
,  // measure 33
0000
0000
0000
0000
,  // measure 34
0000
0000
0000
0000
,  // measure 35
3003
0000
0000
0000
,  // measure 36
1000
0100
2000
3000
,  // measure 37
0002
1000
1000
1003
,  // measure 38
0001
0010
0002
0003
,  // measure 39
2000
0001
0001
3001
,  // measure 40
0001
0100
0020
0030
,  // measure 41
0200
0010
0010
0310
,  // measure 42
0010
1000
0200
0300
,  // measure 43
0020
0100
0100
0130
,  // measure 44
0010
0001
0200
0300
,  // measure 45
0010
1000
0200
0300
,  // measure 46
1000
0001
1000
0001
,  // measure 47
0010
0100
0020
0030
,  // measure 48
0010
0001
2002
3003
,  // measure 49
0010
1000
2002
3003
,  // measure 50
0220
0000
0000
0330
,  // measure 51
2002
0000
3003
0000
,  // measure 52
1001
0100
0001
0100
,  // measure 53
0010
1000
0100
0010
,  // measure 54
0100
1000
0100
1000
,  // measure 55
2002
0000
0000
3003
,  // measure 56
0001
0100
0001
0100
,  // measure 57
0010
1000
0100
0010
,  // measure 58
0110
0100
0110
0010
,  // measure 59
2002
0000
0000
3003
,  // measure 60
0001
0100
0001
0001
,  // measure 61
1000
0100
1000
1000
,  // measure 62
0001
0010
0100
0010
,  // measure 63
0001
1000
2002
3003
,  // measure 64
0001
0100
0010
0010
,  // measure 65
0100
0010
1000
1000
,  // measure 66
0100
0010
0100
0010
,  // measure 67
2002
0000
0000
3003
,  // measure 68
1000
0100
1000
0000
,  // measure 69
0001
0100
0001
0000
,  // measure 70
1000
0100
0010
0001
,  // measure 71
0100
0010
2002
3003
,  // measure 72
0001
0100
0001
0000
,  // measure 73
1000
0100
1000
0000
,  // measure 74
0001
0010
0100
0010
,  // measure 75
0001
1000
0010
0100
,  // measure 76
0001
0100
0220
0330
,  // measure 77
1000
0100
0220
0330
,  // measure 78
0010
0001
1000
0100
,  // measure 79
1000
0001
0200
0300
,  // measure 80
0010
0100
2002
3003
,  // measure 81
0010
0100
2002
3003
,  // measure 82
0010
1000
0100
0010
,  // measure 83
2002
0000
0000
0000
,  // measure 84
3003
0000
0000
0000
;

//---------------dance-single - Oni-91----------------
#NOTES:
     dance-single:
     :
     Beginner:
     2:
     0.148810,0.202637,0.073242,0.000000,0.000000,128.000000,119.000000,9.000000,0.000000,0.000000,0.000000,0.148810,0.202637,0.073242,0.000000,0.000000,128.000000,119.000000,9.000000,0.000000,0.000000,0.000000:
// measure 0
1000
0000
0001
0000
,  // measure 1
0000
0000
0000
0000
,  // measure 2
0100
0000
0010
0000
,  // measure 3
0100
0000
0001
0000
,  // measure 4
1000
0000
0001
0000
,  // measure 5
0000
0000
0000
0000
,  // measure 6
1000
0000
0001
0000
,  // measure 7
0100
0100
0100
0000
,  // measure 8
0010
0000
0100
0000
,  // measure 9
0010
0000
0100
0000
,  // measure 10
0001
0000
1000
0000
,  // measure 11
0001
0000
0010
0000
,  // measure 12
0100
0000
0100
0000
,  // measure 13
0010
0000
0010
0000
,  // measure 14
0001
0000
1000
0000
,  // measure 15
0001
0000
1001
0000
,  // measure 16
0100
0000
0000
0000
,  // measure 17
0100
0000
0000
0000
,  // measure 18
0010
0000
0000
0000
,  // measure 19
0100
0000
0000
0000
,  // measure 20
0001
0000
0000
0000
,  // measure 21
0001
0000
0000
0000
,  // measure 22
1000
0000
0000
0000
,  // measure 23
0001
0000
0000
0000
,  // measure 24
1000
0000
0000
0000
,  // measure 25
0100
0000
0000
0000
,  // measure 26
0010
0000
0000
0000
,  // measure 27
0001
0000
0000
0000
,  // measure 28
1000
0000
0000
0000
,  // measure 29
0001
0000
0000
0000
,  // measure 30
0100
0000
0000
0000
,  // measure 31
1001
0000
0000
0000
,  // measure 32
0000
0000
0000
0000
,  // measure 33
0000
0000
0000
0000
,  // measure 34
0000
0000
0000
0000
,  // measure 35
0000
0000
0000
0000
,  // measure 36
1000
0000
0100
0000
,  // measure 37
1000
0000
0000
0000
,  // measure 38
0001
0000
0100
0000
,  // measure 39
0001
0000
0000
0000
,  // measure 40
1000
0000
0001
0000
,  // measure 41
1000
0000
0000
0000
,  // measure 42
0001
0000
0100
0000
,  // measure 43
0010
0000
0000
0000
,  // measure 44
0100
0000
0100
0000
,  // measure 45
0010
0000
0010
0000
,  // measure 46
1000
0000
0001
0000
,  // measure 47
1000
0000
0001
0000
,  // measure 48
1001
0000
0000
0000
,  // measure 49
0110
0000
0000
0000
,  // measure 50
1001
0000
0000
0000
,  // measure 51
0110
0000
0000
0000
,  // measure 52
0001
0000
0000
0000
,  // measure 53
0100
0000
0001
0000
,  // measure 54
1000
0000
0100
0000
,  // measure 55
0010
0000
0000
0000
,  // measure 56
0100
0000
0000
0000
,  // measure 57
0010
0000
0100
0000
,  // measure 58
1000
0000
0001
0000
,  // measure 59
0100
0000
0000
0000
,  // measure 60
0001
0000
0001
0000
,  // measure 61
1000
0000
0100
0000
,  // measure 62
1000
0000
1000
0000
,  // measure 63
0010
0000
0000
0000
,  // measure 64
0100
0000
0010
0000
,  // measure 65
1000
0000
0100
0000
,  // measure 66
0010
0000
0100
0000
,  // measure 67
1000
0000
0000
0000
,  // measure 68
1001
0000
0000
0000
,  // measure 69
0001
0000
0000
0000
,  // measure 70
0100
0000
0001
0000
,  // measure 71
1000
0000
0100
0000
,  // measure 72
0010
0000
0000
0000
,  // measure 73
0100
0000
0000
0000
,  // measure 74
0010
0000
0100
0000
,  // measure 75
0010
0000
0000
0000
,  // measure 76
1001
0000
0000
0000
,  // measure 77
1000
0000
0000
0000
,  // measure 78
0001
0000
0100
0000
,  // measure 79
0010
0000
1000
0000
,  // measure 80
0001
0000
1000
0000
,  // measure 81
0100
0000
0010
0000
,  // measure 82
0001
0000
1000
0000
,  // measure 83
1001
0000
0000
0000
;
