#TITLE:We Come 1;
#SUBTITLE:;
#ARTIST:Faithless;
#TITLETRANSLIT:;
#SUBTITLETRANSLIT:;
#ARTISTTRANSLIT:;
#GENRE:;
#CREDIT:;
#BANNER:We Come 1.png;
#BACKGROUND:We Come 1-bg.png;
#LYRICSPATH:;
#CDTITLE:;
#MUSIC:We Come 1.mp3;
#OFFSET:-7.080000;
#SAMPLESTART:77.660004;
#SAMPLELENGTH:14.110000;
#SELECTABLE:YES;
#BPMS:0.000000=135.990005
;
#STOPS:
;
#BGCHANGES:;
#KEYSOUNDS:;
#ATTACKS:;

//---------------dance-single - Oni-91----------------
#NOTES:
     dance-single:
     :
     Hard:
     7:
     0.411038,0.511514,0.228354,0.301428,0.036537,315.000000,290.000000,25.000000,33.000000,0.000000,0.000000,0.411038,0.511514,0.228354,0.301428,0.036537,315.000000,290.000000,25.000000,33.000000,0.000000,0.000000:
// measure 0
2010
0000
0001
0000
0100
0000
0000
0001
,  // measure 1
0001
0000
0001
0002
0000
0000
3000
0000
,  // measure 2
0100
0000
1000
0000
0010
0000
0000
0100
,  // measure 3
0100
0000
0100
0203
0000
0000
0000
0000
,  // measure 4
1000
0000
0010
0000
0001
0000
0000
0010
,  // measure 5
0010
0000
0010
0320
0000
0000
0000
0000
,  // measure 6
0001
0000
0100
0000
1000
0000
0000
0100
,  // measure 7
0100
0000
1000
1030
0000
1000
0001
0000
,  // measure 8
1001
0000
1000
0000
0100
0000
1000
0100
,  // measure 9
0010
0000
0100
1000
0001
0000
1000
0000
,  // measure 10
0010
0000
0100
0000
0001
0000
0100
0010
,  // measure 11
1000
0000
0001
0010
0100
0000
0010
0000
,  // measure 12
1001
0000
0100
0010
1000
0000
0100
0001
,  // measure 13
0100
0010
0001
0100
,  // measure 14
0010
0000
0100
1000
0100
0000
0002
0000
,  // measure 15
2000
0000
0000
3003
,  // measure 16
0001
0100
1000
0100
0001
0000
1001
1000
,  // measure 17
0100
0000
0010
0100
1000
0010
0100
0000
,  // measure 18
0001
0010
0100
0001
0100
0000
1100
1000
,  // measure 19
0010
0000
0100
0001
0010
0100
0001
0100
,  // measure 20
1000
0001
0100
1000
0100
0000
1010
1000
,  // measure 21
0001
0000
0010
0001
0100
0010
1000
0000
,  // measure 22
0001
1000
0100
0001
0100
0000
1001
1000
,  // measure 23
0020
1000
0001
1030
,  // measure 24
0001
0010
0100
1000
0001
0100
0010
0000
,  // measure 25
1000
0010
0100
0010
0100
0001
1000
0000
,  // measure 26
0010
1000
0100
1000
0000
0001
0100
0000
,  // measure 27
0010
0100
0001
1000
0200
0000
0310
0000
,  // measure 28
0010
0001
1000
0001
0100
0000
1010
0000
,  // measure 29
0010
1000
0000
1000
0001
0000
0011
0000
,  // measure 30
0001
0000
0000
0000
1000
0000
0010
0000
0100
0000
0000
0001
0000
0000
0100
0000
,  // measure 31
0010
0000
0000
1000
0000
0000
0010
0000
1000
0000
0000
0001
0000
0000
1000
0000
,  // measure 32
2001
0001
0002
0000
,  // measure 33
0000
0000
0000
0000
,  // measure 34
0000
0000
0000
0000
,  // measure 35
0000
0000
3003
0000
,  // measure 36
0010
0100
2002
3003
,  // measure 37
0100
0010
2002
3003
,  // measure 38
1000
0001
0220
0330
,  // measure 39
2002
0000
0000
3003
,  // measure 40
1000
0010
1000
0001
1000
0000
0011
0001
,  // measure 41
0100
0000
1010
1000
0100
0000
0110
0000
,  // measure 42
1000
0001
0100
0010
1000
0000
1001
1000
,  // measure 43
0100
0000
1001
0001
0100
0000
1010
0000
,  // measure 44
1000
0100
0010
0001
0100
0000
1010
1000
,  // measure 45
0001
0000
0011
0001
1000
0000
0110
0100
,  // measure 46
0001
1000
0100
0010
0001
0000
1100
1000
,  // measure 47
0001
0000
0101
0001
2000
0000
3010
0000
,  // measure 48
1000
0100
0020
0000
0031
0100
0020
0000
,  // measure 49
1030
0001
0200
0000
0301
1000
0200
1000
,  // measure 50
1300
0100
0020
0000
0031
1000
0002
0000
,  // measure 51
0103
0010
2000
0000
3100
0010
0002
1000
,  // measure 52
1003
0010
0200
0001
0301
0010
0200
1000
,  // measure 53
1300
0001
2000
0010
3010
0100
0002
1000
,  // measure 54
1003
0100
0020
0001
0130
0010
0002
1000
,  // measure 55
0103
0010
0000
0000
0100
0000
0001
1000
0001
1000
0000
0000
0001
1000
0001
1000
,  // measure 56
0001
0000
0000
0000
;

//---------------dance-single - Oni-91----------------
#NOTES:
     dance-single:
     :
     Beginner:
     1:
     0.127878,0.204605,0.054805,0.000000,0.000000,98.000000,92.000000,6.000000,0.000000,0.000000,0.000000,0.127878,0.204605,0.054805,0.000000,0.000000,98.000000,92.000000,6.000000,0.000000,0.000000,0.000000:
// measure 0
1001
0000
0000
0000
,  // measure 1
0000
0000
0000
0000
,  // measure 2
0001
0000
0000
0000
,  // measure 3
0000
0000
0000
0000
,  // measure 4
0100
0000
0000
0000
,  // measure 5
0000
0000
0000
0000
,  // measure 6
0010
0000
0000
0000
,  // measure 7
0000
0000
0000
0000
,  // measure 8
1001
0000
1000
0000
,  // measure 9
0100
0000
0000
0000
,  // measure 10
0010
0000
0001
0000
,  // measure 11
1000
0000
0000
0000
,  // measure 12
0001
0000
1000
0000
,  // measure 13
0001
0000
1000
0000
,  // measure 14
0010
0000
0100
0000
,  // measure 15
0010
0000
0000
0000
,  // measure 16
1001
0000
0000
0000
,  // measure 17
1000
0000
0100
0000
,  // measure 18
0010
0000
0000
0000
,  // measure 19
0100
0000
1000
0000
,  // measure 20
0001
0000
0000
0000
,  // measure 21
1000
0000
0001
0000
,  // measure 22
0100
0000
0000
0000
,  // measure 23
0010
0000
0100
0000
,  // measure 24
0010
0010
0010
0000
,  // measure 25
0100
0100
0100
0000
,  // measure 26
0001
0000
1000
0000
,  // measure 27
0001
0001
0001
0000
,  // measure 28
1000
0000
0100
0000
,  // measure 29
0010
0000
0001
0000
,  // measure 30
1000
0000
0010
0000
,  // measure 31
0100
0100
0100
0100
,  // measure 32
0100
0000
0000
0000
,  // measure 33
0000
0000
0000
0000
,  // measure 34
0000
0000
0000
0000
,  // measure 35
0000
0000
0000
0000
,  // measure 36
0001
0001
0001
0000
,  // measure 37
1000
1000
1000
0000
,  // measure 38
0001
0001
0001
0000
,  // measure 39
1001
0000
0000
0000
,  // measure 40
1001
0000
1000
0000
,  // measure 41
0001
0000
0000
0000
,  // measure 42
1000
0000
0100
0000
,  // measure 43
0010
0000
0100
0000
,  // measure 44
1000
0000
0001
0000
,  // measure 45
0100
0000
0000
0000
,  // measure 46
0010
0000
0100
0000
,  // measure 47
0001
0000
1000
0000
,  // measure 48
0001
0000
0010
0000
,  // measure 49
0001
0000
1000
0000
,  // measure 50
0001
0000
1000
0000
,  // measure 51
0010
0000
0100
0000
,  // measure 52
0010
0000
1000
0000
,  // measure 53
0100
0000
0010
0000
,  // measure 54
0001
0000
0100
0000
,  // measure 55
0010
0000
1000
0000
,  // measure 56
1001
0000
0000
0000
;

//---------------dance-single - Oni-91----------------
#NOTES:
     dance-single:
     :
     Easy:
     4:
     0.223135,0.255757,0.045671,0.073073,0.000000,171.000000,166.000000,5.000000,8.000000,0.000000,0.000000,0.223135,0.255757,0.045671,0.073073,0.000000,171.000000,166.000000,5.000000,8.000000,0.000000,0.000000:
// measure 0
1000
0001
1000
0000
,  // measure 1
0001
0000
0000
1000
0000
0000
0000
0000
,  // measure 2
0001
1000
0001
0000
,  // measure 3
1000
0000
0000
0001
0000
0000
0000
0000
,  // measure 4
0100
0010
0100
0000
,  // measure 5
0010
0000
0000
0100
0000
0000
0000
0000
,  // measure 6
0010
0100
0010
0000
,  // measure 7
0100
0000
0000
0010
0000
0000
0100
0000
,  // measure 8
0010
0100
0001
0000
,  // measure 9
1000
0100
0010
0000
,  // measure 10
0100
0010
0001
0000
,  // measure 11
1000
0001
1000
0000
,  // measure 12
0001
0000
0100
0010
,  // measure 13
1000
0001
1000
0000
,  // measure 14
0001
1000
0100
0010
,  // measure 15
0220
0000
0000
0330
,  // measure 16
1000
0001
1000
0000
,  // measure 17
0001
0100
0001
0100
,  // measure 18
0010
1000
0010
0000
,  // measure 19
1000
0100
0010
0001
,  // measure 20
1000
0001
1000
0000
,  // measure 21
0001
0100
0010
1000
,  // measure 22
0100
1000
0100
0000
,  // measure 23
2002
0000
0000
3003
,  // measure 24
0001
0100
0010
0000
,  // measure 25
0100
0010
1000
0000
,  // measure 26
0001
1000
0001
1000
,  // measure 27
0100
0010
0100
0000
,  // measure 28
0010
0001
0010
0001
,  // measure 29
1000
0001
1000
0000
,  // measure 30
0001
0000
0100
0001
,  // measure 31
0100
0010
1000
0001
,  // measure 32
2002
0000
0000
0000
,  // measure 33
0000
0000
0000
0000
,  // measure 34
0000
0000
0000
0000
,  // measure 35
0000
0000
3003
0000
,  // measure 36
1000
1000
1000
0000
,  // measure 37
0001
0001
0001
0000
,  // measure 38
0100
0100
0100
0000
,  // measure 39
0220
0000
0000
0330
,  // measure 40
0010
0100
0010
0000
,  // measure 41
0100
0001
0100
0000
,  // measure 42
0001
1000
0100
0010
,  // measure 43
0001
1000
0001
0000
,  // measure 44
0100
0010
1000
0000
,  // measure 45
0100
0010
0001
0000
,  // measure 46
1000
0001
0100
0010
,  // measure 47
0100
0001
1000
0000
,  // measure 48
0001
0001
1000
1000
,  // measure 49
0100
0100
0010
0010
,  // measure 50
0100
1000
0100
1000
,  // measure 51
0001
0100
0001
0100
,  // measure 52
0010
0010
0100
0100
,  // measure 53
0001
0001
1000
1000
,  // measure 54
0001
0010
0100
1000
,  // measure 55
0010
0100
0001
1000
,  // measure 56
1001
0000
0000
0000
;

//---------------dance-single - Oni-91----------------
#NOTES:
     dance-single:
     :
     Medium:
     6:
     0.353623,0.383635,0.182683,0.200952,0.009134,271.000000,251.000000,20.000000,22.000000,0.000000,0.000000,0.353623,0.383635,0.182683,0.200952,0.009134,271.000000,251.000000,20.000000,22.000000,0.000000,0.000000:
// measure 0
1000
0000
0001
0000
0200
0000
0000
1000
,  // measure 1
1000
0000
0001
0002
0000
0000
0303
0000
,  // measure 2
0001
0000
1000
0000
0200
0000
0000
0001
,  // measure 3
0001
0000
1000
2000
0000
0000
3300
0000
,  // measure 4
0010
0000
0001
0000
2000
0000
0000
0001
,  // measure 5
0001
0000
0001
0002
0000
0000
3003
0000
,  // measure 6
0010
0000
1000
0000
0002
0000
0000
1000
,  // measure 7
1000
0000
1000
1003
0000
0001
1000
0000
,  // measure 8
0001
0000
0100
0000
0001
0000
1000
0100
,  // measure 9
1000
0000
0001
0010
0001
0000
1000
0000
,  // measure 10
0001
0000
0100
0000
0010
0000
1000
0001
,  // measure 11
1000
0000
0001
0010
0001
0000
1000
0000
,  // measure 12
0100
0000
0010
0100
1000
0000
0100
0010
,  // measure 13
0001
1000
0010
0100
,  // measure 14
0001
0000
1000
0001
1000
0000
0001
0000
,  // measure 15
2002
0000
0000
3003
,  // measure 16
1001
0000
1010
0000
0101
0000
0001
1000
,  // measure 17
0100
0000
1000
0001
0010
0000
0100
0000
,  // measure 18
0110
0000
0011
0000
1001
0000
1000
0010
,  // measure 19
0100
0000
0010
1000
0100
0000
0010
0000
,  // measure 20
0011
0000
1001
0000
1100
0000
1000
0001
,  // measure 21
1000
0000
0001
0100
0001
0000
1000
0000
,  // measure 22
1010
0000
0110
0000
1010
0000
0001
2000
,  // measure 23
0002
0000
0000
3003
,  // measure 24
0110
0000
0010
0000
1000
0001
1000
0000
,  // measure 25
0001
0000
0010
0001
1000
0100
1000
0000
,  // measure 26
0001
0000
1000
0010
0000
1000
0001
0000
,  // measure 27
1000
0100
0000
1000
0002
0000
1003
0000
,  // measure 28
0001
0000
1000
0010
0100
0000
0010
0000
,  // measure 29
1000
0100
0000
0010
0001
0000
1000
0000
,  // measure 30
0001
0000
0000
0000
1000
0000
0000
0000
0010
0000
0000
0010
0000
0000
0010
0000
,  // measure 31
0100
0000
0000
0100
0000
0000
0100
0000
0010
0000
0000
0000
1000
0000
0000
0000
,  // measure 32
2001
0001
0002
0000
,  // measure 33
0000
0000
0000
0000
,  // measure 34
0000
0000
0000
0000
,  // measure 35
0000
0000
3003
0000
,  // measure 36
1000
0001
2002
3003
,  // measure 37
0100
0010
0220
0330
,  // measure 38
0001
1000
2002
3003
,  // measure 39
0220
0000
0000
0330
,  // measure 40
0010
1000
0010
0000
1000
0000
0001
0010
,  // measure 41
0001
0000
0100
0010
0100
0000
0010
0000
,  // measure 42
1000
0100
0010
0000
0100
0000
1000
0001
,  // measure 43
0100
0000
0010
0100
0001
0000
1000
0000
,  // measure 44
0001
0000
0010
0000
0100
0010
0001
0010
,  // measure 45
0100
0000
0010
0001
0000
0001
1000
0000
,  // measure 46
0001
0000
0100
0000
0010
0100
0001
0100
,  // measure 47
0010
0000
1000
0010
0000
1000
0001
0000
,  // measure 48
1000
0100
1000
0000
0001
0010
0001
0000
,  // measure 49
1000
0010
0100
0000
0010
0100
0010
0100
,  // measure 50
0010
1000
0001
0000
1000
0001
1000
0000
,  // measure 51
0001
0010
0001
0000
1000
0100
1000
0100
,  // measure 52
0010
0001
0010
0000
1000
0010
0100
0000
,  // measure 53
0010
0100
0001
0000
1000
0001
0010
0100
,  // measure 54
0010
0001
0010
0000
0001
1000
0010
0000
,  // measure 55
0100
0000
0001
1000
0001
0000
0100
0000
,  // measure 56
0110
0000
0000
0000
;
