#VERSION:0.83;
#TITLE:Uptown Funk;
#SUBTITLE:;
#ARTIST:Mark Ronson feat. Bruno Mars;
#TITLETRANSLIT:;
#SUBTITLETRANSLIT:;
#ARTISTTRANSLIT:;
#GENRE:;
#ORIGIN:;
#CREDIT:;
#BANNER:Uptown Funk.png;
#BACKGROUND:Uptown Funk-bg.png;
#PREVIEWVID:;
#JACKET:;
#CDIMAGE:;
#DISCIMAGE:;
#LYRICSPATH:;
#CDTITLE:;
#MUSIC:Uptown Funk.mp3;
#OFFSET:-6.270000;
#SAMPLESTART:56.356651;
#SAMPLELENGTH:16.695652;
#SELECTABLE:YES;
#BPMS:0.000=115.000;
#STOPS:;
#DELAYS:;
#WARPS:;
#TIMESIGNATURES:0.000=4=4;
#TICKCOUNTS:0.000=4;
#COMBOS:0.000=1;
#SPEEDS:0.000=1.000=0.000=0;
#SCROLLS:0.000=1.000;
#FAKES:;
#LABELS:0.000=Song Start;
#BGCHANGES:;
#KEYSOUNDS:;
#ATTACKS:
;

//---------------dance-single - Oni-91----------------
#NOTEDATA:;
#CHARTNAME:;
#STEPSTYPE:dance-single;
#DESCRIPTION:Oni-91;
#CHARTSTYLE:;
#DIFFICULTY:Hard;
#METER:7;
#RADARVALUES:0.399078,0.401822,0.239447,0.229470,0.169608,280.000000,256.000000,24.000000,23.000000,0.000000,0.000000,0.000000,0.000000,0.000000,0.399078,0.401822,0.239447,0.229470,0.169608,280.000000,256.000000,24.000000,23.000000,0.000000,0.000000,0.000000,0.000000,0.000000;
#CREDIT:Oni-91;
#NOTES:
0000
0000
0000
1001
,
0101
0000
0010
1000
0001
0000
0010
0001
,
1000
0000
0000
0000
0001
0000
0010
0000
0100
0000
0000
0010
0000
0000
0001
0000
,
1000
0000
0001
0100
0001
0000
1000
0010
,
1000
0000
0000
0000
0001
0000
1000
0000
0100
0000
0000
1000
0000
0000
0001
0000
,
0100
0000
0000
0100
0001
0000
0000
0000
0010
0000
0000
0010
0100
0000
0000
0000
,
1000
0000
0000
1000
0001
0000
0100
0000
0010
0000
0000
0000
1000
0000
0100
0000
,
0010
0000
0001
0100
0001
0000
0100
0010
,
1000
0000
0000
0100
0000
0000
0010
0000
0002
0000
0003
0000
1000
0000
1000
0000
,
2000
0000
0000
3001
0202
0000
0303
0000
,
1000
0000
0000
0100
0000
0000
0010
0000
0001
0000
0000
0100
0000
0000
0010
0000
,
2000
0000
0000
3001
0022
0000
0033
0000
,
0001
0000
0000
0100
0000
0000
0001
0000
1000
0000
0000
0100
0000
0000
1000
0000
,
0200
0000
0310
0001
1000
0000
0101
0000
,
0010
1000
0001
0100
1000
0100
0010
1000
,
0002
0000
0013
0001
1000
0000
0110
0000
,
1000
0000
0000
0100
0000
0000
0010
0000
0001
0000
0100
0000
0100
0000
0000
0000
,
0001
1000
0001
0110
,
1000
0100
1000
0011
,
0001
0100
0001
1010
,
1000
0100
1000
0000
0001
0000
1100
0000
,
0010
0001
0100
0001
1000
0001
0100
0000
,
0010
1000
0001
1000
0100
1000
0001
0000
,
1000
0100
0010
0001
0100
0010
1000
0001
,
2002
0000
3003
0110
,
0010
1000
0001
0010
0001
1000
0010
0100
,
0010
0000
0000
1000
0000
0000
0001
0000
0010
0000
0000
0100
0000
0000
0010
0000
,
0001
0000
1010
0000
0100
0000
0010
1000
,
0001
0000
1000
0001
0000
1000
0001
0000
0200
0000
0000
0000
0300
0000
0000
0000
,
0010
0100
0001
0010
0100
1000
0001
1000
,
0001
0000
0000
0100
0000
0000
1000
0000
0001
0000
0000
0010
0000
0000
1000
0000
,
0001
0000
1100
0100
0010
0000
1001
0000
,
0001
0000
0100
0010
0000
0100
0010
0000
2000
0000
0000
0000
3000
0000
0000
0000
,
0001
0000
0010
0001
0000
0001
0010
0000
0002
0000
0000
0000
2003
0000
0000
0000
,
3010
0000
0100
0010
0000
0010
0100
0000
0020
0000
0000
0000
2030
0000
0000
0000
,
3100
0000
1000
0001
0000
1000
0001
0000
0200
0000
0000
0000
0302
0000
0010
0000
,
0000
1000
0000
0100
0000
2000
3003
0000
,
1100
0000
0101
0000
1000
0001
0100
0000
,
0001
0000
0010
0000
0001
0000
1000
0020
0000
0000
0000
0000
0130
0000
0000
0000
,
1010
0000
0011
0000
1000
0010
0100
0000
,
0001
0000
1000
0000
0001
0000
0100
0020
0000
0000
0000
0000
1030
0000
0000
0000
,
0110
0000
0000
0000
1001
0000
0000
0000
0001
0000
1000
0001
0000
0000
0100
0000
,
0001
0000
0100
0000
0100
0000
0010
2000
0000
0000
0000
0000
3100
0000
0000
0000
,
0110
0000
1001
0000
0010
0100
0010
0000
,
0001
1000
0001
1000
0000
0001
0000
1000
0001
1000
0000
0000
0110
0000
0000
0000
;

//---------------dance-single - Oni-91----------------
#NOTEDATA:;
#CHARTNAME:;
#STEPSTYPE:dance-single;
#DESCRIPTION:Oni-91;
#CHARTSTYLE:;
#DIFFICULTY:Challenge;
#METER:9;
#RADARVALUES:0.528778,0.602733,0.189562,0.239447,0.473905,371.000000,352.000000,19.000000,24.000000,0.000000,0.000000,0.000000,0.000000,0.000000,0.528778,0.602733,0.189562,0.239447,0.473905,371.000000,352.000000,19.000000,24.000000,0.000000,0.000000,0.000000,0.000000,0.000000;
#CREDIT:Oni-91;
#NOTES:
// measure 0
0000
0000
0000
0110
,  // measure 1
0001
0000
0000
1000
0000
0000
0100
0000
1000
0000
0000
0001
0000
0000
0100
0000
,  // measure 2
0010
0000
0000
0100
0000
0000
0001
0000
1000
0000
0000
0100
0000
0000
0010
0000
,  // measure 3
0001
0000
0000
0001
0000
0000
0100
0000
1000
0000
0000
1000
0000
0000
0100
0000
,  // measure 4
0010
0000
0000
0100
0000
0000
0010
0000
1000
0000
0001
0100
0000
0000
0001
0000
,  // measure 5
1000
0000
0000
0100
1000
0000
0001
0000
0100
0000
0000
0001
0010
0000
0001
0000
,  // measure 6
1000
0000
0100
0010
0000
0100
0010
0000
0001
0000
0000
0000
1001
0000
0000
0000
,  // measure 7
1000
0000
0010
1000
0000
0000
0001
0000
0010
0000
0001
1000
0000
0000
0100
0000
,  // measure 8
0100
0000
1000
0001
0000
0100
0001
0000
1000
0000
0110
0000
0001
0000
1000
0000
,  // measure 9
2002
0000
0003
0100
0200
0000
3300
0000
,  // measure 10
1000
0000
0000
0100
0000
0000
1000
0000
0100
0000
0000
0010
0000
0010
0001
0000
,  // measure 11
0022
0000
0030
1000
2000
0000
3003
0000
,  // measure 12
1000
0000
0001
0010
0000
0010
0100
0000
0010
0000
0000
0001
0000
0000
1000
0000
,  // measure 13
2200
0000
0300
0001
0002
0000
3003
0000
,  // measure 14
1000
0000
0100
0010
0000
0100
0010
0000
0001
0100
0000
0100
0000
0000
0010
0000
,  // measure 15
2020
0000
0030
0001
0002
0000
3003
0000
,  // measure 16
1000
0000
0000
0100
0000
0000
0010
0000
0001
0000
1000
0001
1000
0000
0000
0000
,  // measure 17
0001
0000
0100
0000
0001
1000
0110
0000
,  // measure 18
1000
0000
0001
0000
1000
0100
0011
0000
,  // measure 19
0001
0000
0100
0000
0010
0100
1001
0000
,  // measure 20
0001
0000
1000
0000
0001
0000
1000
0000
0010
0100
0010
0200
0301
0000
0000
0000
,  // measure 21
1000
0000
0100
0000
0010
0000
0001
0000
1000
0001
1000
0001
0100
0000
0100
0000
,  // measure 22
0001
0000
0100
0000
0010
0000
1000
0000
0001
1000
0001
1000
0100
0000
0010
0000
,  // measure 23
0001
0100
0001
0000
1000
0000
0100
0000
0010
0000
0001
0000
0100
0000
0010
0000
,  // measure 24
2002
0000
3003
0110
,  // measure 25
0001
0100
0001
0100
0001
0000
1000
0100
1000
0100
1000
0000
0001
1000
0001
1000
,  // measure 26
0001
0000
1000
0000
0100
0000
0010
0000
0001
0000
0100
0000
0010
1000
0001
0010
,  // measure 27
0001
0000
1100
0000
0010
0001
1000
0010
,  // measure 28
0100
0000
0010
1000
0000
0001
1000
0000
0001
0000
1000
0100
0010
0001
0100
0010
,  // measure 29
1000
0100
1000
0100
0010
0000
0001
0100
0001
0100
0010
0000
1000
0001
1000
0001
,  // measure 30
0100
0000
0010
0000
1000
0000
0100
0000
0010
0000
0001
0000
1000
0100
0010
0001
,  // measure 31
0100
0000
0000
0000
1010
0000
0000
0000
0100
0010
1000
0100
0010
0000
0100
0000
,  // measure 32
0010
0000
0001
0010
0000
0001
0010
0000
0001
0000
1000
0100
1000
0100
1000
0100
,  // measure 33
1000
0000
0001
1000
0000
0001
1000
0000
0001
0000
0100
0001
1000
0100
0010
0001
,  // measure 34
0100
0000
0010
1000
0000
0001
0100
0000
0001
0000
1000
0100
1000
0001
0100
0001
,  // measure 35
0010
0000
0100
1000
0000
0001
1000
0000
0001
0000
1000
0100
0010
0100
1000
0100
,  // measure 36
0020
0001
0032
1000
2003
0010
3001
0000
,  // measure 37
1001
0000
0010
0000
0001
0000
1000
0000
0100
0000
0010
0001
0000
0001
2000
0000
,  // measure 38
0001
0000
0001
0000
0001
0000
0001
0002
0000
0000
3003
0000
0110
0000
0000
0000
,  // measure 39
0100
0000
0001
0000
1000
0000
0100
0000
0010
0000
0100
1000
0000
0001
0200
0000
,  // measure 40
0010
0000
0010
0000
0010
0000
0010
0310
1000
0100
0010
0002
0000
0000
1003
0000
,  // measure 41
1001
0000
0010
0000
0100
0000
0010
0000
1000
0000
0100
1000
0000
0001
0020
0000
,  // measure 42
0100
0000
0100
0000
0100
0000
0100
0200
0000
0000
0330
0000
1001
0000
0000
0000
,  // measure 43
1000
0000
0100
0000
0010
0000
0001
0010
0100
0000
0010
0000
0001
0000
0100
0000
,  // measure 44
0001
1000
0001
1000
0000
0010
0000
0100
0001
1000
0000
0000
1001
0000
0000
0000
;

//---------------dance-single - Oni-91----------------
#NOTEDATA:;
#CHARTNAME:;
#STEPSTYPE:dance-single;
#DESCRIPTION:Oni-91;
#CHARTSTYLE:;
#DIFFICULTY:Medium;
#METER:4;
#RADARVALUES:0.290757,0.290205,0.149654,0.229470,0.000000,204.000000,189.000000,15.000000,23.000000,0.000000,0.000000,0.000000,0.000000,0.000000,0.290757,0.290205,0.149654,0.229470,0.000000,204.000000,189.000000,15.000000,23.000000,0.000000,0.000000,0.000000,0.000000,0.000000;
#CREDIT:Oni-91;
#NOTES:
0000
0000
0000
1001
,
0001
0100
0001
1000
,
0100
0100
0010
0010
,
0001
1000
0001
0100
,
0010
0010
1000
1000
,
0002
0003
0200
0300
,
0001
1000
0100
0010
,
0002
0003
2000
3000
,
0010
0000
0100
0000
2002
3003
0000
0000
,
2001
0000
0000
0100
0200
0000
3300
0000
,
1000
0100
0010
0001
,
1002
0000
0000
0100
0200
0000
0303
0000
,
0100
0000
0010
0000
1000
0000
0001
1000
,
0200
0000
0000
0010
0020
0000
0330
0000
,
0010
0000
0001
0000
1000
0001
0100
0001
,
2000
0000
0000
0001
0002
0000
3003
0000
,
1000
0000
0001
1000
0100
0000
1000
0000
,
0001
0001
0001
1001
,
0100
0100
0100
0110
,
0010
0010
0010
1001
,
1000
1000
1000
1001
,
0001
0010
0100
0001
,
0100
1000
0001
0100
,
0010
0000
1000
0000
0001
1000
0001
0000
,
0220
0000
0000
0330
,
0001
0010
0001
0000
1000
0100
1000
0000
,
0001
0000
0100
0000
0010
0000
1000
0001
,
0010
0000
0100
0000
0010
0000
0001
1000
,
0001
0000
0100
0000
0010
0100
0010
0000
,
1000
0100
0010
0000
0001
0100
0010
0000
,
1000
0000
0001
0000
0100
0010
0100
0010
,
0100
0000
0001
0000
1000
0000
0001
0010
,
0001
0000
1000
0001
0100
0000
1001
0000
,
1000
0000
0100
0100
0100
0000
1000
0000
,
0001
0000
0100
0100
0100
0000
0001
0000
,
1000
0000
0001
0001
0001
0000
0200
0010
,
0000
0010
0000
0010
0000
0020
0330
0000
,
1001
0000
0100
0000
0010
0100
0001
0000
,
2000
0000
0001
0001
3001
0000
1000
0000
,
0100
0000
0010
0000
0001
0010
0100
0000
,
0020
0000
0001
0001
0031
0000
1001
0000
,
0110
0000
0100
0000
0001
1000
0001
0000
,
2000
0000
0100
0100
3100
0000
1000
0000
,
0010
0000
0100
0000
0010
0100
0010
0000
,
2002
0000
3003
0110
;

//---------------dance-single - Oni-91----------------
#NOTEDATA:;
#CHARTNAME:;
#STEPSTYPE:dance-single;
#DESCRIPTION:Oni-91;
#CHARTSTYLE:;
#DIFFICULTY:Easy;
#METER:3;
#RADARVALUES:0.219493,0.290205,0.189562,0.219493,0.000000,154.000000,135.000000,19.000000,22.000000,0.000000,0.000000,0.000000,0.000000,0.000000,0.219493,0.290205,0.189562,0.219493,0.000000,154.000000,135.000000,19.000000,22.000000,0.000000,0.000000,0.000000,0.000000,0.000000;
#CREDIT:Oni-91;
#NOTES:
0000
0000
0000
0110
,
1001
0000
0001
0000
,
1000
0100
0010
0010
,
0100
0000
1000
0000
,
0001
1000
0010
0010
,
0200
0300
0020
0030
,
1000
0001
1000
0000
,
0001
0000
0010
0000
,
0100
0000
0010
0000
0002
0003
0000
0000
,
2002
0000
0000
0003
3000
0000
0000
0000
,
0001
0100
0001
0100
,
0220
0000
0000
0030
0300
0000
0000
0000
,
0001
1000
0100
0010
,
2002
0000
0000
3000
0003
0000
0000
0000
,
1000
0001
0100
0010
,
0220
0000
0000
0300
0030
0000
0000
0000
,
0100
0010
1000
0001
,
1000
1000
1000
1000
,
0100
0100
0100
0100
,
0010
0010
0010
0010
,
0001
0001
0001
0001
,
1000
0001
1000
0001
,
0100
0010
0100
0010
,
1000
0100
0010
0001
,
2002
0000
0000
3003
,
0001
0100
0001
0000
,
1000
0001
1000
0100
,
0010
0001
0010
0001
,
2002
0000
3003
0000
,
0110
0000
0100
0001
,
1000
0100
0010
0001
,
1000
0000
0001
1000
,
2002
0000
3003
0000
,
0210
0010
0310
0000
,
1002
1000
1003
0000
,
0120
0100
0130
0000
,
1001
1001
0110
1001
,
1000
0100
1000
1000
,
0001
1000
0001
0000
,
0001
0100
0001
0001
,
1000
0100
0010
0000
,
0100
0010
0001
0100
,
0010
0010
0100
0000
,
0010
1000
0001
0100
,
2002
0000
3003
1001
;

//---------------dance-single - Oni-91----------------
#NOTEDATA:;
#CHARTNAME:;
#STEPSTYPE:dance-single;
#DESCRIPTION:Oni-91;
#CHARTSTYLE:;
#DIFFICULTY:Beginner;
#METER:1;
#RADARVALUES:0.116873,0.156264,0.029931,0.000000,0.000000,82.000000,79.000000,3.000000,0.000000,0.000000,0.000000,0.000000,0.000000,0.000000,0.116873,0.156264,0.029931,0.000000,0.000000,82.000000,79.000000,3.000000,0.000000,0.000000,0.000000,0.000000,0.000000,0.000000;
#CREDIT:Oni-91;
#NOTES:
0000
0000
0000
0000
,
1000
0000
1000
0000
,
0001
0000
0001
0000
,
0100
0000
0010
0000
,
0100
0000
0100
0000
,
0001
0000
1000
0000
,
0001
0000
0000
0000
,
0100
0000
0010
0000
,
0100
0000
0000
0000
,
1001
0000
0000
0000
,
1000
0000
0001
0000
,
0100
0000
0000
0000
,
0001
0000
1000
0000
,
0100
0000
0000
0000
,
0010
0000
0001
0000
,
0100
0000
0000
0000
,
0010
0000
1000
1000
,
1000
0000
0000
0001
,
0000
0000
0000
0100
,
0000
0000
0000
0010
,
0000
0000
0000
0000
,
1000
0000
0100
0000
,
0010
0000
0001
0000
,
1000
0000
0001
0000
,
1001
0000
0000
0000
,
0001
0000
0001
0000
,
0100
0000
0001
0000
,
1000
0000
0000
0000
,
0100
0000
1000
0000
,
0001
0000
0010
0000
,
0100
0000
0100
0000
,
0010
0000
0001
0000
,
1000
0000
0001
0001
,
0001
0000
0000
0100
,
0100
0000
0000
0010
,
0010
0000
0000
0000
,
1000
1000
1000
1000
,
1000
0000
0001
0000
,
1000
0000
0001
0000
,
0010
0000
0100
0000
,
0010
0000
0100
0000
,
0010
0000
0001
0000
,
1000
0000
0100
0000
,
0010
0000
0001
0000
,
1000
0000
0000
1001
;
