#VERSION:0.83;
#TITLE:Une mage blanche;
#SUBTITLE:;
#ARTIST:Dormir;
#TITLETRANSLIT:;
#SUBTITLETRANSLIT:;
#ARTISTTRANSLIT:;
#GENRE:;
#ORIGIN:;
#CREDIT:;
#BANNER:Une mage blanche.png;
#BACKGROUND:Une mage blanche-bg.png;
#PREVIEWVID:;
#JACKET:;
#CDIMAGE:;
#DISCIMAGE:;
#LYRICSPATH:;
#CDTITLE:;
#MUSIC:Une mage blanche.mp3;
#OFFSET:-1.270000;
#SAMPLESTART:80.213432;
#SAMPLELENGTH:14.922279;
#SELECTABLE:YES;
#BPMS:0.000=193.000;
#STOPS:;
#DELAYS:;
#WARPS:;
#TIMESIGNATURES:0.000=4=4;
#TICKCOUNTS:0.000=4;
#COMBOS:0.000=1;
#SPEEDS:0.000=1.000=0.000=0;
#SCROLLS:0.000=1.000;
#FAKES:;
#LABELS:0.000=Song Start;
#BGCHANGES:;
#KEYSOUNDS:;
#ATTACKS:
;

//---------------dance-single - Oni-91----------------
#NOTEDATA:;
#CHARTNAME:;
#STEPSTYPE:dance-single;
#DESCRIPTION:Oni-91;
#CHARTSTYLE:;
#DIFFICULTY:Medium;
#METER:7;
#RADARVALUES:0.556321,0.579448,0.250089,0.133976,0.000000,436.000000,408.000000,28.000000,15.000000,0.000000,0.000000,0.000000,0.000000,0.000000,0.556321,0.579448,0.250089,0.133976,0.000000,436.000000,408.000000,28.000000,15.000000,0.000000,0.000000,0.000000,0.000000,0.000000;
#CREDIT:Oni-91;
#NOTES:
// measure 0
1001
0000
0000
1000
0001
0000
0000
0000
,  // measure 1
0010
0000
0100
0000
1000
0001
1000
0000
,  // measure 2
0001
0000
0000
0100
0010
0000
0000
0000
,  // measure 3
1000
0000
0010
0000
0100
0001
0100
0001
,  // measure 4
1000
0000
0000
0100
1000
0000
0000
0000
,  // measure 5
0001
0000
0010
0000
0100
0000
0010
0001
,  // measure 6
1000
0000
0000
1000
0001
0000
0000
0001
,  // measure 7
0100
0000
1010
0000
0001
1000
0001
0000
,  // measure 8
0110
0000
0000
0010
1000
0000
0100
0000
,  // measure 9
0010
0000
0001
0000
1000
0001
1000
0000
,  // measure 10
0001
0000
0000
1000
0010
0000
0100
0000
,  // measure 11
0010
0000
1000
0000
0001
0010
0001
0000
,  // measure 12
1000
0000
0010
0100
0001
0000
1000
0000
,  // measure 13
0100
0000
0010
0000
0100
1000
0001
0000
,  // measure 14
0100
0000
0010
1000
0100
0000
0010
0000
,  // measure 15
0100
0000
0010
0000
0001
1000
0001
0000
,  // measure 16
0010
0000
0100
0010
0001
0000
0100
0000
,  // measure 17
0010
0100
0000
0010
1000
0000
0001
0000
,  // measure 18
1000
0000
0100
0010
0001
0000
1000
0000
,  // measure 19
0010
0100
0000
0010
1000
0000
0001
0000
,  // measure 20
1000
0100
0010
0001
,  // measure 21
1000
0010
0000
0100
0010
0000
0100
0010
,  // measure 22
1000
0000
0001
0010
0001
0000
1000
0000
,  // measure 23
0100
0010
0100
0010
0000
0001
1000
0000
,  // measure 24
2002
0000
3003
0000
1000
0100
0000
0010
,  // measure 25
0000
0001
0010
0000
0001
1000
0001
0000
,  // measure 26
0010
0000
0001
0100
0001
0000
1000
0010
,  // measure 27
0000
0100
0001
0000
1000
0001
1000
0000
,  // measure 28
2002
0000
3003
0000
0001
0100
0000
0010
,  // measure 29
0000
1000
0001
0000
0100
0010
0100
0000
,  // measure 30
0001
1000
0100
0010
,  // measure 31
0110
0000
1001
0000
1000
0001
1000
0000
,  // measure 32
0101
0000
0010
0000
1000
0000
0001
0100
,  // measure 33
0000
0100
0001
0000
1000
0001
1000
0001
,  // measure 34
1000
0000
0001
0000
1000
0000
0100
0010
,  // measure 35
0000
0100
0010
0000
0001
1000
0001
1000
,  // measure 36
0001
0000
0100
0000
0010
0000
1000
0100
,  // measure 37
0000
0010
0001
0000
0100
0010
0100
0000
,  // measure 38
0001
1000
0001
2000
0002
0000
0000
0000
,  // measure 39
3003
0000
0000
0000
,  // measure 40
1001
0000
0001
0100
0001
0000
1000
0200
,  // measure 41
0000
0010
0000
1300
0000
0001
1000
0000
,  // measure 42
0001
0000
1000
0010
0100
0000
0010
0200
,  // measure 43
0000
1000
0000
0010
0000
0310
0100
0001
,  // measure 44
1000
0000
0001
0010
0100
0000
0010
0002
,  // measure 45
0000
1000
0000
0010
0000
1003
0001
0000
,  // measure 46
0010
0000
0100
0010
0001
0000
0001
1000
,  // measure 47
1001
0000
0011
0000
1000
1000
1000
0000
,  // measure 48
1001
0000
0000
0001
0010
0000
0000
0010
,  // measure 49
0001
0000
0000
0001
0100
0000
0010
0000
,  // measure 50
1000
0000
0000
1000
0010
0000
0000
0010
,  // measure 51
0100
0000
0000
0100
0001
0000
1000
0000
,  // measure 52
0100
0000
0000
0100
1000
0000
0000
1000
,  // measure 53
0001
0000
0010
0000
0100
0010
0100
0000
,  // measure 54
0010
0000
0001
1000
0001
0000
1000
0010
,  // measure 55
0000
0110
0000
0101
0000
1001
0000
0000
,  // measure 56
1000
0000
0001
1000
0001
0000
1000
0010
,  // measure 57
0000
0100
0001
0100
0000
0001
1000
0000
,  // measure 58
0001
0000
0010
0001
0100
0000
0010
1000
,  // measure 59
0000
0001
0010
0001
0000
1000
0100
0000
,  // measure 60
1000
0000
0001
0100
0000
0101
0000
1001
,  // measure 61
0000
1000
0100
0010
0000
0100
1000
0000
,  // measure 62
0001
0000
0010
0001
0100
0000
0010
1000
,  // measure 63
0200
0010
0010
0310
,  // measure 64
2002
0000
3003
0000
1000
0010
0000
0100
,  // measure 65
0000
0010
1000
0000
0001
0000
0010
0000
,  // measure 66
0100
0000
0010
0000
0001
1000
0000
0001
,  // measure 67
0000
1000
0010
0000
0100
0001
0100
0000
,  // measure 68
0001
0000
1000
0100
1000
0000
0001
1000
,  // measure 69
0000
0010
0100
0000
0001
0000
1100
0000
,  // measure 70
0010
0000
0001
0000
1000
0010
0100
0000
,  // measure 71
0101
1010
1100
0011
,  // measure 72
1001
0000
0000
0001
0100
0000
0010
0000
,  // measure 73
0100
0000
0001
0000
1000
0100
1000
0000
,  // measure 74
0001
0000
0000
1000
0100
0000
0010
0000
,  // measure 75
0100
0000
1000
0000
0001
0100
0001
0100
,  // measure 76
0010
0000
0000
0100
0001
0000
1000
0000
,  // measure 77
0100
0010
0001
1000
,  // measure 78
0100
0000
0000
1000
0001
1000
0000
0101
,  // measure 79
0000
0110
0000
1010
0000
1001
0000
0000
,  // measure 80
1000
0000
0100
0000
0010
0000
0001
0020
,  // measure 81
0000
1000
0100
0031
,  // measure 82
1000
0000
0010
0000
0100
0000
0001
0200
,  // measure 83
0000
1000
0010
0301
,  // measure 84
1000
0000
0001
0010
0100
0000
0010
0002
,  // measure 85
0000
0010
1000
0103
,  // measure 86
0001
1000
0001
1000
0001
0000
0000
0000
;

//---------------dance-single - Oni-91----------------
#NOTEDATA:;
#CHARTNAME:;
#STEPSTYPE:dance-single;
#DESCRIPTION:Oni-91;
#CHARTSTYLE:;
#DIFFICULTY:Hard;
#METER:8;
#RADARVALUES:0.641811,0.618078,0.285816,0.080386,0.000000,503.000000,471.000000,32.000000,9.000000,0.000000,0.000000,0.000000,0.000000,0.000000,0.641811,0.618078,0.285816,0.080386,0.000000,503.000000,471.000000,32.000000,9.000000,0.000000,0.000000,0.000000,0.000000,0.000000;
#CREDIT:Oni-91;
#NOTES:
// measure 0
1000
0000
0000
0001
0010
0100
0000
0010
,  // measure 1
0000
0001
1000
0000
0010
1000
0001
0000
,  // measure 2
1000
0000
0000
0010
0100
0001
0000
1000
,  // measure 3
0000
0100
0010
0000
0001
0010
0001
0010
,  // measure 4
0100
0000
0000
1000
0001
0100
0000
0010
,  // measure 5
0000
0100
0001
0000
1000
0001
1000
0000
,  // measure 6
0100
0000
0000
0010
0001
1000
0000
0001
,  // measure 7
0101
0000
1010
0000
0010
1000
1001
0000
,  // measure 8
1000
0000
0001
0010
0001
0000
1000
0000
,  // measure 9
0010
0000
0100
0000
0001
1000
0010
0000
,  // measure 10
0100
0000
0010
0100
0001
0000
1000
0100
,  // measure 11
0000
0010
0100
0010
0001
1000
0001
0000
,  // measure 12
1000
0000
0010
0100
0001
0000
1000
0000
,  // measure 13
0100
0010
0100
0000
0010
0001
1000
0000
,  // measure 14
0010
0000
0100
0001
0010
0000
0100
1000
,  // measure 15
0001
1000
0100
0010
0000
0100
1000
0000
,  // measure 16
0001
0000
1000
0010
0100
0000
0001
0000
,  // measure 17
1000
0100
0010
0001
0000
0010
0001
0000
,  // measure 18
1000
0000
0010
0100
0001
0000
1000
0000
,  // measure 19
0010
1000
0001
0100
0000
0100
0010
1000
,  // measure 20
0100
0000
0010
0100
0010
0000
0001
0000
,  // measure 21
1000
0001
1000
0010
0100
0001
0000
1000
,  // measure 22
0001
0000
1000
0100
1000
0000
0001
0010
,  // measure 23
0011
0000
1100
0000
0010
1000
1001
0000
,  // measure 24
0220
0000
0330
0000
0001
0100
0000
0010
,  // measure 25
0000
1000
0100
0000
0010
0001
1000
0000
,  // measure 26
0001
0000
1000
0010
1000
0000
0001
0010
,  // measure 27
0001
1000
0000
0001
0000
1000
0100
0000
,  // measure 28
2002
0000
3003
0000
0001
0010
0000
0100
,  // measure 29
0000
1000
0010
0000
0100
0001
0010
0000
,  // measure 30
1001
0000
0001
1000
0010
0000
0100
0010
,  // measure 31
1010
0000
1001
0000
0100
0100
0100
0000
,  // measure 32
1010
0000
0100
0000
1001
0000
1000
0100
,  // measure 33
0000
0100
1000
0000
0001
0010
0100
0010
,  // measure 34
0001
0000
1000
0010
0100
0001
0000
1001
,  // measure 35
0000
1000
0100
0000
0010
0001
0100
0001
,  // measure 36
1000
0000
0100
0000
0010
0100
0000
0110
,  // measure 37
0000
0010
0001
0000
1000
0001
1000
0000
,  // measure 38
0010
0100
0010
0100
0020
0000
0000
0000
,  // measure 39
0030
0000
0000
0000
,  // measure 40
1001
0000
0000
1000
0100
2000
0000
0010
,  // measure 41
0000
0001
0000
3010
0000
1000
0010
0100
,  // measure 42
0001
0000
0000
0001
0010
0002
0000
0010
,  // measure 43
0000
1000
0000
0103
0000
0010
1000
0100
,  // measure 44
0010
0000
0000
0100
0010
0200
0000
0001
,  // measure 45
0000
0010
0000
1300
0000
0001
1000
0000
,  // measure 46
0100
0000
1000
0010
1000
0000
0001
0010
,  // measure 47
0200
0000
1000
0000
0010
0010
0310
0000
,  // measure 48
1001
0000
0000
1000
0010
0000
0100
0001
,  // measure 49
0000
0001
1000
0000
0100
0010
0100
0000
,  // measure 50
1001
0000
0000
1000
0100
1000
0000
1001
,  // measure 51
0000
0001
0100
0000
0010
0100
0010
0000
,  // measure 52
0100
0000
0000
0001
1000
0001
0000
0010
,  // measure 53
0000
0110
0000
1100
0000
1000
0001
0000
,  // measure 54
1000
0000
0010
0100
0001
0100
0000
0010
,  // measure 55
0000
0110
0000
1001
0000
0001
0010
0100
,  // measure 56
1000
0000
0001
0010
0001
0000
1000
0010
,  // measure 57
0000
0100
0001
1000
0000
0010
1000
0000
,  // measure 58
0001
0000
1000
0010
1000
0000
0001
0010
,  // measure 59
0000
0001
0100
0010
0100
0001
1000
0000
,  // measure 60
0100
0000
1000
0100
1000
0001
0000
1001
,  // measure 61
0000
0100
0010
0000
0100
0001
1000
0000
,  // measure 62
0001
0000
0010
0001
0100
0001
1000
0100
,  // measure 63
1000
0001
0010
0100
0010
0001
1000
0010
,  // measure 64
0100
0000
0000
0001
0100
0001
0000
1000
,  // measure 65
0000
0100
1000
0000
0001
0010
0100
0000
,  // measure 66
0010
0000
0001
1000
0001
0100
0000
0010
,  // measure 67
0000
0100
0001
1000
0000
0100
1000
0000
,  // measure 68
0001
0000
0010
0001
1000
0100
0000
0010
,  // measure 69
0000
0100
1000
0010
0000
0100
0001
0000
,  // measure 70
1000
0000
0001
0100
0001
0000
1000
0010
,  // measure 71
1010
0000
0101
0000
0001
1000
0001
1000
,  // measure 72
0100
0000
0010
0001
1000
0010
0100
0001
,  // measure 73
0000
0100
0001
1000
0010
1000
0100
0000
,  // measure 74
0010
0000
0100
0010
0001
0010
0001
1000
,  // measure 75
0000
0001
0100
0010
0100
0001
1000
0000
,  // measure 76
0001
0000
1000
0010
0100
0001
0000
0100
,  // measure 77
0010
1000
0100
0000
1000
0001
0010
0000
,  // measure 78
0100
0000
0010
0001
1000
0000
0001
0100
,  // measure 79
0101
0000
1010
0000
0010
1000
1001
0000
,  // measure 80
0011
0000
1000
0100
0010
0001
0000
0010
,  // measure 81
0000
0001
0100
0000
0010
1000
0100
0000
,  // measure 82
1001
0000
0001
0100
0010
1000
0000
0010
,  // measure 83
0000
1000
0001
0000
1000
0100
0010
0000
,  // measure 84
0110
0000
0100
1000
0001
0100
0010
0100
,  // measure 85
0000
0010
0100
0000
0001
1000
0001
0000
,  // measure 86
0100
0100
0100
0100
0100
0000
0000
0000
;

//---------------dance-single - Oni-91----------------
#NOTEDATA:;
#CHARTNAME:;
#STEPSTYPE:dance-single;
#DESCRIPTION:Oni-91;
#CHARTSTYLE:;
#DIFFICULTY:Easy;
#METER:5;
#RADARVALUES:0.354719,0.463558,0.151840,0.133976,0.000000,278.000000,261.000000,17.000000,15.000000,0.000000,0.000000,0.000000,0.000000,0.000000,0.354719,0.463558,0.151840,0.133976,0.000000,278.000000,261.000000,17.000000,15.000000,0.000000,0.000000,0.000000,0.000000,0.000000;
#CREDIT:Oni-91;
#NOTES:
// measure 0
1001
0000
0001
0000
,  // measure 1
0100
0001
1000
0000
,  // measure 2
0100
0000
1000
0001
,  // measure 3
1000
0010
0100
0000
,  // measure 4
0010
0000
0100
0000
,  // measure 5
0001
0010
0100
0000
,  // measure 6
0010
0001
1000
0100
,  // measure 7
0010
0100
1000
0000
,  // measure 8
1001
0000
0001
0000
,  // measure 9
0100
0010
0100
0000
,  // measure 10
0001
0010
0001
0000
,  // measure 11
1000
0010
1000
0000
,  // measure 12
0001
0000
1000
0000
,  // measure 13
0100
0010
0100
0000
,  // measure 14
0010
0001
1000
0100
,  // measure 15
0010
0100
1000
0000
,  // measure 16
0001
0000
0100
0000
,  // measure 17
0010
1000
0100
0000
,  // measure 18
0010
0001
0100
0001
,  // measure 19
1000
0010
0100
0000
,  // measure 20
0010
0000
0100
0000
,  // measure 21
0001
1000
0001
0000
,  // measure 22
1000
1000
0001
0001
,  // measure 23
1000
0100
0010
0001
,  // measure 24
0210
0000
1000
0000
,  // measure 25
0310
0100
0010
1000
,  // measure 26
0200
0000
0010
0000
,  // measure 27
1300
0100
0010
0001
,  // measure 28
2000
0000
0010
0000
,  // measure 29
3001
1000
0010
0100
,  // measure 30
0002
0000
0010
0000
,  // measure 31
1003
0001
1000
0010
,  // measure 32
0110
0000
0000
0000
0100
0000
0001
2000
,  // measure 33
0000
0010
0010
3010
,  // measure 34
1000
0000
0100
0000
0010
0000
0001
2000
,  // measure 35
0000
0001
0001
3001
,  // measure 36
0001
0000
0100
0000
0010
0000
0100
0020
,  // measure 37
0000
0100
0100
0130
,  // measure 38
1001
1001
2002
0000
,  // measure 39
3003
0000
0000
0000
,  // measure 40
1000
0000
0100
0000
,  // measure 41
1000
0001
0100
0010
,  // measure 42
0100
0000
0001
0000
,  // measure 43
0100
0001
0010
0100
,  // measure 44
1000
0000
0100
0000
,  // measure 45
0010
0100
1000
0100
,  // measure 46
1000
0000
0001
0100
,  // measure 47
0001
0010
0100
0010
,  // measure 48
0001
0000
0001
0000
,  // measure 49
1000
1000
1000
0000
,  // measure 50
0001
0000
0100
0000
,  // measure 51
0010
0010
0010
0000
,  // measure 52
0100
0000
0001
0000
,  // measure 53
0010
0010
0010
0000
,  // measure 54
0100
0000
0010
0000
,  // measure 55
0001
0001
0001
0000
,  // measure 56
1000
0000
0001
0000
,  // measure 57
0100
0010
0100
0010
,  // measure 58
1000
0000
0001
0000
,  // measure 59
1000
0100
1000
0100
,  // measure 60
0010
0000
0100
0000
,  // measure 61
0010
0001
0010
0001
,  // measure 62
1000
0000
0001
0000
,  // measure 63
0100
0010
1000
0001
,  // measure 64
1001
0000
1000
0000
,  // measure 65
0001
0100
0010
1000
,  // measure 66
0100
0000
1000
0000
,  // measure 67
0001
0000
0010
0001
,  // measure 68
0100
0000
0001
0000
,  // measure 69
1000
0100
0010
0001
,  // measure 70
0100
0000
0001
0100
,  // measure 71
0010
0010
1000
1000
,  // measure 72
0010
0000
1000
0001
,  // measure 73
0010
0001
1000
0001
,  // measure 74
0100
0000
0010
1000
,  // measure 75
0001
0100
0001
1000
,  // measure 76
0100
0000
0010
0001
,  // measure 77
1000
0001
0100
0010
,  // measure 78
1000
0100
0010
0001
,  // measure 79
1000
1000
0001
0001
,  // measure 80
1001
0000
0100
0000
0110
0000
0020
0200
,  // measure 81
0000
0000
0000
0330
,  // measure 82
0110
0000
0100
0000
1001
0000
2000
0002
,  // measure 83
0000
0000
0000
3003
,  // measure 84
1001
0000
0010
0000
0110
0000
0002
2000
,  // measure 85
0000
0000
0000
3003
,  // measure 86
1001
0110
1001
0000
;

//---------------dance-single - Oni-91----------------
#NOTEDATA:;
#CHARTNAME:;
#STEPSTYPE:dance-single;
#DESCRIPTION:Oni-91;
#CHARTSTYLE:;
#DIFFICULTY:Beginner;
#METER:2;
#RADARVALUES:0.199051,0.307253,0.169703,0.000000,0.000000,156.000000,137.000000,19.000000,0.000000,0.000000,0.000000,0.000000,0.000000,0.000000,0.199051,0.307253,0.169703,0.000000,0.000000,156.000000,137.000000,19.000000,0.000000,0.000000,0.000000,0.000000,0.000000,0.000000;
#CREDIT:Oni-91;
#NOTES:
// measure 0
1001
0000
0000
0000
,  // measure 1
1000
0000
0001
0000
,  // measure 2
1000
0000
0000
0000
,  // measure 3
0010
0000
0100
0000
,  // measure 4
0010
0000
0000
0000
,  // measure 5
1000
0000
0001
0000
,  // measure 6
1000
0000
0000
0000
,  // measure 7
0001
0000
0010
0000
,  // measure 8
0100
0000
0000
0000
,  // measure 9
0010
0000
0000
0000
,  // measure 10
0001
0000
0010
0000
,  // measure 11
0001
0000
0000
0000
,  // measure 12
1000
0000
0000
0000
,  // measure 13
0001
0000
0000
0000
,  // measure 14
1000
0000
0010
0000
,  // measure 15
0100
0000
0010
0000
,  // measure 16
1000
0000
0000
0000
,  // measure 17
1000
0000
0000
0000
,  // measure 18
0001
0000
0010
0000
,  // measure 19
0100
0000
0010
0000
,  // measure 20
0001
0000
0000
0000
,  // measure 21
0001
0000
0000
0000
,  // measure 22
0100
0100
0100
0000
,  // measure 23
0010
0000
0100
0000
,  // measure 24
1001
0000
0000
0000
,  // measure 25
0000
0000
0001
0000
,  // measure 26
0100
0000
0000
0000
,  // measure 27
0001
0000
1000
0000
,  // measure 28
0100
0000
0000
0000
,  // measure 29
0000
0000
0010
0000
,  // measure 30
0100
0000
0010
0000
,  // measure 31
0001
0000
1000
0000
,  // measure 32
1001
0000
1001
0000
,  // measure 33
1001
0000
0000
0000
,  // measure 34
0110
0000
0110
0000
,  // measure 35
0110
0000
0000
0000
,  // measure 36
1001
0000
1001
0000
,  // measure 37
1001
0000
0000
0000
,  // measure 38
1001
0000
0000
0000
,  // measure 39
0000
0000
0000
0000
,  // measure 40
0001
0000
0001
0000
,  // measure 41
0100
0000
0000
0000
,  // measure 42
1000
0000
1000
0000
,  // measure 43
0100
0000
0000
0000
,  // measure 44
1000
0000
0010
0000
,  // measure 45
0100
0000
0000
0000
,  // measure 46
0001
0000
0010
0000
,  // measure 47
0100
0000
0000
0000
,  // measure 48
1001
0000
0001
0000
,  // measure 49
0100
0000
0001
0000
,  // measure 50
1000
0000
0100
0000
,  // measure 51
0010
0000
0010
0000
,  // measure 52
0100
0000
1000
0000
,  // measure 53
0001
0000
1000
0000
,  // measure 54
0001
0000
0100
0000
,  // measure 55
0010
0000
0010
0000
,  // measure 56
0010
0000
1000
0000
,  // measure 57
0100
0000
1000
0000
,  // measure 58
0001
0000
1000
0000
,  // measure 59
0100
0000
0100
0000
,  // measure 60
1000
0000
0001
0000
,  // measure 61
0100
0000
0001
0000
,  // measure 62
0010
0000
0100
0000
,  // measure 63
1000
0000
0001
0000
,  // measure 64
1001
0000
0000
0000
,  // measure 65
1000
0000
0001
0000
,  // measure 66
0100
0000
0000
0000
,  // measure 67
0010
0000
0100
0000
,  // measure 68
0001
0000
0000
0000
,  // measure 69
0010
0000
0001
0000
,  // measure 70
1000
0000
0100
0000
,  // measure 71
0010
0000
0100
0000
,  // measure 72
1001
0000
0000
0000
,  // measure 73
1000
0000
0001
0000
,  // measure 74
0100
0000
0000
0000
,  // measure 75
0001
0000
1000
0000
,  // measure 76
0100
0000
0000
0000
,  // measure 77
0010
0000
0100
0000
,  // measure 78
0010
0000
0001
0000
,  // measure 79
1000
0000
0001
0000
,  // measure 80
1001
0000
1000
0000
,  // measure 81
0100
0000
0000
0000
,  // measure 82
1001
0000
0001
0000
,  // measure 83
0100
0000
0000
0000
,  // measure 84
0110
0000
0010
0000
,  // measure 85
1000
0000
0000
0000
,  // measure 86
1001
0000
0000
0000
;
