#VERSION:0.83;
#TITLE:UNIVERSE STAGE;
#SUBTITLE:;
#ARTIST:KUROMA;
#TITLETRANSLIT:;
#SUBTITLETRANSLIT:;
#ARTISTTRANSLIT:;
#GENRE:;
#ORIGIN:;
#CREDIT:;
#BANNER:UNIVERSE STAGE.png;
#BACKGROUND:UNIVERSE STAGE-bg.png;
#PREVIEWVID:;
#JACKET:;
#CDIMAGE:;
#DISCIMAGE:;
#LYRICSPATH:;
#CDTITLE:;
#MUSIC:UNIVERSE STAGE.mp3;
#OFFSET:-2.400000;
#SAMPLESTART:23.790001;
#SAMPLELENGTH:9.500000;
#SELECTABLE:YES;
#DISPLAYBPM:101.000000:404.000000;
#BPMS:0.000=404.000,
1.000=202.000,
1.500=404.000,
6.500=202.000,
7.000=404.000,
11.000=202.000,
59.000=404.000,
203.000=202.000,
235.000=404.000,
268.000=202.000,
270.000=404.000,
297.000=151.500,
297.750=303.000,
299.750=151.500,
301.000=303.000,
304.000=202.000,
306.000=151.500,
307.000=303.000,
308.000=151.500,
309.000=303.000,
310.000=151.500,
311.000=303.000,
312.000=151.500,
316.500=202.000,
317.000=101.000,
333.000=202.000,
396.000=808.000,
400.000=404.000,
528.000=202.000,
529.000=404.000,
530.000=269.333,
532.000=404.000;
#STOPS:0.000=0.891,
1.500=0.594,
5.500=0.891,
7.000=0.594,
316.500=1.040;
#DELAYS:;
#WARPS:;
#TIMESIGNATURES:0.000=4=4;
#TICKCOUNTS:0.000=4;
#COMBOS:0.000=1;
#SPEEDS:0.000=1.000=0.000=0;
#SCROLLS:0.000=1.000;
#FAKES:;
#LABELS:0.000=Song Start;
#BGCHANGES:;
#KEYSOUNDS:;
#ATTACKS:
;

//---------------dance-single - Child's Play----------------
#NOTEDATA:;
#CHARTNAME:;
#STEPSTYPE:dance-single;
#DESCRIPTION:Child's Play;
#CHARTSTYLE:;
#DIFFICULTY:Beginner;
#METER:5;
#RADARVALUES:0.283834,0.489178,0.162856,0.057000,0.000000,244.000000,224.000000,20.000000,7.000000,0.000000,0.000000,0.000000,0.000000,0.000000,0.283834,0.489178,0.162856,0.057000,0.000000,244.000000,224.000000,20.000000,7.000000,0.000000,0.000000,0.000000,0.000000,0.000000;
#CREDIT:Child's Play;
#DISPLAYBPM:101.000000:404.000000;
#NOTES:
// measure 0
0000
0000
0000
0000
,  // measure 1
0000
0000
0000
0000
,  // measure 2
0000
0000
0000
1000
,  // measure 3
0001
0000
0001
0000
,  // measure 4
0001
1000
0001
1000
,  // measure 5
0000
0000
0000
0001
,  // measure 6
1000
0001
1000
1001
,  // measure 7
0000
0001
0100
0001
,  // measure 8
0000
1000
0000
0100
,  // measure 9
0000
1000
0100
1000
,  // measure 10
0000
0001
0000
1000
,  // measure 11
0000
0100
0010
0100
,  // measure 12
0000
0010
0000
0001
,  // measure 13
0000
1000
0001
1000
,  // measure 14
0000
0001
0100
0020
,  // measure 15
0000
0000
0000
0000
,  // measure 16
0000
0000
0000
0030
,  // measure 17
0000
0000
0000
0000
,  // measure 18
0000
0000
0000
1000
,  // measure 19
0000
0000
0100
0000
,  // measure 20
0000
1000
0000
0000
,  // measure 21
0100
0000
0000
0010
,  // measure 22
0000
0001
0000
0010
,  // measure 23
0000
0000
0001
0000
,  // measure 24
0000
1000
0000
0000
,  // measure 25
0001
0000
0000
1000
,  // measure 26
0000
0010
0000
1000
,  // measure 27
0000
0000
1000
0000
,  // measure 28
0000
0001
0000
0000
,  // measure 29
0001
0000
0000
1000
,  // measure 30
0000
0001
0000
0010
,  // measure 31
0000
0000
0010
0000
,  // measure 32
0000
0100
0000
0000
,  // measure 33
0100
0000
0000
0010
,  // measure 34
0000
0100
0000
0010
,  // measure 35
0000
0000
0000
0010
,  // measure 36
0000
0000
0000
0001
,  // measure 37
0000
1000
0000
0001
,  // measure 38
0000
1000
0000
0010
,  // measure 39
0000
0000
0000
0010
,  // measure 40
0000
0000
0000
0100
,  // measure 41
0000
0010
0000
0100
,  // measure 42
0000
0001
0000
1000
,  // measure 43
0000
0000
0000
0001
,  // measure 44
0000
0000
0000
1000
,  // measure 45
0000
0100
0000
0010
,  // measure 46
0000
0001
0000
1000
,  // measure 47
0000
0000
0000
0010
,  // measure 48
0000
0000
0000
0100
,  // measure 49
0000
0010
0000
0100
,  // measure 50
0000
0001
0000
1001
,  // measure 51
0000
0000
0000
0001
0000
0001
0000
0000
,  // measure 52
0000
0000
0000
1000
0000
0000
0010
0000
,  // measure 53
0000
1000
0000
0000
0000
0000
2002
0000
,  // measure 54
0000
0000
3003
0001
,  // measure 55
0000
0000
0000
1000
0000
1000
0000
0000
,  // measure 56
0000
0000
0000
0100
0000
0000
0010
0000
,  // measure 57
0000
0100
0000
0000
0010
0000
0000
0000
,  // measure 58
0000
0000
0000
2002
,  // measure 59
0000
0000
0000
0000
,  // measure 60
0000
0000
0000
0000
,  // measure 61
0000
0000
0000
3003
,  // measure 62
0000
1001
0000
0001
,  // measure 63
0000
0000
1000
0000
,  // measure 64
0000
0001
0000
0000
,  // measure 65
1000
0000
0000
0010
,  // measure 66
0000
0100
0000
1001
,  // measure 67
0000
0000
1001
0000
,  // measure 68
0000
0000
1000
0000
,  // measure 69
0001
0000
1000
0000
,  // measure 70
0000
0001
0000
0000
,  // measure 71
0000
1000
0000
0000
,  // measure 72
0000
0001
0000
1000
,  // measure 73
0000
1001
0000
0000
,  // measure 74
0000
1001
0000
0000
,  // measure 75
0000
0000
0000
0000
,  // measure 76
0000
0000
1001
0000
,  // measure 77
0110
0000
1001
0000
,  // measure 78
0110
0000
0000
0000
,  // measure 79
0000
0000
0001
1000
,  // measure 80
0100
0010
0000
0100
,  // measure 81
0010
0100
0000
0010
,  // measure 82
0001
1000
0001
0100
,  // measure 83
0000
1001
0000
0001
,  // measure 84
0000
1000
0000
0100
,  // measure 85
0000
0010
0001
0010
,  // measure 86
0001
1000
0000
0001
,  // measure 87
0000
1001
0000
1000
,  // measure 88
0000
0010
0000
0100
,  // measure 89
0000
0010
0000
0100
,  // measure 90
0001
0100
0000
0001
,  // measure 91
0000
1001
0000
1000
,  // measure 92
0100
1000
0000
0001
,  // measure 93
0000
1000
0000
0001
,  // measure 94
0000
0010
0000
0100
,  // measure 95
0000
0010
0000
0001
,  // measure 96
0010
0001
0000
1000
,  // measure 97
0001
2002
0000
0000
,  // measure 98
0000
3003
0000
0000
,  // measure 99
0000
0000
0000
0000
,  // measure 100
1000
0000
0000
1000
,  // measure 101
0000
0000
0001
0000
,  // measure 102
0000
0001
0000
0000
,  // measure 103
0100
0000
0010
0000
,  // measure 104
0100
0000
0000
0100
,  // measure 105
0000
0000
0010
0000
,  // measure 106
0000
0010
0000
0000
,  // measure 107
0100
0000
0001
0000
,  // measure 108
1000
0000
0000
0001
,  // measure 109
0000
0000
1000
0000
,  // measure 110
0000
0001
0000
0000
,  // measure 111
1000
0000
0100
0000
,  // measure 112
0010
0000
0000
0100
,  // measure 113
0000
0000
0010
0000
,  // measure 114
0000
0100
0000
0000
,  // measure 115
0010
0000
0001
0000
,  // measure 116
1000
0000
0001
0000
,  // measure 117
1000
0000
0001
0000
,  // measure 118
1000
0000
0001
0000
,  // measure 119
1000
0000
0001
0000
,  // measure 120
0100
0000
0010
0000
,  // measure 121
0100
0000
0010
0000
,  // measure 122
0100
0000
0010
0000
,  // measure 123
0100
0000
0010
0000
,  // measure 124
1000
0000
0010
0000
,  // measure 125
0100
0000
0001
0000
,  // measure 126
0100
0000
0010
0000
,  // measure 127
1000
0000
0010
0000
,  // measure 128
1000
0000
0001
0000
,  // measure 129
1000
0000
0100
0000
,  // measure 130
0010
0000
0001
0000
,  // measure 131
0100
0000
0010
0000
,  // measure 132
1001
0000
1001
0000
,  // measure 133
0000
0000
1001
0000
;

//---------------dance-single - A Bit Hard----------------
#NOTEDATA:;
#CHARTNAME:;
#STEPSTYPE:dance-single;
#DESCRIPTION:A Bit Hard;
#CHARTSTYLE:;
#DIFFICULTY:Easy;
#METER:7;
#RADARVALUES:0.486241,0.819877,0.260569,0.358283,0.012214,418.000000,386.000000,32.000000,44.000000,0.000000,0.000000,0.000000,0.000000,0.000000,0.486241,0.819877,0.260569,0.358283,0.012214,418.000000,386.000000,32.000000,44.000000,0.000000,0.000000,0.000000,0.000000,0.000000;
#CREDIT:A Bit Hard;
#DISPLAYBPM:101.000000:404.000000;
#NOTES:
// measure 0
1001
0000
0000
0000
0000
2002
0000
0000
,  // measure 1
0000
3003
0000
0110
0000
0000
0000
0000
,  // measure 2
0220
0000
0330
0001
,  // measure 3
1000
0000
0001
0000
,  // measure 4
1000
0000
0010
0220
,  // measure 5
0330
1001
0000
0220
,  // measure 6
0000
0000
0330
1001
,  // measure 7
0000
0001
0010
0001
,  // measure 8
0000
1000
0000
0001
,  // measure 9
0000
1000
0010
0100
,  // measure 10
0000
0010
0100
0001
,  // measure 11
0000
1000
0100
0010
,  // measure 12
0000
0100
0010
0001
,  // measure 13
0000
1000
0100
0010
,  // measure 14
0001
0100
0010
2002
,  // measure 15
0000
0000
0000
0000
,  // measure 16
0000
0000
0000
3003
,  // measure 17
0000
0000
0000
0000
,  // measure 18
0000
0000
0000
1001
,  // measure 19
0000
1000
0001
0000
,  // measure 20
0001
0100
0000
0100
,  // measure 21
0010
0000
0010
1000
,  // measure 22
0000
0100
0000
0010
,  // measure 23
0000
0100
0010
0000
,  // measure 24
0010
0001
0000
0001
,  // measure 25
1000
0000
1000
0001
,  // measure 26
0000
0100
0000
0010
,  // measure 27
0000
1000
0010
0000
,  // measure 28
0100
0001
0000
1000
,  // measure 29
0100
0000
0010
0001
,  // measure 30
0000
1000
0000
0001
,  // measure 31
0000
1000
0010
0000
,  // measure 32
1000
0100
0000
0010
,  // measure 33
0001
0000
0100
0001
,  // measure 34
0000
0100
0010
0100
,  // measure 35
0000
0010
0000
1000
,  // measure 36
0000
0100
0000
0010
,  // measure 37
0000
0001
0000
1000
,  // measure 38
0001
1000
0000
0001
,  // measure 39
0000
0100
0000
0010
,  // measure 40
0000
1000
0000
0100
,  // measure 41
0000
0010
0000
0001
,  // measure 42
0010
0100
0010
0001
,  // measure 43
0000
1000
0000
0001
,  // measure 44
0000
0100
0000
0010
,  // measure 45
0000
1000
0000
0010
,  // measure 46
1000
0010
0000
1000
,  // measure 47
0000
0100
0000
0010
,  // measure 48
0000
0001
0000
1000
,  // measure 49
0001
1000
0001
0100
,  // measure 50
0010
0100
0010
2000
,  // measure 51
3000
0000
0001
0100
0000
0001
0000
0000
,  // measure 52
1000
0001
1000
0001
,  // measure 53
0000
1000
0000
0000
0001
0000
0000
0000
,  // measure 54
1000
0001
0100
0010
,  // measure 55
1000
0100
0000
0010
0000
0001
0000
1000
,  // measure 56
0010
0000
1000
0001
1000
0000
0001
0000
,  // measure 57
0000
0101
0000
0000
0110
0000
0000
0000
,  // measure 58
0010
1000
0001
1001
,  // measure 59
0000
0001
0000
1000
,  // measure 60
0000
0100
0000
0010
,  // measure 61
0000
0001
0000
1000
,  // measure 62
0000
0001
1000
0001
,  // measure 63
1000
0000
1000
0010
,  // measure 64
0000
0100
0001
0000
,  // measure 65
0100
0010
1000
0010
,  // measure 66
0100
0001
0000
2002
,  // measure 67
0000
3003
0110
0000
,  // measure 68
0000
0010
0100
0000
,  // measure 69
0001
0000
1000
0000
0000
1000
0000
0000
,  // measure 70
1000
0002
0000
0003
,  // measure 71
0000
0200
0000
0300
,  // measure 72
0000
0000
0000
0010
0000
0000
0000
0100
0000
0000
0000
0010
,  // measure 73
0000
0220
0000
0330
,  // measure 74
0000
0000
0000
0000
2002
0000
0000
3003
0000
0000
0000
0000
0000
0000
0000
0000
,  // measure 75
0000
0220
0000
0000
0330
0000
0000
0000
0000
0000
0000
0000
0000
0000
0000
0000
,  // measure 76
1100
0011
2002
3003
,  // measure 77
0220
0330
2020
3030
,  // measure 78
2002
0000
0000
0000
,  // measure 79
3003
0220
0330
0000
0010
0100
0010
0000
,  // measure 80
1000
0000
0001
1000
0100
0010
0001
0000
,  // measure 81
1100
0000
0010
0000
0001
0100
0010
0000
,  // measure 82
0100
0100
0010
1000
0100
1000
0001
0000
,  // measure 83
0110
0000
1001
0000
1000
0000
0000
0100
,  // measure 84
1000
0000
0001
0000
0100
0000
0010
0100
,  // measure 85
0001
0000
1000
0000
0001
0000
0000
0010
,  // measure 86
0001
0000
0100
0000
0010
0000
1000
0010
,  // measure 87
0100
0000
0010
0000
1000
0100
0000
0010
,  // measure 88
0001
0000
1000
0010
0000
0100
0001
0000
,  // measure 89
1000
0002
0023
0230
,  // measure 90
2300
0000
3002
0000
0010
0000
1003
0001
,  // measure 91
1000
0000
0001
0000
0100
0000
0010
1000
,  // measure 92
0010
0000
1000
0000
0100
0000
0010
0001
,  // measure 93
0010
0000
0001
0000
1000
0000
0001
1000
,  // measure 94
0100
0000
0010
0001
0100
0000
0010
1000
,  // measure 95
0001
0000
1000
0000
0100
1000
0100
0000
,  // measure 96
0010
0000
0001
1000
0001
0000
1000
0010
,  // measure 97
0100
2002
0000
0000
,  // measure 98
0000
3003
0000
0000
,  // measure 99
0000
0000
0000
0000
,  // measure 100
1000
0000
1000
0100
,  // measure 101
0000
0100
0010
0000
,  // measure 102
0010
0001
0000
0001
,  // measure 103
1000
0001
0100
0000
,  // measure 104
0100
0000
0100
0010
,  // measure 105
0000
0010
1000
0000
,  // measure 106
1000
0001
0000
0001
,  // measure 107
1000
0100
0010
0100
,  // measure 108
1000
0000
1000
0010
,  // measure 109
0000
0010
0100
0000
,  // measure 110
0100
0001
0000
0001
,  // measure 111
0100
0010
0100
0000
,  // measure 112
0001
0000
1000
0001
,  // measure 113
0000
0001
1000
0100
,  // measure 114
0010
0100
0000
0010
,  // measure 115
0100
0010
0100
0000
,  // measure 116
0010
0001
0010
0000
,  // measure 117
0001
0100
0001
0000
,  // measure 118
0100
0010
1000
0010
,  // measure 119
0100
0001
0100
0000
,  // measure 120
0001
1000
0001
0000
,  // measure 121
1000
0100
1000
0000
,  // measure 122
0001
0010
0100
1000
,  // measure 123
0100
0010
0001
0000
,  // measure 124
1000
0010
0100
0000
,  // measure 125
0010
0100
0001
0000
,  // measure 126
1000
0100
0010
0100
,  // measure 127
0010
0001
1000
0001
,  // measure 128
0100
0001
0100
0000
,  // measure 129
0010
1000
0010
0000
,  // measure 130
1000
0001
1000
0001
,  // measure 131
0100
0010
0100
0010
,  // measure 132
0220
0330
2002
0000
,  // measure 133
3003
0000
2002
0000
,  // measure 134
0000
3003
0000
0000
;

//---------------dance-single - Challenging----------------
#NOTEDATA:;
#CHARTNAME:;
#STEPSTYPE:dance-single;
#DESCRIPTION:Challenging;
#CHARTSTYLE:;
#DIFFICULTY:Medium;
#METER:9;
#RADARVALUES:0.672362,1.257145,0.260569,0.341997,0.150642,578.000000,546.000000,32.000000,42.000000,0.000000,0.000000,0.000000,0.000000,0.000000,0.672362,1.257145,0.260569,0.341997,0.150642,578.000000,546.000000,32.000000,42.000000,0.000000,0.000000,0.000000,0.000000,0.000000;
#CREDIT:Challenging;
#DISPLAYBPM:101.000000:404.000000;
#NOTES:
// measure 0
1001
0000
1000
0001
0000
2002
0000
0000
,  // measure 1
0000
3003
0000
0110
0000
0001
1000
0000
,  // measure 2
2002
0000
3003
0001
,  // measure 3
1010
0000
0010
1000
0100
0010
0001
0000
,  // measure 4
1000
0000
0000
0001
0000
0000
1001
0000
0000
0000
0000
0000
0220
0000
0000
0000
,  // measure 5
0000
0000
0000
0000
0000
0330
0000
0000
0000
0000
2000
0000
0002
0000
0000
0000
,  // measure 6
3003
0000
0000
1001
0000
0000
0110
0000
,  // measure 7
0100
0000
0001
0000
1000
0100
0010
0000
,  // measure 8
0100
0000
0000
0010
0000
0000
0011
0000
0000
0000
0000
0000
1001
0000
0000
0000
,  // measure 9
0001
0000
0100
0000
0010
1000
0100
0000
,  // measure 10
1000
0000
0000
0001
0000
0000
1001
0000
0000
0000
0000
0000
1000
0000
0000
0000
,  // measure 11
0010
0000
1000
0000
0100
1000
0001
0000
,  // measure 12
1000
0000
0000
0010
0000
0000
0110
0000
0000
0000
0000
0000
0100
0000
0000
0000
,  // measure 13
0001
0000
0000
0000
1000
0000
0000
0001
0000
0000
1000
0000
0001
0000
1000
0000
,  // measure 14
0000
0001
0000
0000
1000
0000
0000
0001
0000
0000
0000
0000
2002
0000
0000
0000
,  // measure 15
0000
0000
0000
0000
,  // measure 16
0000
0000
0000
3003
,  // measure 17
0000
0000
0000
0000
,  // measure 18
0000
0000
0000
1001
,  // measure 19
0000
0001
0100
0000
,  // measure 20
0100
0001
1000
0100
,  // measure 21
0010
0000
0100
0010
,  // measure 22
0100
1000
0000
0001
,  // measure 23
0000
1000
0010
0000
,  // measure 24
0100
0001
0100
0010
,  // measure 25
1000
0000
0001
1000
,  // measure 26
0100
0010
0100
1100
,  // measure 27
0000
0001
0010
0000
,  // measure 28
0010
0001
1000
0001
,  // measure 29
0100
1000
0100
0010
,  // measure 30
1000
0100
0010
0100
,  // measure 31
0000
0010
0100
0000
,  // measure 32
0010
0100
0010
0001
,  // measure 33
1000
0001
0100
0010
,  // measure 34
1000
0001
1000
0001
,  // measure 35
0100
0010
0100
1000
,  // measure 36
0100
0010
0100
0001
,  // measure 37
0010
0100
0010
1000
,  // measure 38
0010
0100
0000
0010
,  // measure 39
0001
1000
0100
0010
,  // measure 40
0100
1000
0001
0100
,  // measure 41
0010
0100
0001
1000
,  // measure 42
0001
0100
0000
0010
,  // measure 43
0100
0001
0010
0100
,  // measure 44
0010
0001
0100
0010
,  // measure 45
1000
0100
0010
0100
,  // measure 46
1000
0001
1000
0010
,  // measure 47
0100
0010
0100
0001
,  // measure 48
1000
0001
1000
0100
,  // measure 49
0010
0001
1000
0010
,  // measure 50
0100
0001
1000
2002
,  // measure 51
3003
0000
0001
0100
0000
0101
0000
0000
,  // measure 52
0001
0000
1000
0100
0010
0000
1001
0000
,  // measure 53
1000
0000
0010
0000
0200
0000
0000
0000
0000
0000
0000
0000
0310
0100
0000
0000
,  // measure 54
0010
0000
0000
0100
0000
0000
0010
0000
1000
0000
0001
0000
1000
0000
0000
0000
,  // measure 55
0001
0010
0000
0100
1000
0001
0000
1000
,  // measure 56
0010
1000
0001
0100
0010
0100
0001
1000
,  // measure 57
0100
0000
0010
0000
0001
0000
0001
0000
0001
0000
0001
0000
0000
1000
0000
0000
,  // measure 58
0001
0000
0000
1000
0000
0000
0001
0000
1000
0000
0010
0000
0100
0000
0000
0000
,  // measure 59
0010
1000
0000
0001
,  // measure 60
0010
0000
0100
0010
,  // measure 61
0000
0001
1000
0001
,  // measure 62
1000
0000
0010
0000
0100
0000
0001
0100
,  // measure 63
0001
0000
0000
0000
1000
0001
1000
0000
,  // measure 64
0000
0000
0100
1000
0100
0000
0000
0000
,  // measure 65
0010
0001
1000
0100
,  // measure 66
0010
0100
1000
2002
,  // measure 67
0000
3003
0220
0000
,  // measure 68
0330
0010
1000
0100
,  // measure 69
0010
0000
0100
0000
0000
0010
0000
0000
,  // measure 70
0100
0220
0000
0330
,  // measure 71
0000
2002
0000
3003
,  // measure 72
0000
0000
0000
1000
0000
0001
0000
1000
0000
0001
0000
1000
,  // measure 73
0000
0002
0000
2000
0000
0000
0000
0000
0000
3003
0000
0000
,  // measure 74
0000
0000
0000
0000
1000
0000
0000
2002
0000
0000
0000
0000
0000
0000
0000
3003
,  // measure 75
0000
0001
0000
0000
2002
0000
0000
0000
0000
0000
0000
0000
3003
0000
0000
0000
,  // measure 76
1000
0000
0000
0000
0100
0000
0000
0000
1000
0000
0000
0000
0001
0000
0000
0000
0010
0000
0000
0000
0001
0000
0000
0000
1000
0000
0000
0001
0000
0000
1000
0000
0000
0001
0000
0000
1000
0000
0000
0000
0000
0000
0000
0000
0000
0000
0000
0000
,  // measure 77
0100
1000
0100
1000
0100
0000
0000
0000
0010
0001
0010
0001
0010
0000
0000
0000
,  // measure 78
0001
1000
0001
1000
0001
0000
1000
0000
0100
0000
0010
0000
0001
0000
1000
0001
,  // measure 79
1000
0001
2000
0000
3001
0000
0000
1000
0000
0000
0001
0000
0000
1000
0000
0000
,  // measure 80
0100
0000
0010
0000
0100
0000
0000
0010
0000
0000
0100
0000
0000
0010
0000
0000
,  // measure 81
0001
0000
1000
0000
0001
0000
0000
0100
0000
0000
0010
0000
0000
1000
0000
0000
,  // measure 82
0001
1000
0001
1000
0100
0010
0002
0000
,  // measure 83
1003
0000
0110
0000
1001
0000
1000
0100
,  // measure 84
0010
0000
0100
0010
0001
0010
0001
1000
,  // measure 85
0010
0000
0100
0000
0010
0000
1000
0100
,  // measure 86
0010
0000
1000
0100
0001
0100
1000
0010
,  // measure 87
0100
0000
1001
0000
1000
0000
0001
0010
,  // measure 88
0100
0000
0010
0001
1000
0000
0001
0100
,  // measure 89
1000
0100
0002
0000
0023
0000
2030
0000
,  // measure 90
3020
0000
0032
0000
0103
0000
0001
0100
,  // measure 91
1000
0100
0001
0000
1000
0100
0000
0010
,  // measure 92
0001
0010
0100
0010
0000
0100
1000
0100
,  // measure 93
0001
0100
1000
0000
0001
0100
1000
0100
,  // measure 94
0001
0100
1000
0000
0001
0000
0010
1000
,  // measure 95
0100
0010
0100
0000
0010
0001
0100
0001
,  // measure 96
0100
0010
1000
0000
0100
1000
0100
0001
,  // measure 97
0100
1000
2002
0000
0000
0000
0000
0000
,  // measure 98
0000
3003
0000
0000
,  // measure 99
0000
0000
0000
0000
,  // measure 100
1000
0100
1000
0001
,  // measure 101
0100
0001
1000
0010
,  // measure 102
1000
0001
0010
0100
,  // measure 103
0010
0001
0100
0000
,  // measure 104
0010
0100
0010
1000
,  // measure 105
0001
1000
0001
0010
,  // measure 106
0001
1000
0100
1000
,  // measure 107
0001
0010
0100
0000
,  // measure 108
0010
0001
0100
0010
,  // measure 109
1000
0100
1000
0010
,  // measure 110
0001
1000
0100
0001
,  // measure 111
1000
0001
1000
0000
,  // measure 112
0001
0010
0100
0001
,  // measure 113
0100
1000
0010
1000
,  // measure 114
0001
1000
0100
0010
,  // measure 115
0001
0100
0010
0010
,  // measure 116
0010
1000
0100
1000
,  // measure 117
0010
1000
0100
1000
,  // measure 118
0001
0100
1000
0100
,  // measure 119
0001
0100
1000
0100
,  // measure 120
0010
1000
0100
0001
,  // measure 121
0100
1000
0010
0100
,  // measure 122
0001
0010
1000
0010
,  // measure 123
0001
0100
0010
1000
,  // measure 124
0001
0010
0100
0010
,  // measure 125
0001
1000
0010
1000
,  // measure 126
0010
0100
0001
0100
,  // measure 127
1000
0100
0010
1000
,  // measure 128
0100
0001
0100
1000
,  // measure 129
0010
0100
0001
0010
,  // measure 130
0100
0010
0001
1000
,  // measure 131
0010
0100
0001
1000
,  // measure 132
2002
3003
0220
0000
,  // measure 133
0330
0000
2002
0000
,  // measure 134
0000
3003
0000
0000
;

//---------------dance-single - Leg Breaking----------------
#NOTEDATA:;
#CHARTNAME:;
#STEPSTYPE:dance-single;
#DESCRIPTION:Leg Breaking;
#CHARTSTYLE:;
#DIFFICULTY:Hard;
#METER:11;
#RADARVALUES:1.006216,1.475779,0.635138,0.268712,0.362354,865.000000,787.000000,78.000000,33.000000,0.000000,0.000000,0.000000,0.000000,0.000000,1.006216,1.475779,0.635138,0.268712,0.362354,865.000000,787.000000,78.000000,33.000000,0.000000,0.000000,0.000000,0.000000,0.000000;
#CREDIT:Leg Breaking;
#DISPLAYBPM:101.000000:404.000000;
#NOTES:
// measure 0
1001
0000
0110
0110
0000
2002
0000
0000
,  // measure 1
0000
3003
0000
1001
0000
0110
0110
0000
,  // measure 2
2002
0000
3003
1001
,  // measure 3
0011
0000
0000
0010
0000
0000
0001
0000
1000
0000
1001
0000
1001
0000
0000
0000
,  // measure 4
0001
0000
0000
0100
0000
0000
0110
0000
0000
0000
0000
0000
1010
0000
0000
0000
,  // measure 5
2002
0000
3003
0000
0000
0110
0000
0000
0000
0000
1001
0000
1001
0000
0000
0000
,  // measure 6
1000
0000
0000
0010
0000
0000
0110
0000
0000
0000
0000
0000
1001
0000
0000
0000
,  // measure 7
0101
0000
0100
0010
1000
1001
1001
0000
,  // measure 8
0001
0000
0000
0010
0001
0000
1100
0000
0000
0000
0000
0000
1001
0000
0000
0000
,  // measure 9
0001
0100
1000
0100
0010
0110
0110
0000
,  // measure 10
0010
0000
0000
1000
0100
0000
0010
0000
0001
0010
0001
0010
0001
0000
1000
0000
,  // measure 11
1001
0000
1000
0010
0100
0101
1001
0000
,  // measure 12
0001
0000
0000
0010
0001
0000
1001
0000
1000
0000
0100
0000
0020
0000
0000
0000
,  // measure 13
0032
0000
0000
0000
1003
0001
0000
1000
0001
0000
1000
0000
0010
0000
1000
0000
,  // measure 14
0000
1010
0000
0000
1001
0000
0000
0220
0000
0000
0330
0000
2002
0000
0000
0000
,  // measure 15
0000
0000
0000
0000
,  // measure 16
0000
0000
0000
3003
0000
0000
0000
0000
0000
1000
0000
0100
,  // measure 17
0000
1000
0000
0001
0000
0010
0000
0001
0000
0100
0000
0010
,  // measure 18
0000
1000
0000
0100
0000
0010
0000
0001
0000
1000
0000
0000
,  // measure 19
0100
0001
0100
0010
,  // measure 20
0001
1000
1001
1001
,  // measure 21
0001
0000
0010
0000
0100
0010
0001
0000
,  // measure 22
1000
0010
0100
0001
,  // measure 23
0010
1000
0010
0001
,  // measure 24
1000
0010
0110
0101
,  // measure 25
0001
0000
1000
0000
0100
0010
0001
0000
,  // measure 26
1000
0000
0010
0100
0010
0100
0010
0000
,  // measure 27
1000
0100
0001
0100
,  // measure 28
0010
0001
0011
0011
,  // measure 29
0010
0000
0100
0000
1000
0001
0100
0000
,  // measure 30
0010
0100
0001
1000
,  // measure 31
0010
0100
0001
0010
,  // measure 32
0100
0010
0011
1001
,  // measure 33
1000
0100
1000
0000
0001
0010
0100
0000
,  // measure 34
0010
1001
1001
1001
,  // measure 35
1000
0010
1000
0000
0001
0100
0001
0000
,  // measure 36
1000
0010
1000
0000
0001
0100
0001
0000
,  // measure 37
0010
0001
0010
0000
0100
1000
0100
0000
,  // measure 38
0010
0001
0010
0000
0100
1000
0100
0000
,  // measure 39
1000
0001
1000
0000
0001
1000
0001
0000
,  // measure 40
0100
0010
0100
0000
0010
0100
0010
0000
,  // measure 41
1000
0010
1000
0000
0100
1000
0100
0000
,  // measure 42
0010
0001
0010
0000
0001
0100
0001
0000
,  // measure 43
1000
0010
0100
0000
0010
0100
0001
0000
,  // measure 44
0100
0001
1000
0000
0001
1000
0100
0000
,  // measure 45
1000
0100
0010
0000
0010
0100
1000
0000
,  // measure 46
1000
0001
0100
0000
0100
0001
1000
0000
,  // measure 47
0001
0010
0001
0000
1000
0100
0010
0000
,  // measure 48
0100
0010
0100
0000
0010
0001
0100
0000
,  // measure 49
0010
0100
0010
0000
1000
0010
0100
0000
,  // measure 50
0001
0100
0010
1000
0010
0100
0001
0000
,  // measure 51
1001
0000
1000
0100
0010
1001
0000
1000
,  // measure 52
0010
0100
0001
0010
0100
0010
0001
0000
,  // measure 53
0010
0000
0000
0000
0000
0000
0001
0000
0000
0000
0000
0000
1000
0000
0000
0000
0010
0000
0000
0000
0100
0000
0000
0000
0001
0000
0000
0000
0100
0000
0000
0000
0010
0000
0000
0000
1000
0000
0000
0010
0000
0000
0000
0000
0000
0000
0000
0000
,  // measure 54
1010
0000
0000
1001
0000
0000
0001
0000
0010
0000
0100
0000
1100
0000
0000
0000
,  // measure 55
1000
0001
0000
0001
0100
1010
0000
1000
,  // measure 56
0100
0001
1000
0010
0001
1000
0001
0100
,  // measure 57
0010
0000
1000
0000
0001
1000
0001
1000
0010
0100
0010
0100
0010
1000
0000
0000
,  // measure 58
1010
0000
0000
1001
0000
0000
0010
0001
0010
0001
1000
0100
1000
0000
0000
0000
,  // measure 59
0001
0100
1000
0001
,  // measure 60
0010
1000
0001
1000
,  // measure 61
0100
0000
0001
0000
0100
0000
1000
0001
,  // measure 62
1000
0000
1001
0000
0000
0000
0010
0100
,  // measure 63
0020
0000
0000
0000
1030
0001
2000
0000
,  // measure 64
0000
0000
3001
0010
0002
0000
0000
0000
,  // measure 65
1003
0100
0001
0100
,  // measure 66
1000
0001
1000
2002
,  // measure 67
3003
0001
0100
0010
2002
0000
0000
0000
,  // measure 68
3000
1003
0100
0010
,  // measure 69
0100
0000
0110
0000
0000
0011
0000
0000
,  // measure 70
0101
2001
0000
3001
,  // measure 71
1000
0100
2000
0000
0000
0000
0010
0000
,  // measure 72
3001
0000
0000
0100
0000
0000
0001
0000
0000
0000
1000
0000
0000
0000
0100
0000
0000
0000
0010
0000
0000
0000
0001
0000
,  // measure 73
0000
2000
0000
0002
0000
0000
0000
0000
0000
0000
0000
0000
,  // measure 74
3003
0000
0000
0000
0001
0010
0100
2000
0000
0000
0000
0000
0000
0000
0000
3000
,  // measure 75
0000
1000
0010
0100
0002
0000
0000
0000
0000
0000
0000
0000
0000
0000
0000
0000
,  // measure 76
1003
0000
0000
0000
0100
0000
0000
0000
0010
0000
0000
0000
0001
0000
0000
0000
0100
0000
0000
0000
0010
0000
0000
0000
1000
0000
0000
0001
0000
0000
0100
0000
0000
0010
0000
0000
2000
0000
0000
0000
0000
0000
0000
0000
0000
0000
0000
0000
,  // measure 77
3001
0010
0100
0010
0002
0000
0000
0000
1003
0010
0100
0010
2000
0000
0000
0000
,  // measure 78
3001
1000
0100
0010
0001
1000
0010
0100
0010
1000
0001
1000
0100
0010
0100
1000
,  // measure 79
0001
0100
0020
0000
0100
0000
0000
0100
0000
0000
0100
0000
0000
0100
0000
0000
,  // measure 80
0100
0000
0100
0000
1000
0000
0000
1000
0000
0000
1000
0000
0000
1000
0000
0000
,  // measure 81
1000
0000
1030
0000
0001
0000
0000
1000
0000
0000
0001
0000
0000
1000
0000
0000
,  // measure 82
0100
0010
0001
1000
0010
0100
0110
0000
,  // measure 83
1001
0000
0100
0000
1001
0000
1000
0100
,  // measure 84
0010
0100
0001
0000
1100
0000
1000
0010
,  // measure 85
0100
0001
0010
0001
1000
0100
0010
0100
,  // measure 86
1000
0000
0001
0000
0100
0000
0000
0000
0010
0000
0100
0000
0001
1000
0100
0000
,  // measure 87
0010
0001
1001
0000
1000
0100
0101
0100
,  // measure 88
1100
1000
1010
0000
0010
0100
0101
0001
,  // measure 89
0011
0010
0110
0100
1100
1000
1001
0001
,  // measure 90
0101
0000
0100
0000
0110
0000
0000
0000
0010
0000
1000
0000
0001
0010
0100
0000
,  // measure 91
0010
0000
0001
0000
1001
0000
0000
0000
1000
0000
0010
0000
0100
0001
0100
0000
,  // measure 92
0010
0000
1000
0000
0100
0000
0010
0000
0001
0000
1000
0001
1000
0001
0100
0000
,  // measure 93
0010
0000
1000
0000
0100
0000
0010
0000
0100
0000
1000
0000
0001
0010
0100
0000
,  // measure 94
0010
0000
0001
1000
0001
0000
1000
0000
0010
0000
1000
0010
0100
0001
0100
0000
,  // measure 95
0010
0000
1000
0100
0010
0000
0001
0000
1000
0000
0010
1000
0100
0000
0010
0000
,  // measure 96
0100
0000
0010
0001
1000
0000
0001
0000
0100
0000
0010
1000
0001
1000
0100
0000
,  // measure 97
0010
2002
0000
0000
,  // measure 98
3003
0000
0000
1000
0100
0010
0001
1000
0010
0100
0001
1000
,  // measure 99
0002
0000
0000
0000
,  // measure 100
1003
0100
1000
0000
0100
0000
1000
0001
,  // measure 101
1000
0000
0001
0000
0100
0001
0100
0000
,  // measure 102
0010
0000
1000
0010
0100
0000
0001
0000
,  // measure 103
1000
0100
0010
0100
1000
0000
0001
0000
,  // measure 104
1000
0001
1000
0000
0001
0000
0100
0010
,  // measure 105
0100
0000
0010
0000
1000
0100
1000
0000
,  // measure 106
0001
0000
0010
0001
0010
0000
0100
0000
,  // measure 107
1000
0100
0001
0100
1000
0000
0001
0000
,  // measure 108
1000
0010
0100
0000
0001
0000
0010
0001
,  // measure 109
0100
0000
0010
0000
1000
0100
0001
0000
,  // measure 110
0100
0000
1000
0010
0001
0000
0010
0000
,  // measure 111
1000
0010
0100
0001
0100
0000
0010
0000
,  // measure 112
1000
0001
0100
0000
0001
0000
0010
0001
,  // measure 113
0100
0000
0010
0000
1000
0010
0100
0000
,  // measure 114
0010
0000
1000
0100
0010
0000
0100
0000
,  // measure 115
0010
0001
1000
0001
0100
0000
0001
0000
,  // measure 116
1000
0100
1000
0000
0001
0010
0001
0000
,  // measure 117
1000
0010
1000
0000
0001
0100
0001
0000
,  // measure 118
1000
0001
1000
0000
0010
0100
0010
0000
,  // measure 119
1000
0001
1000
0001
1000
0000
0001
0000
,  // measure 120
0010
0001
0100
0000
0010
1000
0100
0000
,  // measure 121
1000
0001
0100
0000
0001
1000
0010
0000
,  // measure 122
0100
0010
1000
0000
0100
0010
0001
0000
,  // measure 123
0010
0001
1000
0001
0100
0000
0010
0000
,  // measure 124
0100
0001
0100
0001
1000
0010
1000
0010
,  // measure 125
1000
0100
1000
0100
0010
0000
0100
0000
,  // measure 126
0010
0001
0010
0100
1000
0100
0010
0001
,  // measure 127
1000
0001
0100
0010
1000
0000
0001
0000
,  // measure 128
1000
0010
0100
0001
0100
0010
1000
0001
,  // measure 129
0010
0100
1000
0100
0010
0001
1000
0001
,  // measure 130
0100
0010
0100
0010
1000
0100
0010
0001
,  // measure 131
1000
0100
1000
0001
1000
0001
0100
0010
,  // measure 132
0100
0000
0010
0100
0010
0000
0000
0000
,  // measure 133
1000
0001
1000
0001
2000
0000
0000
0000
,  // measure 134
0000
3000
0000
0000
;

//---------------dance-single - GOOD LUCK----------------
#NOTEDATA:;
#CHARTNAME:;
#STEPSTYPE:dance-single;
#DESCRIPTION:GOOD LUCK;
#CHARTSTYLE:;
#DIFFICULTY:Challenge;
#METER:13;
#RADARVALUES:1.185358,2.240998,0.610709,0.390854,0.647352,1019.000000,944.000000,75.000000,48.000000,0.000000,0.000000,0.000000,0.000000,0.000000,1.185358,2.240998,0.610709,0.390854,0.647352,1019.000000,944.000000,75.000000,48.000000,0.000000,0.000000,0.000000,0.000000,0.000000;
#CREDIT:GOOD LUCK;
#DISPLAYBPM:101.000000:404.000000;
#NOTES:
// measure 0
1001
0000
1010
0101
0000
2002
0000
0000
,  // measure 1
0000
3003
0000
0110
0000
0011
1100
0000
,  // measure 2
2002
0000
0000
0000
3003
0000
1001
0001
,  // measure 3
0010
0000
0000
0100
0010
0000
0001
0000
0100
0000
0101
0000
1001
0000
1000
0000
,  // measure 4
0010
0000
0100
0010
0000
0000
2020
0000
0000
0000
3030
0000
1100
0000
0000
0000
,  // measure 5
0010
0000
0000
0000
0001
0000
0000
0000
1000
0000
0000
0000
0002
0000
0000
2000
0000
0000
0000
0000
0000
0000
0000
0000
3003
0000
0000
0000
0000
0000
1001
0000
0000
0000
0000
0000
0001
0000
0000
1000
0000
0000
0000
0000
0000
0000
0000
0000
,  // measure 6
0101
0000
0000
0110
0000
0000
1001
0000
1000
0001
1000
0001
1000
0000
0001
0000
,  // measure 7
0110
0000
0000
0010
0001
0000
0100
0000
0010
0000
0101
0000
1001
0000
1000
0000
,  // measure 8
1100
0000
0010
0001
0100
0000
1010
0000
0100
0000
0001
0000
1001
0000
1000
0000
,  // measure 9
1100
0000
0000
0001
0010
0100
1000
0000
0001
0000
0101
0000
1010
0000
0100
0000
,  // measure 10
1100
0000
0000
0011
0000
0000
1001
0000
0001
0100
0010
0100
0001
0000
1000
0000
,  // measure 11
1100
0000
0000
0010
0001
1000
0001
0000
1000
0000
1010
0000
1001
0000
0001
0000
,  // measure 12
0100
0000
0010
0100
0001
0000
2002
0000
0000
0000
3003
0000
1000
0100
1000
0000
,  // measure 13
0001
0100
0001
0000
1000
0010
0000
0100
0001
0000
1000
0100
1000
0000
0001
0010
,  // measure 14
0001
1000
0100
1000
0001
0100
0001
1000
0010
1000
0001
0200
0020
0000
0000
0000
,  // measure 15
0000
0000
0000
0000
,  // measure 16
0000
0000
0000
0330
0000
0000
0000
0000
0000
0001
0000
0010
,  // measure 17
0000
0100
0000
0001
0000
0100
0000
1000
0000
0001
0000
0100
,  // measure 18
0000
0000
0010
0000
0000
0000
1000
0000
0000
0000
0010
0000
0000
0000
0100
0000
0000
0000
0010
0000
0000
1000
0000
0000
,  // measure 19
0100
0000
0010
0000
0001
1000
0010
0000
,  // measure 20
0100
0000
0010
0100
0001
0000
1000
0000
,  // measure 21
0001
0010
0100
0000
0010
0000
0100
0010
,  // measure 22
0001
0010
0100
0000
0001
0000
1000
0010
,  // measure 23
0100
0000
0001
0000
1000
0100
0010
0000
,  // measure 24
0001
0000
1000
0100
1000
0000
0001
0000
,  // measure 25
0010
0001
0100
0000
0010
0000
1000
0100
,  // measure 26
1000
0010
0100
0000
0001
0000
1000
0001
,  // measure 27
0100
0000
0001
0000
1000
0001
0010
0000
,  // measure 28
0001
0000
1000
0100
0010
0000
0100
0000
,  // measure 29
1000
0010
0100
0000
0001
0000
0100
0010
,  // measure 30
1000
0100
0010
0100
1000
0000
0001
0010
,  // measure 31
0100
0000
0010
0000
0001
0100
1000
0000
,  // measure 32
0100
0000
1000
0100
0001
0000
1000
0000
,  // measure 33
0001
0010
0100
0000
0010
0000
0001
0000
,  // measure 34
1100
0000
1010
0000
0101
0000
0001
0100
,  // measure 35
0010
0100
0001
0000
1000
0000
0010
1000
,  // measure 36
0010
0100
0010
0000
1000
0000
0001
0010
,  // measure 37
0100
0010
0001
0000
1000
0000
0100
1000
,  // measure 38
0001
1000
0010
0100
0001
0000
1000
0100
,  // measure 39
1000
0100
0010
0000
0001
0000
0010
0001
,  // measure 40
0100
0001
0100
0000
0010
0000
0100
0010
,  // measure 41
1000
0001
1000
0000
0001
0000
1000
0100
,  // measure 42
0010
0001
0100
0010
1000
0000
0001
0100
,  // measure 43
0010
0000
0100
0001
1000
0000
0001
1000
,  // measure 44
0100
0000
1000
0100
0010
0000
0100
0010
,  // measure 45
0001
0000
0100
0010
1000
0000
0100
0010
,  // measure 46
0001
0100
0010
1000
0100
0000
0010
0001
,  // measure 47
0010
0001
1000
0100
1000
0100
1000
0010
,  // measure 48
0100
0001
1000
0100
0010
0001
1000
0010
,  // measure 49
0100
0001
0010
0100
0010
0001
0100
0010
,  // measure 50
1000
0100
0010
0100
1000
0010
1010
0000
,  // measure 51
0110
0000
0000
0010
0100
0000
0001
0000
1000
0000
1100
0000
0000
0000
0100
0000
,  // measure 52
0010
0000
0001
1000
0001
0100
0010
0000
0100
0000
0010
0000
2000
0000
0000
0000
,  // measure 53
0010
0000
0000
0000
0000
0000
0000
0000
0000
0000
0000
0000
3001
0000
0000
0000
0010
0000
0000
0000
0100
0000
0000
0000
1000
0000
0000
0000
0010
0000
0000
0000
0100
0000
0000
0000
0001
0000
0000
0101
0000
0000
0000
0000
0000
0000
0000
0000
,  // measure 54
1010
0000
0000
1100
0000
0000
0011
0000
0100
0000
0010
0000
1001
0000
0000
0000
,  // measure 55
1000
0010
0000
0100
0001
0010
0000
0100
,  // measure 56
1000
0100
0001
0100
1000
0001
1000
0100
,  // measure 57
0010
0000
0001
0000
0100
0010
0100
0010
1000
0001
1000
0001
1000
0100
0000
0000
,  // measure 58
0011
0000
0000
0101
0000
0000
1000
0100
0010
0001
0100
0010
1000
0000
0000
0000
,  // measure 59
0001
0000
1000
0100
0001
0000
1000
0000
,  // measure 60
0001
0100
1000
0000
0001
0000
1000
0010
,  // measure 61
0001
0000
1000
0000
0001
0010
1000
0010
,  // measure 62
0100
0000
0110
0000
0010
0000
1000
0100
,  // measure 63
0020
0000
0000
0000
0130
0010
0002
0000
,  // measure 64
0000
0000
0013
0001
0200
0000
0000
0000
,  // measure 65
0310
0000
0100
0000
0010
0000
1000
0100
,  // measure 66
0010
0001
0100
0010
1000
0001
2002
0000
,  // measure 67
3003
1000
0100
0010
2002
0000
0000
0000
,  // measure 68
3003
1000
0010
0100
,  // measure 69
0010
1000
0001
0100
,  // measure 70
0010
2002
0000
3003
,  // measure 71
0100
0010
0220
0000
0000
0000
0330
0000
,  // measure 72
0010
0000
0000
1000
0000
0000
0010
0000
0000
0000
1000
0000
0000
0000
0100
0000
0000
0000
0001
0000
0000
0000
0100
0000
,  // measure 73
0000
2000
0000
0002
0000
0000
0000
0000
0000
0000
0000
0000
,  // measure 74
3003
0000
0000
0000
1000
0100
0010
0200
0000
0000
0000
0000
0000
0000
0000
0300
,  // measure 75
0000
0010
0001
0100
0020
0000
0000
0000
0000
0000
0000
0000
0000
0000
0000
0000
,  // measure 76
0130
0000
0000
0000
0010
0000
0000
0000
0100
0000
0000
0000
0001
0000
0000
0000
1000
0000
0000
0000
0001
0000
0000
0000
1000
0000
0000
0100
0000
0000
0010
0000
0000
0100
0000
0000
2000
0000
0000
0000
0000
0000
0000
0000
0000
0000
0000
0000
,  // measure 77
3001
0100
0010
0100
0002
0000
0000
0000
1003
0100
0001
0100
2000
0000
0000
0000
,  // measure 78
3001
0010
1000
0010
0001
0100
0010
1000
0010
0100
0001
0010
0100
0001
0100
1000
,  // measure 79
0001
0100
0020
0000
1030
0000
0010
1000
0000
0010
0100
0000
0001
0100
0000
0001
,  // measure 80
1000
0001
1000
0000
0100
0000
0010
0001
0000
1000
0001
0000
1000
0010
0000
0010
,  // measure 81
0100
0000
0001
0000
1000
0000
0010
0000
0100
0000
0000
0000
0010
0100
0010
0000
0000
0000
0100
0001
0100
0000
0000
0000
0001
1000
0001
0000
0000
0000
1000
0100
,  // measure 82
1000
0000
0001
0010
0001
0000
0000
0000
1000
0000
0100
0000
0010
0000
0001
0000
1000
0000
0010
0000
0100
0000
0001
0000
1000
0100
1000
0100
0010
0001
0010
0001
,  // measure 83
1000
0010
0100
0001
1000
0100
0010
0001
0200
0000
0000
0000
0000
0000
0000
0000
0310
0000
0000
0000
0100
0000
0000
0000
0001
0000
0000
0000
1000
0000
0000
0000
,  // measure 84
0100
0000
0010
0000
1000
0000
0010
0000
0001
0000
0100
0010
0001
0010
1000
0000
,  // measure 85
0001
1000
0200
0001
0320
0100
0032
0100
,  // measure 86
2003
0000
0010
0000
3100
0000
1000
0000
0001
0000
0100
0010
0100
0001
0010
0000
,  // measure 87
0001
0000
1000
0000
0110
0000
0001
0000
1000
0000
0001
0100
0010
0000
1000
0000
,  // measure 88
0100
0000
0010
0001
1000
0000
0001
1000
0010
0000
0100
0000
0001
0010
1000
0010
,  // measure 89
0001
1000
0002
0100
2003
0010
3200
0001
,  // measure 90
0320
0000
0100
0000
0031
0000
0010
0000
0001
0000
1000
0010
0100
0001
1000
0100
,  // measure 91
0010
0000
0100
0000
1000
0000
0001
0000
1000
0000
0001
0100
0010
0100
0001
0000
,  // measure 92
1000
0000
0100
0000
1000
0000
0001
0000
0100
0000
0010
1000
0100
1000
0001
0000
,  // measure 93
1000
0000
1010
0100
1001
0100
1010
0100
,  // measure 94
1001
0100
0011
0100
0010
0001
1001
1000
,  // measure 95
0010
0000
0100
0000
0010
0100
0010
0100
0001
0100
0001
0100
0001
1000
0001
1000
,  // measure 96
0100
1000
0100
1000
0001
0010
0001
0010
0100
1000
0100
1000
0001
0100
0010
1000
,  // measure 97
0100
0010
0001
0100
2020
0000
0000
0000
0000
0000
0000
0000
0000
0000
0000
0000
,  // measure 98
3030
0000
0000
1000
0100
0001
1000
0010
0001
1000
0100
0010
,  // measure 99
0002
0000
0000
0000
,  // measure 100
1003
0100
0001
0000
0100
0000
0010
0001
,  // measure 101
0100
0001
1000
0000
0010
0000
0101
0000
,  // measure 102
0010
1000
0100
0000
0010
0000
0001
0010
,  // measure 103
0001
1000
0010
0100
0010
1000
0100
0000
,  // measure 104
0010
0001
1000
0000
0010
0000
1000
0010
,  // measure 105
0001
0010
1000
0000
0100
0000
0011
0000
,  // measure 106
1000
0100
0010
0000
0100
0000
1000
0001
,  // measure 107
0100
1000
0001
0010
1000
0100
0010
0100
,  // measure 108
0010
0001
0100
0000
0101
0000
0100
0010
,  // measure 109
1000
0000
1010
0000
0010
1000
0001
0000
,  // measure 110
1001
0000
1000
0001
0010
0000
0011
0000
,  // measure 111
0010
0001
1000
0100
0010
0100
1000
0001
,  // measure 112
0100
0010
1000
0000
0101
0000
0001
1000
,  // measure 113
0100
0000
0011
0000
0010
0001
0100
0000
,  // measure 114
1010
0000
1000
0001
0010
0000
1100
0000
,  // measure 115
0010
1001
1010
0101
,  // measure 116
0010
1000
0010
0100
0001
0010
0100
0000
,  // measure 117
0001
0010
0001
1000
0010
0100
0001
0000
,  // measure 118
1000
0100
0010
0100
1000
0001
0010
0100
,  // measure 119
0010
0001
1000
0010
0100
0001
1000
0000
,  // measure 120
0001
0010
0100
1000
0010
0100
0010
0000
,  // measure 121
1000
0010
0100
0001
1000
0100
0010
0000
,  // measure 122
0001
0010
0100
1000
0001
1000
0001
0100
,  // measure 123
0010
1000
0100
1000
0001
0100
0010
0000
,  // measure 124
1000
0100
0001
0100
1000
0100
0010
0001
,  // measure 125
1000
0010
0001
0010
1000
0010
0100
0001
,  // measure 126
1000
0010
0100
1000
0100
0001
0010
0100
,  // measure 127
0010
0001
1000
0100
0010
0100
1000
0001
,  // measure 128
1000
0100
0001
0100
0010
0001
1000
0001
,  // measure 129
0100
1000
0001
0010
1000
0100
0001
0100
,  // measure 130
0010
0001
0100
0010
1000
0100
0001
1000
,  // measure 131
0010
0001
0100
0010
0100
0001
1000
0100
,  // measure 132
0110
0000
0010
0001
2002
0000
3003
0000
,  // measure 133
1000
0010
0100
0001
2002
0000
0000
0000
,  // measure 134
0000
3003
0000
0000
;
