#VERSION:0.83;
#TITLE:Time;
#SUBTITLE:;
#ARTIST:Izabo;
#TITLETRANSLIT:;
#SUBTITLETRANSLIT:;
#ARTISTTRANSLIT:;
#GENRE:;
#ORIGIN:;
#CREDIT:;
#BANNER:Time.png;
#BACKGROUND:Time-bg.png;
#PREVIEWVID:;
#JACKET:;
#CDIMAGE:;
#DISCIMAGE:;
#LYRICSPATH:;
#CDTITLE:;
#MUSIC:Time.mp3;
#OFFSET:-3.700000;
#SAMPLESTART:48.029999;
#SAMPLELENGTH:14.760000;
#SELECTABLE:YES;
#BPMS:0.000=130.000,
220.000=128.000,
221.000=100.000,
221.500=80.000,
223.500=54.000;
#STOPS:;
#DELAYS:;
#WARPS:;
#TIMESIGNATURES:0.000=4=4;
#TICKCOUNTS:0.000=4;
#COMBOS:0.000=1;
#SPEEDS:0.000=1.000=0.000=0;
#SCROLLS:0.000=1.000;
#FAKES:;
#LABELS:0.000=Song Start;
#BGCHANGES:;
#KEYSOUNDS:;
#ATTACKS:
;

//---------------dance-single - Oni-91----------------
#NOTEDATA:;
#CHARTNAME:;
#STEPSTYPE:dance-single;
#DESCRIPTION:Oni-91;
#CHARTSTYLE:;
#DIFFICULTY:Hard;
#METER:6;
#RADARVALUES:0.384195,0.401186,0.213019,0.275150,0.000000,303.000000,279.000000,24.000000,31.000000,0.000000,0.000000,0.000000,0.000000,0.000000,0.384195,0.401186,0.213019,0.275150,0.000000,303.000000,279.000000,24.000000,31.000000,0.000000,0.000000,0.000000,0.000000,0.000000;
#CREDIT:Oni-91;
#NOTES:
// measure 0
1002
0000
0103
0000
0001
0100
1000
0100
,  // measure 1
0002
0000
0013
0000
0100
1000
0100
0010
,  // measure 2
0200
0000
1300
0000
1000
0010
0100
0001
,  // measure 3
0020
0001
1000
0031
,  // measure 4
0100
0020
0000
1000
0000
0001
0000
1030
,  // measure 5
0100
0020
0000
0001
0000
1000
1030
0000
,  // measure 6
0010
0001
1000
0000
0010
1000
0001
0000
,  // measure 7
1010
0101
2002
3003
,  // measure 8
1000
0100
1000
0000
0001
0000
0100
0000
,  // measure 9
0010
0000
0100
0000
0001
1000
0100
0010
,  // measure 10
0100
0000
0010
0001
0010
0000
0001
0000
,  // measure 11
1000
0000
0010
0000
0100
0010
0100
0010
,  // measure 12
1000
0000
0001
0010
0100
0000
0010
0000
,  // measure 13
0001
0000
1000
0000
0010
0100
0001
0100
,  // measure 14
0002
0010
0023
0100
,  // measure 15
0200
0000
0330
0000
0000
0001
1000
0001
,  // measure 16
1001
0000
1000
0010
0100
0000
0010
0000
,  // measure 17
1000
0000
0001
1000
0000
1000
0100
0010
,  // measure 18
0001
0000
0010
0001
0100
0000
0010
0000
,  // measure 19
0100
0000
0010
1000
0000
1000
0010
0100
,  // measure 20
0001
0000
1000
0100
1000
0000
0001
0100
,  // measure 21
0001
0000
1000
0000
0100
0010
0001
1000
,  // measure 22
0002
0010
2003
0100
,  // measure 23
3001
1000
1001
0110
,  // measure 24
1001
0000
1001
0000
1000
0001
0100
0000
,  // measure 25
0110
0000
0110
0000
0010
1000
0010
2000
,  // measure 26
0000
3001
1000
0100
,  // measure 27
0010
0001
0010
0000
0100
1000
0100
0000
,  // measure 28
1000
0002
0000
0010
0000
1000
0000
0100
,  // measure 29
0000
0023
0000
0001
0000
0130
0010
0100
,  // measure 30
0010
0001
0100
0010
,  // measure 31
1000
0010
1000
0010
0100
0000
0101
0000
,  // measure 32
1001
0000
1001
0000
1000
0100
0010
0000
,  // measure 33
0110
0000
0110
0000
1000
0100
0010
0002
,  // measure 34
0000
1003
0010
0100
,  // measure 35
0010
0100
0010
0000
0100
0001
0100
0000
,  // measure 36
0001
2000
0000
0010
0000
0001
0000
0100
,  // measure 37
0000
3002
0000
0010
0000
1003
0001
0100
,  // measure 38
0010
0101
0001
1100
,  // measure 39
2002
0000
0000
3003
,  // measure 40
0001
0000
1000
0000
0001
1000
0100
0010
,  // measure 41
0100
0000
0010
0000
0100
0010
0001
0100
,  // measure 42
0010
0000
1000
0000
0001
1000
0001
0000
,  // measure 43
1000
0100
0010
0001
,  // measure 44
2000
0001
0000
0001
0000
0100
0000
0100
,  // measure 45
0000
3020
0000
0100
0000
0100
0130
0000
,  // measure 46
0001
0100
0001
0200
0000
0000
0310
0000
,  // measure 47
0010
1000
0010
2000
0000
0000
0200
0000
,  // measure 48
3300
0000
0100
0010
0100
0010
0001
2000
,  // measure 49
0001
0001
0001
3001
,  // measure 50
0001
0200
0000
1000
0000
0001
0000
1000
,  // measure 51
0000
0320
0000
1000
0000
0130
0010
1000
,  // measure 52
0001
0000
1000
0000
0100
1000
0001
0000
,  // measure 53
1001
1001
0110
0110
,  // measure 54
0001
1000
0001
1000
,  // measure 55
0100
0000
0010
0100
0000
0010
0001
1000
,  // measure 56
2002
0000
3003
0000
;

//---------------dance-single - Oni-91----------------
#NOTEDATA:;
#CHARTNAME:;
#STEPSTYPE:dance-single;
#DESCRIPTION:Oni-91;
#CHARTSTYLE:;
#DIFFICULTY:Medium;
#METER:5;
#RADARVALUES:0.319529,0.372783,0.213019,0.186392,0.000000,252.000000,228.000000,24.000000,21.000000,0.000000,0.000000,0.000000,0.000000,0.000000,0.319529,0.372783,0.213019,0.186392,0.000000,252.000000,228.000000,24.000000,21.000000,0.000000,0.000000,0.000000,0.000000,0.000000;
#CREDIT:Oni-91;
#NOTES:
// measure 0
1000
0001
0100
0100
,  // measure 1
0001
1000
0100
0200
,  // measure 2
0300
0000
1001
0000
1000
0001
1000
0000
,  // measure 3
0001
0100
1000
0100
,  // measure 4
0001
1000
0000
1000
0000
1000
0000
1000
,  // measure 5
0000
0001
0000
0001
0000
0001
0001
0000
,  // measure 6
1000
0100
1000
0000
0001
0010
0001
0000
,  // measure 7
1001
0110
2002
3003
,  // measure 8
1010
0010
0100
0001
,  // measure 9
0010
0001
1000
0000
,  // measure 10
0001
0000
1000
0010
1000
0000
0001
0000
,  // measure 11
0100
0001
0010
0000
,  // measure 12
0100
0000
0010
0001
1000
0000
0001
0000
,  // measure 13
0100
0010
1000
0100
,  // measure 14
0020
0000
0032
0000
,  // measure 15
2000
0000
3003
0000
0000
0001
0000
0001
,  // measure 16
1000
0000
0100
0000
0010
0000
0000
0001
,  // measure 17
0100
0001
0100
0001
,  // measure 18
1000
0000
0100
0000
0010
0000
0000
0100
,  // measure 19
1000
0000
0001
0000
1000
0001
1000
0000
,  // measure 20
0001
0100
1000
0100
,  // measure 21
0001
1000
0100
0010
,  // measure 22
0220
0330
2002
3003
,  // measure 23
0220
0330
1001
1001
,  // measure 24
1001
1001
1000
1000
,  // measure 25
1001
1001
0001
0001
,  // measure 26
1000
0100
0010
0001
,  // measure 27
0100
0010
0100
0000
0010
1000
0010
0000
,  // measure 28
0001
1000
0000
0100
0000
0010
0000
0001
,  // measure 29
0000
1000
0000
0010
0000
0100
0000
0001
,  // measure 30
0100
0000
0001
0000
0010
0001
0010
0000
,  // measure 31
0001
1000
0220
0330
,  // measure 32
0110
0110
0010
0010
,  // measure 33
0110
0000
0110
0000
0100
0000
0100
0020
,  // measure 34
0000
0031
1000
0001
,  // measure 35
1000
0010
0100
0000
0001
0100
0010
0000
,  // measure 36
0010
1000
0000
0100
0000
0010
0000
0001
,  // measure 37
0000
1000
0000
0010
0000
0100
0000
0001
,  // measure 38
0100
0001
1000
0100
,  // measure 39
2002
0000
0000
3003
,  // measure 40
1000
0000
0100
0000
1000
0100
0010
0000
,  // measure 41
0100
0000
0010
0000
0001
0010
0001
0000
,  // measure 42
1000
0001
0100
0010
,  // measure 43
0100
0010
0100
0001
,  // measure 44
0001
1000
0000
0001
0000
1000
0000
0001
,  // measure 45
0000
0100
0000
0010
0000
0100
0100
0000
,  // measure 46
2001
0001
0010
0010
,  // measure 47
0100
0100
0001
0002
,  // measure 48
3003
0000
0001
1000
0001
1000
0001
0000
,  // measure 49
2002
0000
0000
3003
,  // measure 50
1000
0001
0000
1000
0000
0001
0000
0100
,  // measure 51
0000
0010
0000
0100
0000
0001
0000
1000
,  // measure 52
0001
0100
1000
0100
,  // measure 53
0010
1000
1001
1001
,  // measure 54
0001
1000
0100
0010
,  // measure 55
0001
0000
1000
0000
0000
1000
0001
1000
,  // measure 56
0001
0000
0000
0000
;

//---------------dance-single - Oni-91----------------
#NOTEDATA:;
#CHARTNAME:;
#STEPSTYPE:dance-single;
#DESCRIPTION:Oni-91;
#CHARTSTYLE:;
#DIFFICULTY:Easy;
#METER:4;
#RADARVALUES:0.259934,0.323079,0.230771,0.133137,0.000000,205.000000,179.000000,26.000000,15.000000,0.000000,0.000000,0.000000,0.000000,0.000000,0.259934,0.323079,0.230771,0.133137,0.000000,205.000000,179.000000,26.000000,15.000000,0.000000,0.000000,0.000000,0.000000,0.000000;
#CREDIT:Oni-91;
#NOTES:
// measure 0
1000
0100
1000
0000
,  // measure 1
0001
0100
0001
0000
,  // measure 2
1000
0100
0010
0001
,  // measure 3
0100
0010
0100
0010
,  // measure 4
1000
0100
0010
0000
,  // measure 5
0100
0010
0001
0000
,  // measure 6
0100
0000
0001
0000
,  // measure 7
1001
1001
1001
0000
,  // measure 8
0110
0000
0010
1000
,  // measure 9
0100
0010
0100
0000
,  // measure 10
0010
0001
0100
0010
,  // measure 11
0100
0010
0100
0000
,  // measure 12
0010
1000
0001
0000
,  // measure 13
0010
0001
0100
0000
,  // measure 14
0110
0000
1001
0000
,  // measure 15
0220
0000
0000
0330
,  // measure 16
1001
0001
1000
0000
,  // measure 17
0001
0010
0001
0000
,  // measure 18
1000
0100
0010
0001
,  // measure 19
0100
0010
1000
0000
,  // measure 20
0001
0100
0001
0000
,  // measure 21
1000
0010
1000
0000
,  // measure 22
0110
0000
1001
0000
,  // measure 23
0220
0330
0110
0110
,  // measure 24
0110
0000
0010
1000
,  // measure 25
1001
0000
0001
0010
,  // measure 26
0001
1000
0100
0010
,  // measure 27
0100
0100
0010
0010
,  // measure 28
0001
0000
0100
0010
,  // measure 29
0100
0000
0010
1000
,  // measure 30
0010
0010
1000
1000
,  // measure 31
0001
1000
2002
3003
,  // measure 32
0110
0000
0010
1000
,  // measure 33
0100
0010
0100
2000
,  // measure 34
0000
3001
1000
0001
,  // measure 35
0100
0100
0100
0100
,  // measure 36
0110
0000
0010
1000
,  // measure 37
0100
0010
0100
0000
,  // measure 38
0010
0001
0100
0001
,  // measure 39
2002
0000
0000
3003
,  // measure 40
1000
1000
0001
0100
,  // measure 41
0010
0010
0100
0001
,  // measure 42
0010
0100
1000
0100
,  // measure 43
0010
0001
0100
0010
,  // measure 44
1000
0100
0001
0100
,  // measure 45
1000
0010
0001
0010
,  // measure 46
0210
0010
0001
0001
,  // measure 47
0010
0010
0001
0002
,  // measure 48
0303
0001
1000
0001
,  // measure 49
2002
0000
0000
3003
,  // measure 50
1000
0100
0010
0100
,  // measure 51
0010
0001
0100
0001
,  // measure 52
1000
0100
1000
0001
,  // measure 53
1001
1001
1001
2002
,  // measure 54
3003
1000
0000
0001
,  // measure 55
0000
1000
0000
0000
,  // measure 56
1001
0000
0000
0000
;

//---------------dance-single - Oni-91----------------
#NOTEDATA:;
#CHARTNAME:;
#STEPSTYPE:dance-single;
#DESCRIPTION:Oni-91;
#CHARTSTYLE:;
#DIFFICULTY:Beginner;
#METER:2;
#RADARVALUES:0.152156,0.173966,0.097634,0.000000,0.000000,120.000000,109.000000,11.000000,0.000000,0.000000,0.000000,0.000000,0.000000,0.000000,0.152156,0.173966,0.097634,0.000000,0.000000,120.000000,109.000000,11.000000,0.000000,0.000000,0.000000,0.000000,0.000000,0.000000;
#CREDIT:Oni-91;
#NOTES:
// measure 0
1000
0000
0100
0000
,  // measure 1
1000
0000
0001
0000
,  // measure 2
0100
0000
0000
0000
,  // measure 3
0010
0010
0010
0000
,  // measure 4
1001
0000
1000
0000
,  // measure 5
0100
0000
1000
0000
,  // measure 6
0001
0000
1000
0000
,  // measure 7
0001
0001
0001
0000
,  // measure 8
1001
0000
0000
0000
,  // measure 9
0001
0000
0100
0000
,  // measure 10
0001
0000
0000
0000
,  // measure 11
1000
0000
0100
0000
,  // measure 12
1000
0000
0000
0000
,  // measure 13
0001
0000
0010
0000
,  // measure 14
0100
0000
1000
0000
,  // measure 15
0100
0000
0010
0010
,  // measure 16
0010
0000
0001
0000
,  // measure 17
0100
0000
0000
0000
,  // measure 18
0010
0000
1000
0000
,  // measure 19
0100
0000
0000
0000
,  // measure 20
0010
0000
0001
0000
,  // measure 21
1000
0000
0100
0000
,  // measure 22
1000
0000
0001
0000
,  // measure 23
0100
0000
0000
0000
,  // measure 24
0110
0000
0010
0000
,  // measure 25
1000
0000
0001
0000
,  // measure 26
1000
0000
0001
0000
,  // measure 27
0100
0100
0100
0000
,  // measure 28
0110
0000
0010
0000
,  // measure 29
1000
0000
0001
0000
,  // measure 30
1000
0000
0100
0000
,  // measure 31
0010
0010
0010
0000
,  // measure 32
0110
0000
0100
0000
,  // measure 33
0010
0000
0001
0001
,  // measure 34
0000
1000
0000
0000
,  // measure 35
0001
0001
0001
0000
,  // measure 36
1001
0000
1000
0000
,  // measure 37
0010
0000
0100
0000
,  // measure 38
0001
0000
0100
0000
,  // measure 39
0110
0000
0000
0000
,  // measure 40
1001
0000
1000
0000
,  // measure 41
0100
0000
1000
0000
,  // measure 42
0001
0000
0100
0000
,  // measure 43
0010
0010
0010
0010
,  // measure 44
0010
0000
0100
0000
,  // measure 45
0001
0000
1000
0000
,  // measure 46
1001
0000
0000
0000
,  // measure 47
0110
0000
0000
0000
,  // measure 48
0000
0001
0001
0001
,  // measure 49
0001
0000
0000
0000
,  // measure 50
1000
0000
0100
0000
,  // measure 51
1000
0000
0001
0000
,  // measure 52
0100
0000
0100
0000
,  // measure 53
0010
0010
0010
0010
,  // measure 54
0000
0000
0000
0000
,  // measure 55
0000
0000
0000
0000
,  // measure 56
1001
0000
0000
0000
;
