#VERSION:0.83;
#TITLE:This Corea;
#SUBTITLE:;
#ARTIST:House Rulez (feat. Chris & Jelly.L);
#TITLETRANSLIT:;
#SUBTITLETRANSLIT:;
#ARTISTTRANSLIT:;
#GENRE:;
#ORIGIN:;
#CREDIT:;
#BANNER:This Corea.png;
#BACKGROUND:This Corea-bg.png;
#PREVIEWVID:;
#JACKET:;
#CDIMAGE:;
#DISCIMAGE:;
#LYRICSPATH:;
#CDTITLE:;
#MUSIC:This Corea.mp3;
#OFFSET:-7.400000;
#SAMPLESTART:44.320000;
#SAMPLELENGTH:14.760000;
#SELECTABLE:YES;
#BPMS:0.000=130.000;
#STOPS:;
#DELAYS:;
#WARPS:;
#TIMESIGNATURES:0.000=4=4;
#TICKCOUNTS:0.000=4;
#COMBOS:0.000=1;
#SPEEDS:0.000=1.000=0.000=0;
#SCROLLS:0.000=1.000;
#FAKES:;
#LABELS:0.000=Song Start;
#BGCHANGES:;
#KEYSOUNDS:;
#ATTACKS:
;

//---------------dance-single - Oni-91----------------
#NOTEDATA:;
#CHARTNAME:;
#STEPSTYPE:dance-single;
#DESCRIPTION:Oni-91;
#CHARTSTYLE:;
#DIFFICULTY:Hard;
#METER:7;
#RADARVALUES:0.411074,0.444449,0.199432,0.322890,0.218426,303.000000,282.000000,21.000000,34.000000,0.000000,0.000000,0.000000,0.000000,0.000000,0.411074,0.444449,0.199432,0.322890,0.218426,303.000000,282.000000,21.000000,34.000000,0.000000,0.000000,0.000000,0.000000,0.000000;
#CREDIT:Oni-91;
#NOTES:
// measure 0
0010
0000
0000
0100
0001
0000
0000
0000
1000
0000
0000
0000
1100
0000
0000
0000
,  // measure 1
0010
0000
0000
0001
0010
0000
0100
0000
1000
0000
0000
0000
1001
0000
0000
0000
,  // measure 2
0001
0000
0100
0000
1000
0000
0100
0000
0001
0000
0100
0000
0010
0100
0000
0010
,  // measure 3
0100
0110
2002
3003
,  // measure 4
0001
0100
0010
0100
0001
0000
1000
0000
,  // measure 5
0001
0010
0100
0000
0010
0001
0100
0010
,  // measure 6
1000
0100
0010
0100
1000
0000
0001
0000
,  // measure 7
1000
0010
0100
0000
1010
0000
0101
0000
,  // measure 8
1000
0100
0001
0100
0010
0010
0010
0000
,  // measure 9
0001
0100
0000
0010
1000
1000
1000
0000
,  // measure 10
0001
0010
0000
0100
1000
0000
1000
0010
,  // measure 11
0000
0100
0001
0000
0001
0010
0000
0100
,  // measure 12
1000
0000
0001
0100
1000
0100
0001
0000
,  // measure 13
1000
0100
0010
0100
0010
0001
1000
0000
,  // measure 14
0001
0100
0000
0100
0001
0000
1000
0100
,  // measure 15
0000
0100
1000
0000
0001
0010
0100
0010
,  // measure 16
0001
0000
1000
0100
0001
0100
1000
0000
,  // measure 17
0001
0100
0010
0100
0001
1000
0001
0000
,  // measure 18
1000
0100
0000
0010
0001
0000
1000
0010
,  // measure 19
0000
0100
0001
1000
0100
0000
0110
0000
,  // measure 20
2002
0000
0000
3003
,  // measure 21
0001
1000
0010
0200
0020
0000
0330
0000
,  // measure 22
0010
1000
0100
0000
0010
0001
0100
0000
,  // measure 23
0001
0010
1000
0000
1010
0000
0011
0000
,  // measure 24
1001
0000
0000
0000
1000
0000
0010
0000
0100
0000
0001
1000
0000
0000
0000
0000
,  // measure 25
1000
0000
0100
0000
0010
0000
0001
0000
0100
0000
0000
0001
0000
0000
0100
0000
,  // measure 26
2010
0000
0000
0010
0000
0000
0001
0000
0000
0001
0000
0000
0100
0000
0000
0100
,  // measure 27
0000
0000
0001
0000
0000
0002
0000
0000
3003
0000
0000
0000
1000
0000
0001
0000
,  // measure 28
0220
0030
0020
0300
,  // measure 29
0032
2003
0020
3030
,  // measure 30
0010
0000
1000
0010
0000
0000
0100
0000
0000
0001
0000
1000
,  // measure 31
0200
0001
2000
3300
,  // measure 32
0001
0000
0001
0100
0000
0000
0010
0000
1000
0100
0000
0010
,  // measure 33
0002
0010
2000
3003
,  // measure 34
0001
0000
0100
0001
0000
0000
0010
0000
1000
0100
0000
1000
,  // measure 35
0200
0001
2000
3300
,  // measure 36
1000
0000
1000
0001
0000
0001
0100
0000
0100
0010
0000
0010
,  // measure 37
2000
0010
0002
3003
,  // measure 38
0001
0000
0001
0100
0000
0100
1000
0000
1000
0100
0000
0100
,  // measure 39
0020
1000
0200
0330
,  // measure 40
0010
0000
1000
0010
0000
0100
0001
0000
0010
0001
0000
1000
,  // measure 41
0100
1000
0100
1000
0000
0000
0001
0010
0001
0010
0000
0001
,  // measure 42
0100
0000
0100
0010
0000
0010
0100
0000
0100
0001
0000
1000
,  // measure 43
0002
0010
2000
3003
,  // measure 44
0220
0000
0000
0330
,  // measure 45
0010
0000
1000
0010
0000
0100
0001
0000
1001
0000
0000
0000
,  // measure 46
0220
0000
0000
0000
0330
0000
0010
1000
,  // measure 47
0000
0000
1000
0000
0100
0000
0010
0000
0001
0000
0000
1001
0000
0000
2000
0002
,  // measure 48
0000
0000
0000
0000
3003
0000
1000
0100
,  // measure 49
1000
0000
0001
0000
0100
0000
0010
0000
0100
0000
0000
0110
0000
0000
0000
0000
,  // measure 50
2001
0000
0000
0001
0000
0000
0002
0000
3003
0000
0000
0000
0001
0000
1000
0000
,  // measure 51
0100
0001
0100
1000
0001
1000
1001
0000
,  // measure 52
0110
0000
0000
0000
;

//---------------dance-single - Oni-91----------------
#NOTEDATA:;
#CHARTNAME:;
#STEPSTYPE:dance-single;
#DESCRIPTION:Oni-91;
#CHARTSTYLE:;
#DIFFICULTY:Medium;
#METER:5;
#RADARVALUES:0.298470,0.345682,0.218426,0.332387,0.056981,220.000000,197.000000,23.000000,35.000000,0.000000,0.000000,0.000000,0.000000,0.000000,0.298470,0.345682,0.218426,0.332387,0.056981,220.000000,197.000000,23.000000,35.000000,0.000000,0.000000,0.000000,0.000000,0.000000;
#CREDIT:Oni-91;
#NOTES:
0010
0100
0001
1001
,
1000
0000
0100
0000
0001
0100
1000
0000
,
0020
0000
1000
0000
0000
0000
0001
0000
0000
0000
0100
0000
0000
0100
0000
0000
,
0130
0110
2002
3003
,
0001
0100
0001
0000
1000
0100
0000
0100
,
1000
0000
0001
0010
0000
0010
0100
0010
,
0001
0000
1000
0000
0010
0100
0001
0000
,
1000
0000
0001
0000
1000
0100
0001
0100
,
1000
0000
0001
0000
1000
1000
1000
0000
,
0001
0000
1000
0000
0001
0001
0001
0000
,
1000
0001
0000
0001
1000
0000
1000
0010
,
0000
0010
0100
0000
0100
0001
0000
0001
,
0100
0000
0010
1000
0100
0000
0110
0000
,
0010
0001
1000
0000
1001
0000
0110
0000
,
0010
0100
0000
0100
0010
0000
0010
1000
,
0000
1000
0001
0000
0001
1000
0000
1000
,
0100
0000
0010
0100
0000
0100
0010
0000
,
0001
1000
0001
0000
1010
0000
0101
0000
,
0001
0100
0000
0100
0001
0000
1000
0100
,
0000
0100
1000
0001
1000
0000
0001
0000
,
2002
0000
0000
3003
,
0220
0000
0330
0110
,
0010
0000
1000
0001
0100
0000
0010
0000
,
1000
0100
0010
0000
0110
0000
1001
0000
,
0001
0000
0100
0000
1000
0100
0001
0000
,
1000
0100
1000
0000
0100
0000
0110
0000
,
2001
0000
0000
0001
0000
0000
0002
0000
0000
0000
0000
0000
0000
0000
0000
0000
,
0000
0000
0000
3003
,
2002
0000
0000
3003
,
0002
1000
0200
0303
,
0110
0000
0000
0100
0000
0000
0001
0000
0000
0010
0000
0010
,
0200
0010
2000
3300
,
1000
0000
0000
0010
0000
0000
0100
0000
0000
0001
0000
0100
,
0002
0010
2000
3003
,
1000
0000
0001
1000
0000
0000
0001
0000
1000
0001
0000
0000
,
0200
1000
0002
0303
,
1000
0000
0000
0100
0000
0000
0001
0000
0000
0100
0000
0100
,
2000
0010
0002
3003
,
0001
0000
0000
0100
0000
0000
1000
0000
0000
0100
0000
0100
,
0002
0010
2000
3003
,
1000
0000
0100
1000
0000
0000
0001
0000
0010
0001
0000
0000
,
0020
0001
0200
0330
,
0010
0000
0010
0100
0000
0000
0100
0000
0100
1000
0000
0000
,
1002
0010
2000
3003
,
0220
0000
0000
0000
,
0330
0000
0000
0000
,
2002
0000
0000
0000
,
3003
0000
0000
0000
,
0220
0000
0000
0000
,
0330
0000
0000
0000
,
2002
0000
0000
0000
,
3003
0000
0000
0000
,
1001
0000
0000
0000
;

//---------------dance-single - ----------------
#NOTEDATA:;
#CHARTNAME:;
#STEPSTYPE:dance-single;
#DESCRIPTION:;
#CHARTSTYLE:;
#DIFFICULTY:Easy;
#METER:4;
#RADARVALUES:0.208929,0.246916,0.151948,0.313393,0.000000,154.000000,138.000000,16.000000,33.000000,0.000000,0.000000,0.000000,0.000000,0.000000,0.208929,0.246916,0.151948,0.313393,0.000000,154.000000,138.000000,16.000000,33.000000,0.000000,0.000000,0.000000,0.000000,0.000000;
#CREDIT:Oni-91;
#NOTES:
0001
0100
0010
0100
,
0001
0000
1000
0000
,
0001
0010
0100
0010
,
0220
0000
0330
0000
,
2002
3003
0001
0100
,
0010
0000
0100
0010
,
1000
0000
0001
0010
,
0100
0000
0010
0001
,
0100
0100
0100
0100
,
0001
0001
0001
0001
,
0001
0000
0000
1000
0000
0000
0001
0000
,
0000
0010
0000
0000
0100
0000
0000
0010
,
0000
0100
0010
0100
,
0001
1000
0001
1000
,
0001
0000
0100
0001
,
0100
1000
0100
0010
,
1000
0000
0001
0010
,
0100
0000
0010
0100
,
0110
0000
0010
0001
,
0100
1000
0100
0001
,
2002
0000
0000
0000
,
0000
0000
0000
3003
,
0001
0100
0010
1000
,
0100
0001
0100
0000
,
0010
0100
0010
0001
,
0100
1000
0100
0000
,
2002
0000
0000
0000
,
0000
0000
0000
3003
,
0220
0000
0000
0030
,
0010
0010
0020
0330
,
0010
1000
0001
2000
,
0001
0001
0002
3003
,
0001
0010
0100
0020
,
0100
0100
0200
0330
,
0010
0001
0100
1000
,
0100
0010
2002
3003
,
0001
0010
0100
0001
,
0100
1000
2002
3003
,
0001
0100
1000
0100
,
0010
1000
2002
3003
,
0001
0010
0100
1000
,
0100
0010
0220
0330
,
0010
0001
0100
1000
,
0100
0010
0220
0330
,
2002
0000
0000
0000
,
3003
0000
0000
0000
,
0220
0000
0000
0000
,
0330
0000
0000
0000
,
2002
0000
0000
0000
,
3003
0000
0000
0000
,
0220
0000
0000
0000
,
0330
0000
0000
0000
,
1001
0000
0000
0000
;

//---------------dance-single - Oni-91----------------
#NOTEDATA:;
#CHARTNAME:;
#STEPSTYPE:dance-single;
#DESCRIPTION:Oni-91;
#CHARTSTYLE:;
#DIFFICULTY:Beginner;
#METER:1;
#RADARVALUES:0.115318,0.172841,0.085471,0.000000,0.000000,85.000000,76.000000,9.000000,0.000000,0.000000,0.000000,0.000000,0.000000,0.000000,0.115318,0.172841,0.085471,0.000000,0.000000,85.000000,76.000000,9.000000,0.000000,0.000000,0.000000,0.000000,0.000000,0.000000;
#CREDIT:Oni-91;
#NOTES:
0001
0000
0000
0000
,
1000
0000
0001
0000
,
0010
0000
0000
0000
,
0100
0000
0010
0000
,
0110
0000
0000
0000
,
0010
0000
0001
0000
,
1000
0000
0000
0000
,
0001
0000
1000
0000
,
0010
0000
0010
0000
,
0100
0000
0100
0000
,
0010
0000
0000
1000
,
0000
0000
0001
0000
,
1000
0000
0001
0000
,
1000
0000
0000
0000
,
0001
0000
0010
0000
,
0100
0000
0010
0000
,
0001
0000
0000
0000
,
1000
0000
0010
0000
,
0100
0000
0000
0001
,
0000
0000
1000
0000
,
1001
0000
0000
0000
,
0000
0000
0000
0000
,
1000
0000
0001
0000
,
0100
0000
0100
0000
,
0010
0000
0000
0000
,
0100
0000
0001
0000
,
1001
0000
0000
0000
,
0000
0000
0000
0000
,
0110
0000
0000
0000
,
0000
0000
0000
0000
,
0010
0000
1000
0000
,
0001
0000
0000
0000
,
0010
0000
0001
0000
,
1000
0000
0000
0000
,
0001
0000
1000
0000
,
0001
0000
0000
0000
,
1000
0000
0010
0000
,
0100
0100
0100
0000
,
0010
0000
0100
0000
,
0001
0001
0001
0000
,
1000
0000
0100
0000
,
0010
0010
0010
0000
,
0100
0000
0010
0000
,
0001
0001
0001
0000
,
1001
0000
0000
0000
,
0000
0000
0000
0000
,
0110
0000
0000
0000
,
0000
0000
0000
0000
,
1001
0000
0000
0000
,
0000
0000
0000
0000
,
0110
0000
0000
0000
,
0000
0000
0000
0000
,
1001
0000
0000
0000
;
