#TITLE:The Worrying Kind;
#SUBTITLE:;
#ARTIST:The Ark;
#TITLETRANSLIT:;
#SUBTITLETRANSLIT:;
#ARTISTTRANSLIT:;
#GENRE:;
#CREDIT:;
#BANNER:The Worrying Kind.png;
#BACKGROUND:The Worrying Kind-bg.PNG;
#LYRICSPATH:;
#CDTITLE:;
#MUSIC:The Worrying Kind.mp3;
#OFFSET:-0.010000;
#SAMPLESTART:73.342941;
#SAMPLELENGTH:14.328354;
#SELECTABLE:YES;
#DISPLAYBPM:134.000000;
#BPMS:0.000000=134.000000
,118.666664=120.000000
,120.000000=134.000000
,220.000000=128.000000
,224.000000=134.000000
;
#STOPS:
;
#BGCHANGES:-1.000=The Worrying Kind.avi=1.000=1=0=0=StretchNoLoop==CrossFade==,
239.000=The Worrying Kind-bg.PNG=1.000=1=0=0=StretchNoLoop==CrossFade==,
99999=-nosongbg-=1.000=0=0=0 // don't automatically add -songbackground-
;
#KEYSOUNDS:;
#ATTACKS:;

//---------------dance-single - Oni-91----------------
#NOTES:
     dance-single:
     :
     Hard:
     7:
     0.421881,0.489604,0.356575,0.256002,0.365718,323.000000,284.000000,39.000000,28.000000,0.000000,0.000000,0.421881,0.489604,0.356575,0.256002,0.365718,323.000000,284.000000,39.000000,28.000000,0.000000,0.000000:
// measure 0
0000
0000
0000
0000
,  // measure 1
0000
0000
0000
0000
,  // measure 2
1001
0000
0000
0001
0000
0000
0100
0000
0000
0010
0000
1000
,  // measure 3
0100
0000
0000
0010
0000
0000
0100
0000
0010
0001
0000
1000
,  // measure 4
0001
0000
0000
0100
0000
0000
0001
0000
0000
1000
0000
0001
,  // measure 5
0100
0000
0000
0001
0000
0000
0100
0000
0000
0010
0000
0100
,  // measure 6
0002
0000
0000
0010
0000
0000
1000
0000
1003
0000
0000
1000
,  // measure 7
0200
0000
0000
1000
0000
0000
0010
0000
0310
0000
0000
0001
,  // measure 8
0010
0000
0100
1000
0000
0000
0001
0000
0100
0001
0000
0001
,  // measure 9
0200
1000
0010
0301
,  // measure 10
1000
0000
0000
0011
0000
0000
0001
0000
0000
1010
0000
1000
,  // measure 11
0001
0000
0000
1100
0000
0000
1000
0000
0000
0101
0000
0001
,  // measure 12
1000
0000
1000
0100
0000
0000
0010
0000
0000
0001
0000
0000
,  // measure 13
2001
0010
0001
3100
,  // measure 14
1002
0000
0000
0010
0000
0000
0100
0000
0103
0000
0000
0100
,  // measure 15
0020
0000
0000
0001
0000
0000
0100
0000
0130
0000
0000
0010
,  // measure 16
1000
0000
1000
0001
0000
0000
1000
0000
1000
0100
0000
0000
,  // measure 17
1000
0000
0000
0101
0000
0000
0010
0000
0000
1100
0000
1000
,  // measure 18
0001
0000
0000
1000
0000
0010
0100
0000
0000
0001
0000
0010
,  // measure 19
0100
0000
0010
0001
0000
0000
1000
0000
0000
0001
0000
1000
,  // measure 20
0100
0000
0000
0011
0000
0000
1000
0000
0010
0100
0000
0000
,  // measure 21
2002
0000
0000
0000
0000
0000
3003
0000
0000
1001
0000
0001
,  // measure 22
0200
0000
0000
0010
0000
0000
0010
0000
0000
0310
0000
0010
,  // measure 23
2000
0000
0000
0001
0000
0000
0001
0000
0000
3001
0000
0001
,  // measure 24
0020
0000
0000
0100
0000
0000
0100
0000
0000
0130
0000
0100
,  // measure 25
2000
0000
0000
0001
0000
0000
0001
0000
0000
3001
0000
0001
,  // measure 26
0200
0000
0000
0010
0000
0000
0001
0000
0000
0310
0000
0100
,  // measure 27
0002
0000
0000
0010
0000
0000
1000
0000
0000
0013
0000
0001
,  // measure 28
0020
0000
0000
0100
0000
0000
0001
0000
0000
0130
0000
0001
,  // measure 29
1000
0000
0011
0000
0000
1100
0000
0000
1001
0000
0000
0000
,  // measure 30
1001
0000
0000
0001
0000
0000
0100
0000
0000
0010
0000
1000
,  // measure 31
0100
0000
1000
0001
0000
0000
1000
0000
0000
0100
0000
0100
,  // measure 32
1000
0000
0000
0001
0000
0001
0100
0000
0000
0010
0000
0010
,  // measure 33
1000
0000
0001
1000
0000
0000
0001
0000
0000
0010
0000
0000
,  // measure 34
2100
0010
0001
3100
,  // measure 35
0012
0100
1000
0103
,  // measure 36
1020
0100
1000
0130
,  // measure 37
2002
0000
0000
0000
,  // measure 38
0000
0000
0000
0000
0000
0000
0000
0000
0000
3003
0000
0020
,  // measure 39
0200
0000
0000
0330
,  // measure 40
0010
0100
0010
0100
0010
0100
0001
1000
0001
1000
0001
1000
,  // measure 41
0001
0000
0000
1000
0000
0000
0001
0000
0100
0001
0000
0000
,  // measure 42
1000
0000
0100
0010
0000
0001
0100
0000
0001
0100
0000
0000
,  // measure 43
1001
0000
1000
0010
0000
0000
0100
0000
0010
0100
0000
0010
,  // measure 44
1000
0100
1000
0001
,  // measure 45
1000
0011
0100
1001
,  // measure 46
0010
0000
0000
0101
0000
0000
0010
0000
1000
0010
0000
0100
,  // measure 47
0001
0000
0000
1100
0000
0000
0010
0000
0001
0100
0000
0000
,  // measure 48
0001
0000
0001
0100
0000
0100
0010
0000
0010
1000
0000
1000
,  // measure 49
0100
0000
0000
0011
0000
0000
0100
0000
0000
1010
0000
1000
,  // measure 50
0001
0000
0000
1100
0000
0000
1000
0000
0000
0101
0000
0001
,  // measure 51
1000
0000
0000
0001
0000
0000
1000
0000
0010
0100
0000
0000
,  // measure 52
0001
0000
1000
0100
0000
0000
1000
0000
0001
0010
0000
0000
,  // measure 53
1100
1001
0010
0101
,  // measure 54
0001
0000
0100
0000
0010
0000
1000
0000
0000
1001
0000
0000
,  // measure 55
0220
0330
2002
3003
,  // measure 56
1000
0000
0000
0001
0000
0010
0001
0000
0000
1000
0000
0010
,  // measure 57
1000
0000
0000
0001
0000
0100
0001
0000
0000
1000
0000
1100
,  // measure 58
0000
0000
0000
0001
0000
0101
0000
0000
0000
0110
0000
2002
,  // measure 59
0000
0000
3003
0000
;

//---------------dance-single - Oni-91----------------
#NOTES:
     dance-single:
     :
     Beginner:
     1:
     0.124083,0.215773,0.091429,0.000000,0.000000,95.000000,85.000000,10.000000,0.000000,0.000000,0.000000,0.124083,0.215773,0.091429,0.000000,0.000000,95.000000,85.000000,10.000000,0.000000,0.000000,0.000000:
// measure 0
0000
0000
0000
0000
,  // measure 1
0000
0000
0000
0000
,  // measure 2
1001
0000
0000
0000
,  // measure 3
0000
0000
0000
0000
,  // measure 4
0001
0000
0000
0000
,  // measure 5
0000
0000
0000
0000
,  // measure 6
1000
0000
0000
0000
,  // measure 7
0001
0000
0000
0000
,  // measure 8
1000
0000
0001
0000
,  // measure 9
0100
0000
0000
0000
,  // measure 10
0010
0000
0010
0000
,  // measure 11
0100
0000
0100
0000
,  // measure 12
0001
0000
1000
1000
,  // measure 13
1000
0000
0000
0000
,  // measure 14
0001
0000
0000
0000
,  // measure 15
0010
0000
0000
0000
,  // measure 16
0100
0000
0010
0000
,  // measure 17
0100
0000
0000
0000
,  // measure 18
0010
0000
0001
0000
,  // measure 19
1000
0000
0100
0000
,  // measure 20
0010
0000
0100
0100
,  // measure 21
0100
0000
0000
0000
,  // measure 22
1001
0000
0000
0000
,  // measure 23
0001
0000
0000
0000
,  // measure 24
0100
0000
0000
0000
,  // measure 25
0010
0000
0000
0000
,  // measure 26
0100
0000
0000
0000
,  // measure 27
0001
0000
0000
0000
,  // measure 28
1000
0000
0000
0000
,  // measure 29
1001
0000
0000
0000
,  // measure 30
0110
0000
0000
0000
,  // measure 31
0100
0000
0000
0000
,  // measure 32
0010
0000
1000
0000
,  // measure 33
0001
0000
0000
0000
,  // measure 34
1000
0000
0100
0000
,  // measure 35
1000
0000
0001
0000
,  // measure 36
0010
0000
0001
0000
,  // measure 37
1001
0000
0000
0000
,  // measure 38
0000
0000
0000
0000
,  // measure 39
0110
0000
0000
0000
,  // measure 40
0000
0000
0000
0000
,  // measure 41
1000
0000
0001
0000
,  // measure 42
1000
0000
0001
0000
,  // measure 43
0100
0000
0100
0000
,  // measure 44
0100
0000
0000
0000
,  // measure 45
0010
0000
0100
0000
,  // measure 46
0010
0000
1000
0000
,  // measure 47
0001
0000
0100
0100
,  // measure 48
0100
0000
0000
0000
,  // measure 49
0001
0000
1000
0000
,  // measure 50
0001
0000
1000
0000
,  // measure 51
0100
0000
0010
0010
,  // measure 52
0010
0000
0000
0000
,  // measure 53
0100
0000
0010
0000
,  // measure 54
0001
0000
1000
0000
,  // measure 55
1001
0000
1001
0000
,  // measure 56
1001
0000
0001
0000
,  // measure 57
0100
0000
0001
0000
,  // measure 58
0100
0000
0010
0000
,  // measure 59
0110
0000
0000
0000
;

//---------------dance-single - Oni-91----------------
#NOTES:
     dance-single:
     :
     Easy:
     3:
     0.218124,0.272002,0.082286,0.228574,0.000000,167.000000,158.000000,9.000000,25.000000,0.000000,0.000000,0.218124,0.272002,0.082286,0.228574,0.000000,167.000000,158.000000,9.000000,25.000000,0.000000,0.000000:
// measure 0
0000
0000
0000
0000
,  // measure 1
0000
0000
0000
0000
,  // measure 2
2002
0000
0000
0000
,  // measure 3
0000
0000
0000
3003
,  // measure 4
0220
0000
0000
0000
,  // measure 5
0000
0000
0000
0330
,  // measure 6
0001
1000
0001
0000
,  // measure 7
1000
0100
1000
0000
,  // measure 8
0001
0010
0100
1000
,  // measure 9
0001
0100
0010
0000
,  // measure 10
0100
0100
0010
0010
,  // measure 11
1000
1000
0001
0001
,  // measure 12
1000
0100
0010
0001
,  // measure 13
0100
0000
0010
1000
,  // measure 14
1001
0000
0001
0010
,  // measure 15
0100
0000
0010
0001
,  // measure 16
1000
0010
0100
0001
,  // measure 17
0100
0010
0100
0000
,  // measure 18
0010
0010
1000
1000
,  // measure 19
0001
0001
1000
1000
,  // measure 20
0001
0010
0100
1000
,  // measure 21
0002
1000
2000
3003
,  // measure 22
2000
0000
0000
3000
,  // measure 23
0200
0000
0000
0300
,  // measure 24
0020
0000
0000
0030
,  // measure 25
0002
0000
0000
0003
,  // measure 26
0200
0000
0000
0300
,  // measure 27
0020
0000
0000
0030
,  // measure 28
0200
0000
0000
0300
,  // measure 29
2002
0000
0000
3003
,  // measure 30
1000
0100
1000
0000
,  // measure 31
0001
0100
0001
0000
,  // measure 32
1000
0000
0001
1000
,  // measure 33
0100
0000
0010
0000
,  // measure 34
0100
0010
0100
0000
,  // measure 35
0010
0001
1000
0000
,  // measure 36
0001
1000
0010
0100
,  // measure 37
0220
0000
0000
0000
,  // measure 38
0000
0000
0000
0330
,  // measure 39
2002
0000
0000
3003
,  // measure 40
0001
1000
0001
1000
,  // measure 41
0001
0100
0001
0000
,  // measure 42
1000
0100
1000
0000
,  // measure 43
0001
0010
0100
1000
,  // measure 44
0100
0010
0100
0000
,  // measure 45
0010
0010
0001
0001
,  // measure 46
1000
1000
0001
0001
,  // measure 47
0100
0010
0100
0010
,  // measure 48
1000
0000
0001
0010
,  // measure 49
0001
0001
1000
1000
,  // measure 50
0100
0100
0010
0010
,  // measure 51
0100
1000
0001
0100
,  // measure 52
0010
0000
1000
0010
,  // measure 53
0100
0100
0010
0010
,  // measure 54
1000
0001
1000
0000
,  // measure 55
0220
0330
2002
3003
,  // measure 56
0010
1000
0100
0010
,  // measure 57
0100
1000
0001
0010
,  // measure 58
0100
0010
0001
1000
,  // measure 59
2002
0000
3003
0000
;

//---------------dance-single - Oni-91----------------
#NOTES:
     dance-single:
     :
     Medium:
     5:
     0.309554,0.380803,0.146287,0.301717,0.169144,237.000000,221.000000,16.000000,33.000000,0.000000,0.000000,0.309554,0.380803,0.146287,0.301717,0.169144,237.000000,221.000000,16.000000,33.000000,0.000000,0.000000:
// measure 0
0000
0000
0000
0000
,  // measure 1
0000
0000
0000
0000
,  // measure 2
2002
0000
0000
0000
,  // measure 3
0000
0000
0000
0000
0000
0000
0000
0000
0000
3003
0000
0020
,  // measure 4
0200
0000
0000
0000
,  // measure 5
0000
0000
0000
0330
,  // measure 6
0010
0000
0000
0100
0000
0000
0010
0000
0010
0000
0000
0000
,  // measure 7
1000
0000
0000
0001
0000
0000
1000
0000
1000
0000
0000
0000
,  // measure 8
0001
0000
0000
0010
0000
0000
0100
0000
0100
1000
0000
0000
,  // measure 9
0001
1000
0010
0100
,  // measure 10
0002
0010
0010
0010
,  // measure 11
2003
0100
0100
0100
,  // measure 12
3001
0000
0000
0010
0000
0000
0100
0000
0010
0100
0000
0000
,  // measure 13
2002
0000
3003
0000
,  // measure 14
0010
0000
0000
1000
0000
0000
0001
0000
0001
0000
0000
0000
,  // measure 15
0010
0000
0000
0001
0000
0000
1000
0000
1000
0000
0000
0000
,  // measure 16
0010
0000
0000
1000
0000
0000
0001
0000
0001
0010
0000
0000
,  // measure 17
0100
0010
0001
1000
,  // measure 18
2000
0001
0010
0010
,  // measure 19
3002
0010
0100
0100
,  // measure 20
0103
0000
0000
0010
0000
0000
0100
0000
0010
0100
0000
0000
,  // measure 21
2002
0000
3003
0010
,  // measure 22
2001
0000
0000
0001
0000
0000
0001
0000
0000
3001
0000
0001
,  // measure 23
0200
0000
0000
0010
0000
0000
0010
0000
0000
0310
0000
0010
,  // measure 24
2000
0000
0000
0100
0000
0000
0100
0000
0000
3100
0000
1000
,  // measure 25
0200
0000
0000
0010
0000
0000
0010
0000
0000
0310
0000
0010
,  // measure 26
0002
0000
0000
0010
0000
0000
0010
0000
0000
0013
0000
0010
,  // measure 27
0200
0000
0000
1000
0000
0000
1000
0000
0000
1300
0000
1000
,  // measure 28
0002
0000
0000
1000
0000
0000
1000
0000
0000
1003
0000
1000
,  // measure 29
0100
0000
1000
0000
0000
1100
0000
0000
1001
0000
0000
0000
,  // measure 30
0001
0100
1000
0100
,  // measure 31
0001
0000
0000
1000
0000
0100
0000
0000
0000
0010
0000
0000
,  // measure 32
0001
0000
0000
1000
0000
0000
0100
0000
1000
0100
0000
0000
,  // measure 33
1000
0001
0100
0010
,  // measure 34
2000
0000
3010
0100
,  // measure 35
0002
0000
0013
0100
,  // measure 36
0010
0001
1000
0010
,  // measure 37
0220
0000
0000
0000
,  // measure 38
0000
0000
0000
0000
0000
0000
0000
0000
0000
0330
0000
0020
,  // measure 39
0200
0000
0000
0330
,  // measure 40
0010
0000
0010
0100
0000
0100
0001
0000
0001
1000
0000
1000
,  // measure 41
0001
0000
0000
1000
0000
0000
0100
0000
1000
0100
0000
0000
,  // measure 42
1000
0000
0000
0001
0000
0000
0010
0000
0001
0010
0000
0000
,  // measure 43
0001
0000
0000
0100
0000
0000
0010
0000
1000
0001
0000
0000
,  // measure 44
2000
0010
0002
3003
,  // measure 45
1000
0100
0010
0100
,  // measure 46
1000
0010
0100
0010
,  // measure 47
1000
0000
0000
0010
0000
0000
0100
0000
0001
0100
0000
0000
,  // measure 48
0001
1000
0100
1000
,  // measure 49
1001
0000
0000
0001
0000
0000
0100
0000
0000
0010
0000
0100
,  // measure 50
0001
0000
0000
0001
0000
0000
0010
0000
0000
0100
0000
0010
,  // measure 51
0001
0000
0000
0001
0000
0000
1000
0000
0001
1000
0000
0000
,  // measure 52
0001
0100
0010
1000
,  // measure 53
1001
0001
0010
0100
,  // measure 54
0110
0010
0001
1000
,  // measure 55
2002
3003
0220
0330
,  // measure 56
1001
0000
0000
0001
0000
0000
0100
0000
0000
0010
0000
1000
,  // measure 57
0010
0000
0000
1000
0000
0000
0100
0000
0000
0010
0000
0011
,  // measure 58
0000
0000
0000
0001
0000
0101
0000
0000
0000
0100
0000
0220
,  // measure 59
0000
0000
0330
0000
;
