#TITLE:The Pretender;
#SUBTITLE:;
#ARTIST:Foo Fighters;
#TITLETRANSLIT:;
#SUBTITLETRANSLIT:;
#ARTISTTRANSLIT:;
#GENRE:;
#CREDIT:;
#BANNER:The Pretender.png;
#BACKGROUND:The Pretender-bg.png;
#LYRICSPATH:;
#CDTITLE:;
#MUSIC:The Pretender.mp3;
#OFFSET:-2.800000;
#SAMPLESTART:49.930000;
#SAMPLELENGTH:11.090000;
#SELECTABLE:YES;
#BPMS:0.000000=173.000000
,208.000000=86.500000
,224.000000=173.000000
;
#STOPS:
;
#BGCHANGES:;
#KEYSOUNDS:;
#ATTACKS:;

//---------------dance-single - Oni-91----------------
#NOTES:
     dance-single:
     :
     Hard:
     8:
     0.528488,0.623872,0.275230,0.307610,0.000000,457.000000,423.000000,34.000000,38.000000,0.000000,0.000000,0.528488,0.623872,0.275230,0.307610,0.000000,457.000000,423.000000,34.000000,38.000000,0.000000,0.000000:
// measure 0
2000
0002
0000
0000
3003
0000
0001
0100
,  // measure 1
0002
0200
0000
0000
0000
0000
0303
0000
,  // measure 2
0002
2000
0000
0000
3003
0000
1000
0100
,  // measure 3
2000
0200
0000
0000
0000
0000
3300
0000
,  // measure 4
0020
0002
0000
0000
0033
0000
0001
0100
,  // measure 5
0020
2000
0000
0000
0000
0000
3030
0000
,  // measure 6
0002
0200
0000
0000
0303
0000
0001
0010
,  // measure 7
0200
2000
0000
0000
0000
0000
3300
0000
,  // measure 8
2000
0002
0000
0000
3003
0000
1000
0001
,  // measure 9
1000
0001
0100
0000
0010
0000
1000
0000
,  // measure 10
0002
0020
0000
0000
0033
0000
1000
0100
,  // measure 11
1000
0100
0010
0000
0100
0000
1000
0000
,  // measure 12
0002
0200
0000
0000
0303
0000
0001
0100
,  // measure 13
0010
0100
0010
0000
1000
0000
0001
0000
,  // measure 14
1000
0001
1000
0000
0001
0000
1000
0001
,  // measure 15
1000
0001
1000
0000
0010
0000
0110
0000
,  // measure 16
1001
0000
1000
0000
0100
0000
0010
0001
,  // measure 17
0010
0001
0010
0000
0100
0000
0010
0000
,  // measure 18
0001
1000
0001
0000
1000
0000
0010
1000
,  // measure 19
0010
1000
0010
0000
0100
0000
0001
0000
,  // measure 20
1000
0100
0010
0000
0100
0000
0010
0001
,  // measure 21
0010
0001
0100
0000
0001
1000
0001
0000
,  // measure 22
1000
0010
0100
0000
0010
0000
0100
0001
,  // measure 23
0100
0010
1000
0000
0011
0000
1100
0000
,  // measure 24
1001
0000
0001
0000
0100
0000
0001
0100
,  // measure 25
0010
1000
0010
0000
1000
0000
0100
0000
,  // measure 26
0010
0001
0010
0000
0001
0000
1000
0100
,  // measure 27
0010
0001
0100
0000
0010
0100
0001
0000
,  // measure 28
1001
1000
1100
0100
,  // measure 29
0101
0001
0011
0010
,  // measure 30
1010
0000
1000
0001
1000
0000
0001
0010
,  // measure 31
0001
0000
1000
0100
1000
0000
0110
0000
,  // measure 32
1002
0000
0000
0100
0203
0000
0000
0010
,  // measure 33
0320
1030
2002
3003
,  // measure 34
0001
0100
0001
0000
0100
0000
0010
1000
,  // measure 35
0000
0001
0000
1000
0100
0000
0010
0000
,  // measure 36
0100
0010
0001
0000
0100
0000
0010
1000
,  // measure 37
0000
0001
0010
0001
1000
0000
1100
0000
,  // measure 38
0001
0010
0100
0000
0010
0000
0001
1000
,  // measure 39
0010
0100
0001
0100
0000
0100
0001
0000
,  // measure 40
1000
0100
0010
0000
0100
0000
0010
0100
,  // measure 41
0010
0001
0100
0010
0000
0010
1010
0000
,  // measure 42
0001
0100
0001
0000
1000
0000
0100
0010
,  // measure 43
0000
0100
1000
0001
0100
0000
0001
0000
,  // measure 44
1000
0001
0010
0000
0100
0000
0010
0001
,  // measure 45
0000
0100
1000
0100
0010
0000
0110
0000
,  // measure 46
1001
0000
1000
0000
0010
0000
0100
0001
,  // measure 47
0100
1000
0100
0010
0000
0010
1000
0000
,  // measure 48
0001
0010
0100
0000
0010
0000
0001
0100
,  // measure 49
0010
1000
0100
0010
0000
0100
0110
0000
,  // measure 50
0010
0100
0010
0001
1000
0100
0010
0001
,  // measure 51
0100
0010
1000
0001
1000
0100
1000
0002
,  // measure 52
0200
0000
0000
0000
,  // measure 53
0003
0001
0000
0001
0000
0010
0000
0020
,  // measure 54
0000
0000
0000
0000
0000
0300
1000
2000
,  // measure 55
0000
0000
0000
3030
,  // measure 56
1001
0000
0110
0000
1001
0000
1000
0100
,  // measure 57
0000
0100
1000
0001
0100
0001
0100
0000
,  // measure 58
0011
0000
1100
0000
0011
0000
0001
0010
,  // measure 59
0000
0100
1000
0100
0010
0000
0110
0000
,  // measure 60
1000
0001
1000
0000
0001
0000
0100
0000
,  // measure 61
0010
0100
0010
1000
0000
1000
0001
0000
,  // measure 62
1000
0100
0010
0100
1000
0000
0001
0100
,  // measure 63
0001
2000
3010
1000
0002
0103
0010
1000
,  // measure 64
0001
1000
0100
0010
0100
0000
1000
0001
,  // measure 65
0000
0100
0010
0100
0001
1000
0001
0000
,  // measure 66
0010
0001
0100
0010
0100
0000
0010
1000
,  // measure 67
0000
0001
0010
0100
0010
0001
1001
0000
,  // measure 68
1000
0001
1000
0001
0100
0000
0010
0100
,  // measure 69
0001
1000
0100
0010
0000
0010
0001
0000
,  // measure 70
0010
0001
0100
0010
1000
0000
0100
1000
,  // measure 71
0001
1000
0010
0100
0000
0100
0001
0000
,  // measure 72
2001
0001
0100
0100
,  // measure 73
0010
0010
0001
3001
,  // measure 74
1000
0100
1000
0100
0010
0001
0100
0210
,  // measure 75
0000
0310
0100
0001
0010
0100
0010
0000
,  // measure 76
0001
0010
0001
1000
0100
1000
0010
0210
,  // measure 77
0000
0301
1000
0100
0010
0100
1000
0000
,  // measure 78
0001
0100
1000
0100
0001
0100
1000
0100
,  // measure 79
0001
0010
1000
0010
0001
0010
0110
0000
,  // measure 80
1001
2002
0000
0000
3003
0000
0001
1000
,  // measure 81
1001
1001
0000
0000
0000
0000
0000
0000
;

//---------------dance-single - Oni-91----------------
#NOTES:
     dance-single:
     :
     Medium:
     6:
     0.374683,0.426860,0.169995,0.566650,0.000000,324.000000,303.000000,21.000000,70.000000,0.000000,0.000000,0.374683,0.426860,0.169995,0.566650,0.000000,324.000000,303.000000,21.000000,70.000000,0.000000,0.000000:
// measure 0
2000
0002
0000
0000
3003
0000
0001
0000
,  // measure 1
2000
0002
0000
0000
3003
0000
0000
0000
,  // measure 2
0002
2000
0000
0000
3003
0000
1000
0000
,  // measure 3
0002
2000
0000
0000
3003
0000
0000
0000
,  // measure 4
0020
0200
0000
0000
0330
0000
0100
0000
,  // measure 5
0020
0200
0000
0000
0330
0000
0000
0000
,  // measure 6
0200
0020
0000
0000
0330
0000
0010
0000
,  // measure 7
0200
0020
0000
0000
0330
0000
0000
0000
,  // measure 8
2000
0002
0000
0000
0003
0000
3001
0000
,  // measure 9
0002
2000
3000
0000
1000
0000
1003
0000
,  // measure 10
0200
0020
0000
0000
0030
0000
0310
0000
,  // measure 11
0020
0200
0300
0000
0100
0000
0130
0000
,  // measure 12
0002
0200
0000
0000
0300
0000
0103
0000
,  // measure 13
2000
0020
0030
0000
0010
0000
3010
0000
,  // measure 14
0002
0020
0000
0000
0030
0000
0013
0000
,  // measure 15
0200
2000
3300
0000
1100
0000
1001
0000
,  // measure 16
0001
0100
0001
1000
,  // measure 17
0100
1000
0100
0000
1000
0000
0000
0000
,  // measure 18
0001
1000
0100
0010
,  // measure 19
0100
0010
0100
0000
0010
0000
0001
0000
,  // measure 20
0200
0000
0310
0100
,  // measure 21
0001
0100
0001
0000
1000
0000
0100
0000
,  // measure 22
2000
0000
3001
0010
,  // measure 23
0100
1000
0100
0000
0010
0000
0110
0000
,  // measure 24
1001
0000
0001
1000
0100
0000
0010
0000
,  // measure 25
0001
0010
0100
0010
,  // measure 26
0001
0000
1000
0010
0100
0000
0001
0000
,  // measure 27
0100
0001
1000
0100
,  // measure 28
0020
0000
0032
0000
,  // measure 29
0203
0000
0320
0000
,  // measure 30
2030
0000
3200
0000
,  // measure 31
0320
0000
0032
0003
,  // measure 32
0022
0033
2200
3300
,  // measure 33
2020
3030
0202
0303
,  // measure 34
1000
0000
0001
0000
1000
0000
0001
0100
,  // measure 35
0000
0100
0001
0000
1000
0000
0100
0000
,  // measure 36
0010
0000
0100
0000
0010
0000
0100
1000
,  // measure 37
0000
1000
0001
0000
1000
0000
0010
0000
,  // measure 38
0102
1000
0200
0303
,  // measure 39
0001
0000
1000
0100
0000
0100
1000
0000
,  // measure 40
0012
0010
0013
0001
,  // measure 41
1000
0000
0100
1000
0000
1000
0001
0000
,  // measure 42
1000
0000
0010
0000
0100
0000
0001
0100
,  // measure 43
0000
0100
0001
0000
1000
0000
0100
0000
,  // measure 44
0010
0000
0100
0000
0010
0000
0001
0010
,  // measure 45
0000
0010
0001
0000
1000
0000
0010
0000
,  // measure 46
0100
0010
0100
0000
0020
0000
0030
0000
,  // measure 47
0100
0000
0001
1000
0000
1000
0001
0000
,  // measure 48
1000
0100
1000
0000
0001
0000
0010
0000
,  // measure 49
0001
0000
1000
0001
0000
0001
1000
0000
,  // measure 50
2001
0000
3020
0000
,  // measure 51
0230
0000
0002
0303
,  // measure 52
2002
0000
0000
0000
0000
0000
0000
3000
,  // measure 53
0000
1000
0000
1000
0000
1000
0000
2000
,  // measure 54
0000
0000
0000
0000
0000
0003
0001
0002
,  // measure 55
0000
0000
0000
3003
,  // measure 56
1002
0000
0010
0000
1003
0000
0001
0100
,  // measure 57
0000
0100
0001
0000
1000
0000
0100
0000
,  // measure 58
0210
0000
1000
0000
0310
0000
0010
0001
,  // measure 59
0000
0001
1000
0000
0001
0000
0100
0000
,  // measure 60
0001
1000
0001
0000
0200
0000
0300
0000
,  // measure 61
0010
0000
0100
0001
0000
0001
0100
0000
,  // measure 62
0010
1000
0100
0010
,  // measure 63
0110
0000
0000
1001
0000
0000
1001
0000
,  // measure 64
0012
0000
1000
0000
0103
0000
0001
1000
,  // measure 65
0000
1000
0001
0000
0100
0000
0010
0000
,  // measure 66
0210
0000
0001
0000
0310
0000
0010
1000
,  // measure 67
0000
1000
0001
0000
1000
0000
1100
0000
,  // measure 68
1000
0100
1000
0000
0002
0000
0003
0000
,  // measure 69
1000
0000
0001
1000
0000
1000
0001
0000
,  // measure 70
0100
0010
1000
0100
,  // measure 71
0010
0000
0100
1000
0000
1000
0001
0000
,  // measure 72
2010
0010
0001
0001
,  // measure 73
0100
0100
0001
3001
,  // measure 74
1000
0000
0010
0000
0100
0000
0001
0100
,  // measure 75
0000
0100
0001
0000
1000
0000
0100
0000
,  // measure 76
0010
0000
0100
0000
1000
0000
0001
0010
,  // measure 77
0000
0010
0001
0000
1000
0000
0100
0000
,  // measure 78
0010
0100
1000
0100
,  // measure 79
0001
0100
1000
0100
,  // measure 80
0100
0200
0000
0000
0300
0000
0010
0000
,  // measure 81
0001
0001
0000
0000
0000
0000
0000
0000
;

//---------------dance-single - Oni-91----------------
#NOTES:
     dance-single:
     :
     Easy:
     4:
     0.287951,0.328860,0.161900,0.404750,0.000000,249.000000,229.000000,20.000000,50.000000,0.000000,0.000000,0.287951,0.328860,0.161900,0.404750,0.000000,249.000000,229.000000,20.000000,50.000000,0.000000,0.000000:
// measure 0
2002
0000
0003
0001
,  // measure 1
0002
0000
3003
0000
,  // measure 2
0220
0000
0030
0010
,  // measure 3
0020
0000
0330
0000
,  // measure 4
2002
0000
3000
1000
,  // measure 5
2000
0000
3003
0000
,  // measure 6
0220
0000
0030
0010
,  // measure 7
0020
0000
0330
0000
,  // measure 8
2002
0000
3003
0002
,  // measure 9
0200
0000
0303
0000
,  // measure 10
0220
0000
0330
0020
,  // measure 11
2000
0000
3030
0000
,  // measure 12
2002
0000
3003
2000
,  // measure 13
0200
0000
3300
0000
,  // measure 14
0220
0000
0330
0020
,  // measure 15
0002
0033
0001
1000
,  // measure 16
1001
0000
0001
0100
,  // measure 17
0001
0000
1000
0000
,  // measure 18
0001
0000
1000
0100
,  // measure 19
1000
0100
0010
0000
,  // measure 20
0100
0000
1000
0001
,  // measure 21
1000
0000
0010
0100
,  // measure 22
0010
0000
0100
0001
,  // measure 23
0100
0001
1000
0001
,  // measure 24
1001
0000
1000
0100
,  // measure 25
0010
0100
1000
0000
,  // measure 26
0001
0100
0010
0100
,  // measure 27
0001
1000
0001
0000
,  // measure 28
2000
3000
0200
0300
,  // measure 29
0020
0030
0002
0003
,  // measure 30
2000
3000
0020
0030
,  // measure 31
0200
0300
0002
0003
,  // measure 32
1001
0000
0110
0000
,  // measure 33
1001
0000
0110
0000
,  // measure 34
0010
0100
0010
0100
,  // measure 35
0001
0100
0001
0000
,  // measure 36
1000
0001
1000
0001
,  // measure 37
1000
0100
0010
0100
,  // measure 38
1000
0001
1000
0000
,  // measure 39
0001
0100
0001
0000
,  // measure 40
1000
0010
0100
0001
,  // measure 41
0010
0100
1000
0000
,  // measure 42
0001
0010
0001
0010
,  // measure 43
0100
1000
0100
0000
,  // measure 44
1000
0010
1000
0010
,  // measure 45
0100
0001
0100
0001
,  // measure 46
0000
0001
1000
0100
,  // measure 47
0010
0100
1000
0000
,  // measure 48
0001
1000
0001
1000
,  // measure 49
0010
0100
0010
0100
,  // measure 50
0120
0000
1000
0000
,  // measure 51
0100
0000
0001
0000
,  // measure 52
0200
0000
0000
0000
,  // measure 53
0000
0000
0030
0010
0000
0010
0000
0002
,  // measure 54
0000
0000
0000
0000
0000
0300
1000
2000
,  // measure 55
0000
0000
0000
3003
,  // measure 56
1001
0001
0100
0010
,  // measure 57
0100
0001
1000
0000
,  // measure 58
0001
0010
0100
1000
,  // measure 59
0100
0010
0100
1000
,  // measure 60
0001
0001
0001
0000
,  // measure 61
0100
0001
0010
0100
,  // measure 62
1000
0001
1000
0100
,  // measure 63
0220
0000
0000
0330
,  // measure 64
0010
1000
0010
0100
,  // measure 65
0001
1000
0001
0000
,  // measure 66
1000
0100
0010
0001
,  // measure 67
0010
0001
0100
0010
,  // measure 68
0100
0001
1000
0000
,  // measure 69
0001
0010
0001
0000
,  // measure 70
1000
0100
0001
0100
,  // measure 71
1000
0010
0100
0001
,  // measure 72
2000
3000
0200
0300
,  // measure 73
0020
0030
0002
0003
,  // measure 74
1000
0001
1000
0001
,  // measure 75
0100
0010
0100
0010
,  // measure 76
1000
0001
1000
0001
,  // measure 77
0010
0100
0010
0100
,  // measure 78
0010
0001
0100
1000
,  // measure 79
0100
0001
1000
0001
,  // measure 80
2002
3003
0000
0110
,  // measure 81
0220
0330
0000
0000
;

//---------------dance-single - Oni-91----------------
#NOTES:
     dance-single:
     :
     Beginner:
     2:
     0.174621,0.295063,0.113330,0.000000,0.000000,151.000000,137.000000,14.000000,0.000000,0.000000,0.000000,0.174621,0.295063,0.113330,0.000000,0.000000,151.000000,137.000000,14.000000,0.000000,0.000000,0.000000:
// measure 0
1001
0000
0000
0000
,  // measure 1
0001
0000
0000
0000
,  // measure 2
0100
0000
0000
0000
,  // measure 3
0010
0000
0000
0000
,  // measure 4
0110
0000
0000
0000
,  // measure 5
0100
0000
0000
0000
,  // measure 6
0001
0000
0000
0000
,  // measure 7
1000
0000
0000
0000
,  // measure 8
1001
0000
0000
0000
,  // measure 9
0001
0000
0000
0000
,  // measure 10
0010
0000
0000
0000
,  // measure 11
0100
0000
0000
0000
,  // measure 12
0110
0000
0000
0000
,  // measure 13
0010
0000
0000
0000
,  // measure 14
0001
0000
0000
0000
,  // measure 15
1000
0000
0001
0000
,  // measure 16
1001
0000
0000
0000
,  // measure 17
1000
0000
0001
0000
,  // measure 18
1000
0000
0000
0000
,  // measure 19
0100
0000
0010
0000
,  // measure 20
0100
0000
0000
0000
,  // measure 21
0010
0000
0001
0000
,  // measure 22
1000
0000
0000
0000
,  // measure 23
0001
0000
1000
0000
,  // measure 24
0001
0000
0000
0000
,  // measure 25
1001
0000
0000
0000
,  // measure 26
1000
0000
0010
0000
,  // measure 27
1000
0000
0000
0000
,  // measure 28
0001
0000
1000
0000
,  // measure 29
0001
0000
1000
0000
,  // measure 30
0001
0000
0010
0000
,  // measure 31
0001
0000
0010
0000
,  // measure 32
0100
0000
1000
0000
,  // measure 33
0100
0000
0010
0000
,  // measure 34
0100
0100
0100
0000
,  // measure 35
0010
0000
0100
0000
,  // measure 36
1000
1000
1000
0000
,  // measure 37
0001
0000
1000
0000
,  // measure 38
1001
0000
0000
0000
,  // measure 39
0001
0000
0000
0000
,  // measure 40
1000
0000
0100
0000
,  // measure 41
1000
0000
0100
0000
,  // measure 42
0010
0010
0010
0000
,  // measure 43
0100
0000
1000
0000
,  // measure 44
0001
0001
0001
0000
,  // measure 45
1000
0000
0001
0000
,  // measure 46
1001
0000
0000
0000
,  // measure 47
1000
0000
0000
0000
,  // measure 48
0001
0000
0100
0000
,  // measure 49
0001
0000
0100
0000
,  // measure 50
0010
0000
0010
0000
,  // measure 51
1000
0000
1000
0000
,  // measure 52
1001
0000
0000
0000
,  // measure 53
0000
0000
0000
0000
,  // measure 54
0000
0000
0000
0000
,  // measure 55
0000
0000
0000
0000
,  // measure 56
1000
1000
1000
0000
,  // measure 57
0100
0000
0010
0000
,  // measure 58
0100
0100
0100
0000
,  // measure 59
0010
0000
0001
0000
,  // measure 60
1000
1000
1000
0000
,  // measure 61
0001
0000
1000
0000
,  // measure 62
0010
0010
0010
0000
,  // measure 63
0110
0000
0000
0000
,  // measure 64
0001
0000
1000
0000
,  // measure 65
0100
0000
0010
0000
,  // measure 66
0100
0000
0010
0000
,  // measure 67
0001
0000
0100
0000
,  // measure 68
1000
0000
0100
0000
,  // measure 69
0001
0000
1000
0000
,  // measure 70
0001
0000
1000
0000
,  // measure 71
0100
0000
0010
0000
,  // measure 72
0001
0000
1000
0000
,  // measure 73
0001
0000
0100
0000
,  // measure 74
0110
0000
0000
0000
,  // measure 75
0010
0000
1000
0000
,  // measure 76
0001
0000
0000
0000
,  // measure 77
1000
0000
0001
0000
,  // measure 78
0010
0010
0010
0000
,  // measure 79
0100
0100
0100
0000
,  // measure 80
0110
0000
0000
1001
,  // measure 81
1001
0000
0000
0000
;
