#TITLE:The Fiddler On The Deck;
#SUBTITLE:;
#ARTIST:Santiano;
#TITLETRANSLIT:;
#SUBTITLETRANSLIT:;
#ARTISTTRANSLIT:;
#GENRE:;
#CREDIT:;
#BANNER:The Fiddler On The Deck.png;
#BACKGROUND:The Fiddler On The Deck-bg.png;
#LYRICSPATH:;
#CDTITLE:;
#MUSIC:The Fiddler On The Deck.mp3;
#OFFSET:-6.190000;
#SAMPLESTART:36.639999;
#SAMPLELENGTH:14.650000;
#SELECTABLE:YES;
#BPMS:0.000000=131.000000
;
#STOPS:
;
#BGCHANGES:;
#KEYSOUNDS:;
#ATTACKS:;

//---------------dance-single - Oni-91----------------
#NOTES:
     dance-single:
     :
     Hard:
     7:
     0.434751,0.462608,0.228448,0.106065,0.456897,373.000000,345.000000,28.000000,13.000000,0.000000,0.000000,0.434751,0.462608,0.228448,0.106065,0.456897,373.000000,345.000000,28.000000,13.000000,0.000000,0.000000:
// measure 0
0000
0000
0000
0100
,  // measure 1
0001
0000
0010
0001
0000
0001
0100
0000
0000
0001
0000
0000
,  // measure 2
1000
0000
0000
0010
0000
1000
0100
0000
0000
0010
0000
0001
,  // measure 3
1000
0000
0000
0010
0000
1000
0001
0000
0000
0100
0000
0001
,  // measure 4
1000
0010
0001
0010
,  // measure 5
1001
0000
0000
0100
0000
0001
1000
0000
0000
0001
0000
0000
,  // measure 6
1000
0000
0100
0010
0000
0100
1000
0000
0000
0001
0000
0100
,  // measure 7
0010
0000
0000
1000
0000
0100
0010
0000
0000
0001
0000
1000
,  // measure 8
0002
0000
0000
0010
0000
0000
1000
0000
0000
0103
0000
0001
,  // measure 9
1000
0000
1000
0100
0000
0100
0001
0000
0000
0110
0000
0000
,  // measure 10
0010
0000
0001
0100
0000
0010
1000
0000
0000
0001
0000
1000
,  // measure 11
0200
0000
0000
0001
0000
0001
0000
0000
0000
1300
0000
1000
,  // measure 12
0100
0000
0000
0010
0000
0000
0001
0000
0001
1000
0000
0000
,  // measure 13
0101
0000
0010
1000
0000
0001
0100
0000
0000
0011
0000
0000
,  // measure 14
1000
0000
0100
1000
0000
0001
0100
0000
0000
0010
0000
1000
,  // measure 15
0100
0000
0000
0001
0000
0010
0001
0000
0000
1000
0000
0010
,  // measure 16
1000
0000
0000
0001
0000
1000
0100
0010
0100
0010
0100
0010
,  // measure 17
0001
0000
0000
1001
0000
0000
1000
0000
0000
1010
0000
0010
,  // measure 18
0100
0000
0010
0100
0000
0010
1000
0000
0000
0001
0000
0010
,  // measure 19
0001
0000
0000
1000
0000
0001
1000
0000
0000
0001
0000
0010
,  // measure 20
0100
0000
0010
0100
0000
0010
0001
0000
0000
1001
0000
0000
,  // measure 21
0101
0000
0000
1010
0000
0010
1000
0000
0000
0001
0000
0010
,  // measure 22
0100
0000
0010
0001
0000
0010
0100
0000
0000
1000
0000
0001
,  // measure 23
0100
0000
0000
0010
0000
1000
0001
0000
0000
1000
0000
0001
,  // measure 24
0010
0000
0001
1000
0000
0001
0010
0000
0000
0100
0000
1000
,  // measure 25
0002
0023
0230
2300
,  // measure 26
0002
0000
0000
0000
,  // measure 27
3003
0000
0000
0000
,  // measure 28
0001
0000
0000
0101
0000
0000
0100
0000
0001
0100
0000
0000
,  // measure 29
0010
0000
0000
1010
0000
0000
1000
0000
0100
1000
0000
0000
,  // measure 30
0100
0000
0000
0011
0000
0000
0100
0000
1000
0001
0000
0000
,  // measure 31
1000
0001
1000
0001
0000
0100
0010
0000
0000
0110
0000
0000
,  // measure 32
0010
0000
1000
0001
0000
0001
1000
0000
0000
0010
0000
0000
,  // measure 33
0001
0000
0000
0100
0000
0010
2000
0000
0000
3001
0000
0010
,  // measure 34
0001
0000
0000
1000
0000
0010
1000
0000
0000
0001
0000
0100
,  // measure 35
0001
1000
0010
0100
,  // measure 36
1001
0000
0001
0100
0000
0001
0100
0000
0000
0001
0000
0000
,  // measure 37
1000
0000
0000
0100
0000
0010
0100
0000
0000
0010
0000
0001
,  // measure 38
1000
0000
0000
0010
0000
1000
0001
0000
0000
1000
0000
0100
,  // measure 39
0010
0001
0100
1010
,  // measure 40
0100
0000
0001
1000
0000
0100
0010
0000
0000
0001
0000
0100
,  // measure 41
0010
0000
1000
0100
0000
0010
0001
0000
0000
1000
0000
0001
,  // measure 42
0200
0000
0000
1000
0000
1000
0000
0000
0000
0301
0000
0001
,  // measure 43
0100
0001
1000
1100
,  // measure 44
1001
0000
0001
1000
0000
1000
0001
0000
0000
0010
0000
0100
,  // measure 45
0010
0000
0100
1000
0000
0001
1000
0000
0000
0001
0000
0100
,  // measure 46
0001
0000
0000
1000
0000
0010
1000
0000
0000
0001
0000
1000
,  // measure 47
0100
0000
0000
0010
0000
0000
0001
0010
0001
1000
0010
1000
,  // measure 48
0001
0101
1000
1100
,  // measure 49
0001
0000
1000
0100
0000
1000
0001
0000
0000
0100
0010
0100
,  // measure 50
0010
0000
0000
1000
0000
0001
1000
0000
0000
0001
0000
0010
,  // measure 51
0001
0000
0001
0100
0000
0100
0010
0000
0000
1000
0000
0000
,  // measure 52
1001
0100
1001
0010
,  // measure 53
0001
0000
1000
0001
0000
1000
0001
0000
0000
0100
0010
0100
,  // measure 54
0010
0000
0000
1000
0000
0010
0100
0000
0000
0001
0000
0010
,  // measure 55
0100
0000
0010
0001
0000
0001
1000
0000
0000
0001
0000
0000
,  // measure 56
0101
1010
1100
0011
,  // measure 57
2002
0000
0000
0000
,  // measure 58
3003
0000
0000
0000
,  // measure 59
0001
0000
0000
0100
0000
0000
0001
0000
0001
1000
0000
0000
,  // measure 60
0100
0000
0000
0010
0000
0000
0001
0010
0001
0010
0000
0000
,  // measure 61
0001
0000
0000
1001
0000
0000
1000
0000
0010
0100
0000
0010
,  // measure 62
1000
0000
0000
0001
1000
0001
1000
0000
0000
0220
0000
0000
,  // measure 63
0330
0000
0000
0000
;

//---------------dance-single - Oni-91----------------
#NOTES:
     dance-single:
     :
     Beginner:
     1:
     0.134039,0.179189,0.081589,0.000000,0.000000,115.000000,105.000000,10.000000,0.000000,0.000000,0.000000,0.134039,0.179189,0.081589,0.000000,0.000000,115.000000,105.000000,10.000000,0.000000,0.000000,0.000000:
// measure 0
0000
0000
0000
0000
,  // measure 1
1001
0000
0000
0000
,  // measure 2
0001
0000
1000
0000
,  // measure 3
0100
0000
0100
0000
,  // measure 4
0100
0000
0000
0000
,  // measure 5
0110
0000
0000
0000
,  // measure 6
0010
0000
0001
0000
,  // measure 7
1000
0000
1000
0000
,  // measure 8
1000
0000
0000
0000
,  // measure 9
0001
0000
0000
0000
,  // measure 10
1000
0000
0001
0000
,  // measure 11
0100
0000
0010
0000
,  // measure 12
0100
0000
0000
0000
,  // measure 13
1001
0000
0000
0000
,  // measure 14
0001
0000
0000
0000
,  // measure 15
1000
0000
1000
0000
,  // measure 16
1000
0000
0000
0000
,  // measure 17
0001
0000
0010
0000
,  // measure 18
0001
0000
1000
0000
,  // measure 19
0100
0000
1000
0000
,  // measure 20
0001
0000
0100
0000
,  // measure 21
0010
0000
1000
0000
,  // measure 22
0100
0000
0010
0000
,  // measure 23
0001
0000
0010
0000
,  // measure 24
0100
0000
0010
0000
,  // measure 25
0001
0001
0001
0001
,  // measure 26
0001
0000
0000
0000
,  // measure 27
1001
0000
0000
0000
,  // measure 28
1000
0000
0000
0000
,  // measure 29
0001
0000
0100
0000
,  // measure 30
0001
0000
0000
0000
,  // measure 31
1000
0000
0001
0000
,  // measure 32
1001
0000
0000
0000
,  // measure 33
0100
0000
0010
0000
,  // measure 34
1000
0000
1000
0000
,  // measure 35
1000
0000
0000
0000
,  // measure 36
1001
0000
0000
0000
,  // measure 37
0001
0000
0010
0000
,  // measure 38
0100
0000
0100
0000
,  // measure 39
0100
0000
0000
0000
,  // measure 40
0010
0000
0000
0000
,  // measure 41
0001
0000
0000
0000
,  // measure 42
1000
0000
0001
0000
,  // measure 43
1000
0000
0000
0000
,  // measure 44
1001
0000
0000
0000
,  // measure 45
0010
0000
1000
0000
,  // measure 46
0001
0000
0001
0000
,  // measure 47
0001
0000
0000
0000
,  // measure 48
1000
0000
0001
0000
,  // measure 49
1000
0000
0001
0000
,  // measure 50
0100
0000
0010
0000
,  // measure 51
0100
0000
0010
0000
,  // measure 52
1000
0000
0100
0000
,  // measure 53
0010
0000
0001
0000
,  // measure 54
0100
0000
0010
0000
,  // measure 55
1000
0000
0001
0000
,  // measure 56
0100
0100
0100
0100
,  // measure 57
0100
0000
0000
0000
,  // measure 58
0110
0000
0000
0000
,  // measure 59
1001
0000
0001
0000
,  // measure 60
1000
0000
0001
0000
,  // measure 61
0010
0000
0100
0000
,  // measure 62
0010
0000
0001
1001
;

//---------------dance-single - Oni-91----------------
#NOTES:
     dance-single:
     :
     Easy:
     3:
     0.199310,0.257004,0.106065,0.212131,0.000000,171.000000,158.000000,13.000000,26.000000,0.000000,0.000000,0.199310,0.257004,0.106065,0.212131,0.000000,171.000000,158.000000,13.000000,26.000000,0.000000,0.000000:
// measure 0
0000
0000
0000
0000
,  // measure 1
1000
0001
0100
0000
,  // measure 2
0001
1000
0100
1000
,  // measure 3
0002
0000
0023
0000
,  // measure 4
0230
0000
0300
0000
,  // measure 5
0010
0001
1000
0000
,  // measure 6
0001
1000
0010
0000
,  // measure 7
2000
0000
3002
0000
,  // measure 8
0203
0000
0300
0000
,  // measure 9
0010
0100
0010
0000
,  // measure 10
1000
0001
1000
0000
,  // measure 11
0001
0000
1000
0000
,  // measure 12
0200
0000
0300
0000
,  // measure 13
0010
0001
0010
0000
,  // measure 14
0100
1000
0100
0000
,  // measure 15
2000
0000
3002
0000
,  // measure 16
2003
0000
3000
0000
,  // measure 17
1001
0000
0110
0000
,  // measure 18
0001
1000
0001
0000
,  // measure 19
1000
0001
0100
0010
,  // measure 20
1000
0100
0010
0000
,  // measure 21
0110
0000
1001
0000
,  // measure 22
1000
0001
1000
0000
,  // measure 23
0001
0100
0010
1000
,  // measure 24
0010
0100
0001
0000
,  // measure 25
1000
0100
0010
0001
,  // measure 26
2002
0000
0000
0000
,  // measure 27
3003
0000
0000
0000
,  // measure 28
1001
0000
0001
0100
,  // measure 29
0001
0000
1000
0000
,  // measure 30
0001
0000
1000
0100
,  // measure 31
1000
0001
0010
0000
,  // measure 32
0100
0010
0100
0000
,  // measure 33
0010
0001
0010
0000
,  // measure 34
0002
0000
2003
0000
,  // measure 35
3002
0000
0003
0000
,  // measure 36
0100
0010
0100
0000
,  // measure 37
0010
1000
0001
0000
,  // measure 38
2000
0000
3002
0000
,  // measure 39
2003
0000
3000
0000
,  // measure 40
0001
0010
0100
0000
,  // measure 41
1000
0010
0100
0000
,  // measure 42
0001
0100
1000
0100
,  // measure 43
0002
0000
0003
0000
,  // measure 44
1000
0001
0010
0000
,  // measure 45
0001
1000
0010
0000
,  // measure 46
2000
0000
3020
0000
,  // measure 47
0230
0000
0300
0000
,  // measure 48
0110
0000
1001
0000
,  // measure 49
1000
0001
1000
0000
,  // measure 50
0001
0010
0100
1000
,  // measure 51
0100
0010
0001
0000
,  // measure 52
1001
0000
0110
0000
,  // measure 53
0100
0010
0100
0000
,  // measure 54
0010
1000
0001
0010
,  // measure 55
0100
0010
0001
1000
,  // measure 56
0001
0001
1000
1000
,  // measure 57
2002
0000
0000
0000
,  // measure 58
3003
0000
0000
0000
,  // measure 59
1001
0000
0001
0010
,  // measure 60
0001
0000
1000
0010
,  // measure 61
1000
0000
0010
0100
,  // measure 62
0001
0010
0100
0220
,  // measure 63
0330
0000
0000
0000
;

//---------------dance-single - Oni-91----------------
#NOTES:
     dance-single:
     :
     Medium:
     5:
     0.336845,0.359806,0.089748,0.203972,0.252925,289.000000,278.000000,11.000000,25.000000,0.000000,0.000000,0.336845,0.359806,0.089748,0.203972,0.252925,289.000000,278.000000,11.000000,25.000000,0.000000,0.000000:
// measure 0
0000
0000
0000
1000
,  // measure 1
0001
0100
0001
0100
,  // measure 2
0010
0000
0000
1000
0000
0001
1000
0000
0000
0001
0000
0002
,  // measure 3
0000
0000
0000
1003
0000
2000
0000
0000
0000
3100
0000
0200
,  // measure 4
0000
0010
1000
0310
,  // measure 5
0100
0010
0001
1000
,  // measure 6
0001
0000
0000
0100
0000
0010
0100
0000
0000
0010
0000
0020
,  // measure 7
0000
0000
0000
1030
0000
2000
0000
0000
0000
3001
0000
0002
,  // measure 8
0000
0000
0000
0010
0000
0000
1000
0000
0000
0013
0000
0001
,  // measure 9
0010
0000
0000
0100
0000
0000
1000
0000
0000
0100
0000
1000
,  // measure 10
0001
0000
0000
0100
0000
0000
0010
0000
0000
1000
0000
0100
,  // measure 11
1000
0000
0000
0001
0000
0000
0100
0000
0000
0010
0000
0100
,  // measure 12
0010
1000
0001
1000
,  // measure 13
0100
0010
0100
1000
,  // measure 14
0001
0000
0000
0100
0000
0010
0100
0000
0000
0010
0000
0020
,  // measure 15
0000
0000
0000
1030
0000
2000
0000
0000
0000
3001
0000
0002
,  // measure 16
0000
0000
0000
1000
0000
0000
1000
0000
0000
1003
0000
0001
,  // measure 17
1000
0000
0000
0010
0000
0100
0010
0000
0000
1000
0000
0001
,  // measure 18
1000
0000
0000
0001
0000
0000
0010
0000
0000
0100
0000
0010
,  // measure 19
0100
0000
0000
0010
0000
0001
0010
0000
0000
0001
0000
1000
,  // measure 20
0001
0000
0000
1000
0000
0000
0010
0000
0000
0100
0000
0001
,  // measure 21
0100
0000
0000
0010
0000
1000
0010
0000
0000
1000
0000
0001
,  // measure 22
1000
0001
0010
0100
,  // measure 23
1000
0000
0000
0100
0000
0010
0100
0000
0000
0010
0000
0001
,  // measure 24
0010
0001
0100
0010
,  // measure 25
1010
1010
0101
0101
,  // measure 26
2002
0000
0000
0000
,  // measure 27
3003
0000
0000
0000
,  // measure 28
1001
0001
0100
1000
,  // measure 29
0100
0001
1000
0001
,  // measure 30
1000
0100
0001
0100
,  // measure 31
1000
0000
0000
0001
0000
1000
0002
0000
0000
0003
0000
0000
,  // measure 32
1000
0000
0000
0100
0000
0000
0010
0000
0000
0001
0000
0010
,  // measure 33
0001
0000
0000
1000
0000
0001
1000
0000
0000
0010
0000
0020
,  // measure 34
0000
0000
0000
1030
0000
2000
0000
0000
0000
3001
0000
0002
,  // measure 35
0000
0010
1000
0103
,  // measure 36
0001
0000
0000
1000
0000
0000
0100
0000
0000
0010
0000
0001
,  // measure 37
0010
0000
0000
0001
0000
1000
0001
0000
0000
1000
0000
2000
,  // measure 38
0000
0000
0000
3001
0000
0002
0000
0000
0000
0103
0000
0200
,  // measure 39
0000
0010
0001
0310
,  // measure 40
0100
0000
0000
0010
0000
1000
0001
0000
0000
0010
0000
0000
,  // measure 41
0100
0000
0000
0010
0000
0001
1000
0000
0000
0001
0000
1000
,  // measure 42
0001
0000
0000
1000
0000
0100
1000
0000
0000
0001
0000
0010
,  // measure 43
0001
1000
0010
0100
,  // measure 44
0110
0010
1000
0001
,  // measure 45
0010
0000
0000
0100
0000
0010
0100
0000
0000
0010
0000
0020
,  // measure 46
0000
0000
0000
0031
0000
0002
0000
0000
0000
1003
0000
2000
,  // measure 47
0000
0010
0010
3010
,  // measure 48
1000
0000
0000
0001
0000
1000
0001
0000
0000
1000
0000
0001
,  // measure 49
0100
0000
0000
0010
0000
0000
0100
0000
0000
0001
0000
0010
,  // measure 50
0001
0000
0000
1000
0000
0100
1000
0000
0000
0001
0000
0010
,  // measure 51
0100
0000
0000
0010
0000
0000
0001
0000
0000
1000
0000
0001
,  // measure 52
1000
0000
0000
0001
0000
0100
0001
0000
0000
1000
0000
0010
,  // measure 53
1000
0010
0100
0001
,  // measure 54
1000
0000
0000
0100
0000
1000
0100
0000
0000
0010
0000
0001
,  // measure 55
0010
0000
0000
1000
0000
0000
0010
0000
0000
0001
0000
1000
,  // measure 56
0001
0100
1010
1001
,  // measure 57
0220
0000
0000
0000
,  // measure 58
0330
0000
0000
0000
,  // measure 59
0010
0000
0000
0001
0000
0000
1000
0000
0001
1000
0000
0000
,  // measure 60
0001
0000
0000
0100
0000
0000
0010
0000
1000
0010
0000
0000
,  // measure 61
1000
0000
0000
0001
0000
0000
0100
0000
0010
0100
0000
0000
,  // measure 62
0001
0000
1000
0001
0000
0000
1000
0000
0000
2002
0000
0000
,  // measure 63
3003
0000
0000
0000
;
