#TITLE:The Dark;
#SUBTITLE:;
#ARTIST:Monolithic;
#TITLETRANSLIT:;
#SUBTITLETRANSLIT:;
#ARTISTTRANSLIT:;
#GENRE:;
#CREDIT:;
#BANNER:The Dark.png;
#BACKGROUND:The Dark-bg.png;
#LYRICSPATH:;
#CDTITLE:;
#MUSIC:The Dark.mp3;
#OFFSET:-9.360000;
#SAMPLESTART:33.340000;
#SAMPLELENGTH:10.660000;
#SELECTABLE:YES;
#BPMS:0.000000=180.000000
,216.000000=90.000000
,248.000000=180.000000
;
#STOPS:
;
#BGCHANGES:;
#KEYSOUNDS:;
#ATTACKS:;

//---------------dance-single - Oni-91----------------
#NOTES:
     dance-single:
     :
     Hard:
     9:
     0.590711,0.693285,0.162308,0.100476,0.305293,535.000000,514.000000,21.000000,13.000000,0.000000,0.000000,0.590711,0.693285,0.162308,0.100476,0.305293,535.000000,514.000000,21.000000,13.000000,0.000000,0.000000:
// measure 0
1000
0000
0001
0000
0100
0010
1000
0000
,  // measure 1
0001
0000
1000
0000
0100
0010
0001
0010
,  // measure 2
0100
0000
0010
0000
0001
1000
0001
0000
,  // measure 3
1000
0000
0001
0100
0010
1000
0001
0010
,  // measure 4
0001
0000
0000
0000
1000
0000
0000
0100
0000
0000
0100
0000
1000
0000
0000
0000
,  // measure 5
0001
0000
0000
0000
0100
0000
0000
0001
0000
0000
0001
0000
0100
0000
0010
0000
,  // measure 6
1000
0000
0000
0000
0010
0000
0000
1000
0000
0000
0001
0000
0010
0000
0000
0000
,  // measure 7
0001
0100
0010
1000
0001
0000
0110
0000
,  // measure 8
1000
0000
0000
0000
0001
0000
0000
0010
0000
0000
0001
0000
0100
0000
0000
0000
,  // measure 9
0010
0000
0100
0000
0001
0000
0000
1000
0000
0000
0100
0000
0010
0000
0001
0000
,  // measure 10
1000
0000
0000
0000
0001
0000
0000
1000
0000
0000
0100
0000
1000
0000
0000
0000
,  // measure 11
0001
0000
0000
0000
0010
0000
0000
0001
0000
0000
0010
0000
0001
0000
1000
0000
,  // measure 12
0100
0000
0000
0000
0011
0000
0000
0001
0000
0000
0100
0000
0010
0000
1000
0000
,  // measure 13
0001
0000
0000
0000
0110
0000
0000
1000
0000
0000
0001
0000
0010
0000
0001
0000
,  // measure 14
0100
1000
0001
0010
1000
0001
0010
0100
,  // measure 15
1000
0001
0010
1000
0001
0100
0010
0001
,  // measure 16
0200
0000
0000
0000
,  // measure 17
0310
0000
0000
1000
0010
0000
0000
1000
0010
0000
0000
1000
0001
0000
0000
0000
,  // measure 18
1001
0000
0000
0000
1010
0000
0000
1000
0000
0000
0001
0000
0010
0000
0000
0000
,  // measure 19
0001
0000
0100
0000
0010
0000
0000
0100
0000
0000
0010
0000
1000
0000
0000
0000
,  // measure 20
0001
0000
0000
0000
1010
0000
0000
0100
0000
0000
0001
0000
0010
0000
0000
0000
,  // measure 21
0100
0000
1000
0000
0001
0000
0000
1000
0001
0000
0100
0000
0001
0000
0000
0000
,  // measure 22
0110
0000
0000
0000
1000
0000
0001
0100
0000
0000
0010
0000
1000
0000
0000
0000
,  // measure 23
0001
0000
0010
0000
0001
0000
1000
0100
0000
0000
1000
0000
0001
0000
0000
0000
,  // measure 24
0100
0000
0000
0000
0010
0000
1000
0001
0000
0000
1000
0000
0001
0000
0000
0000
,  // measure 25
0110
0000
0000
0100
0010
0000
0000
0100
1000
0000
0000
0100
0010
0000
0100
0000
,  // measure 26
1001
0000
0000
0000
0001
0000
0000
0010
0001
0000
1000
0000
0010
0000
0000
0000
,  // measure 27
0100
0000
0010
0000
0100
0000
0001
1000
0000
0000
0001
0000
0010
0000
0001
0000
,  // measure 28
0100
0000
0000
0000
1010
0000
0000
1000
0001
0000
0010
0000
0001
0000
0000
0000
,  // measure 29
1000
0000
0100
0000
0001
0000
0000
1000
0010
0000
0001
0000
1000
0001
1000
0001
,  // measure 30
1000
0000
0001
0100
0000
0010
1000
0100
,  // measure 31
0010
0000
0100
1000
0000
0001
0100
0010
,  // measure 32
1000
0100
1000
0100
0010
0001
0010
0001
,  // measure 33
1000
0000
1000
0000
0001
0000
0001
0000
0100
0000
0000
0001
1000
0001
1000
0001
,  // measure 34
1000
0100
0010
0001
0100
0010
1000
0000
,  // measure 35
0001
0100
0010
1000
0001
0010
0001
0000
,  // measure 36
1000
0100
0010
0001
0100
0001
0010
0100
,  // measure 37
1000
0001
0010
0001
1000
0001
0100
0000
,  // measure 38
0010
1000
0100
0010
0100
0010
0001
0000
,  // measure 39
1000
0001
0100
0010
0100
0001
1000
0000
,  // measure 40
0001
0010
0100
1000
0100
0001
0100
1000
,  // measure 41
0100
0010
0001
0100
0010
1000
0001
0000
,  // measure 42
1000
0000
0001
0000
0100
0000
0001
1000
0000
0000
0001
0000
0010
0000
0000
0000
,  // measure 43
0100
0000
0010
0000
0001
0000
1000
0010
0000
0000
0010
0000
0100
0000
0000
0000
,  // measure 44
0010
0000
1000
0000
0100
0000
0010
0001
0000
0000
1000
0000
0001
0000
0100
0000
,  // measure 45
0020
0000
0000
0000
1030
0000
0010
1000
0000
0000
0001
0000
0010
0000
0001
0000
,  // measure 46
1000
0000
1000
0000
0100
0000
1000
0001
0000
1000
0001
0000
0110
0000
0000
0000
,  // measure 47
0100
0000
0100
0000
0001
0000
0010
0001
0000
0010
0001
0000
1100
0000
0000
0000
,  // measure 48
1000
0100
0010
0002
0000
0103
0010
1000
,  // measure 49
0100
0000
0010
0000
0100
0000
1000
0000
0001
0100
0000
0000
0001
1000
0000
0000
,  // measure 50
2100
0100
0001
0010
,  // measure 51
0010
0001
0100
3020
,  // measure 52
0230
0001
0010
1000
,  // measure 53
0302
0010
2000
3003
,  // measure 54
1001
0000
0000
1000
0100
0000
0010
0000
0001
0010
0001
0000
0100
0000
0010
0000
,  // measure 55
0100
0000
0000
0000
0000
0000
0100
0000
0010
0000
0000
0000
1000
0000
0000
0000
0001
0000
0010
0000
0100
0000
0000
0000
0010
0000
0000
0000
0001
1000
0001
1000
,  // measure 56
0001
0000
0000
0001
0100
0000
0001
0000
0000
1000
0000
0000
0100
0000
0010
0000
,  // measure 57
0100
0000
0000
0010
0001
0000
0000
0001
0000
1000
0000
0010
1000
0100
0010
0001
,  // measure 58
1000
0000
0000
1000
0100
0000
0010
0000
0200
0000
0000
0000
0310
0000
0001
0000
,  // measure 59
0200
0000
0000
0000
0000
0000
0000
0000
0310
0000
0000
0000
1000
0000
0001
0000
0000
0000
1000
0000
0001
0000
1000
0000
0100
0000
0000
0000
1000
0100
0010
0000
,  // measure 60
0001
0000
0000
0100
0001
0000
1000
0000
0100
0000
0000
1000
0001
0000
0110
0000
,  // measure 61
2002
0000
3003
0000
,  // measure 62
0001
0000
0000
0000
0100
0000
0000
0001
0000
0000
1000
0000
0001
0000
0000
0000
,  // measure 63
1000
0000
0000
0000
0100
0000
0000
1000
0000
0000
0001
0000
0100
0000
0000
0000
,  // measure 64
0010
0000
0000
0000
0100
0000
0000
0001
0000
0000
1000
0000
0100
0000
0000
0000
,  // measure 65
0010
0000
0001
0000
0000
1000
0000
0001
1000
0000
0100
0000
0010
0000
0001
0000
,  // measure 66
1000
0000
0000
0000
0110
0000
0000
0001
0000
0000
1000
0000
0100
0000
0010
0000
,  // measure 67
0100
0000
0000
0000
1001
0000
0000
0010
0000
0000
0100
0000
0001
0000
1000
0000
,  // measure 68
0100
0000
0000
0000
0011
0000
0000
0100
0000
0000
0010
0000
0001
0000
1000
0000
,  // measure 69
0001
0000
0000
0000
0100
0000
0010
0000
0000
1000
0001
0000
1000
0000
0100
0010
,  // measure 70
0001
0000
1000
0100
0010
0100
1000
0001
,  // measure 71
0100
0000
0010
1000
0001
0100
0010
1000
,  // measure 72
0001
0000
0010
0001
1000
0100
0010
0001
,  // measure 73
0100
0000
0001
0000
0100
0000
0000
0010
1000
0000
0001
0000
1000
0000
0100
0000
,  // measure 74
0011
0000
0000
0000
0100
0000
0010
0001
0000
0000
0001
0000
0100
0000
0000
0000
,  // measure 75
1010
0000
0000
0000
1000
0000
0100
0010
0000
0000
0001
0000
1000
0000
0010
0000
,  // measure 76
0100
0000
0010
0000
0100
0000
0001
0000
1000
0000
0001
0000
1000
0001
1000
0001
,  // measure 77
0020
0000
0000
0000
,  // measure 78
0030
0000
0000
0000
;

//---------------dance-single - Oni-91----------------
#NOTES:
     dance-single:
     :
     Medium:
     6:
     0.398592,0.422000,0.100476,0.154579,0.000000,361.000000,348.000000,13.000000,20.000000,0.000000,0.000000,0.398592,0.422000,0.100476,0.154579,0.000000,361.000000,348.000000,13.000000,20.000000,0.000000,0.000000:
// measure 0
1000
0000
0001
0000
0100
0010
0100
0000
,  // measure 1
0010
0000
1000
0000
0001
0010
0100
0000
,  // measure 2
0010
0000
0001
0000
1000
0010
1000
0000
,  // measure 3
0001
0000
0100
0000
0010
0000
1000
0001
,  // measure 4
1000
0000
0100
0000
0010
0001
0010
0000
,  // measure 5
0001
0000
0100
0000
0001
1000
0100
0000
,  // measure 6
1000
0000
0010
0000
0100
0010
1000
0000
,  // measure 7
0010
1000
0001
0000
0010
0001
0100
0000
,  // measure 8
0001
0000
1000
0000
0100
0100
0100
0000
,  // measure 9
1000
0000
0001
0000
0010
0010
0010
0000
,  // measure 10
0001
0000
0100
0000
0010
0010
0010
0000
,  // measure 11
1000
1000
1000
0000
0001
0001
0001
0000
,  // measure 12
1000
0000
0100
0000
1000
0100
1000
0000
,  // measure 13
0001
0100
0010
0000
1000
0100
0010
0000
,  // measure 14
0001
0000
1000
0001
0000
0001
0100
0000
,  // measure 15
0001
0000
1000
0000
0001
1000
0001
0000
,  // measure 16
0200
0000
0000
0000
,  // measure 17
0000
0000
0000
0300
,  // measure 18
2001
0010
0001
0100
,  // measure 19
3002
0010
0100
0010
,  // measure 20
0203
1000
0010
0001
,  // measure 21
0301
0100
0001
0000
1000
0100
1000
0000
,  // measure 22
0001
0000
1000
0100
0010
0000
0001
0000
,  // measure 23
1000
0000
0010
0100
0001
0000
0010
0000
,  // measure 24
0100
0000
0010
0001
1000
0000
0001
0000
,  // measure 25
0100
0010
1000
0000
0001
0100
0010
0000
,  // measure 26
1002
0010
0100
0010
,  // measure 27
0203
1000
0010
0001
,  // measure 28
0320
1000
0100
1000
,  // measure 29
0130
0010
0100
0000
0010
0000
1000
0000
,  // measure 30
1001
0000
0001
0010
0100
0000
0010
0000
,  // measure 31
1001
0000
1000
0010
0100
0000
0010
0000
,  // measure 32
1001
0000
0001
0100
0001
0000
2000
0000
,  // measure 33
0000
0001
0000
0001
0002
0000
3003
0000
,  // measure 34
1000
0000
0100
0000
0010
0001
0010
0000
,  // measure 35
0001
0000
0100
0000
0010
1000
0010
1000
,  // measure 36
0001
1000
0100
0001
,  // measure 37
0010
1000
0001
1000
,  // measure 38
0001
0000
0100
0000
0010
1000
0100
0000
,  // measure 39
0010
0000
0001
0000
1000
0100
0010
0001
,  // measure 40
0010
0001
0100
0010
,  // measure 41
0001
0010
1000
0001
,  // measure 42
0100
0000
0010
0000
1000
0100
1000
0000
,  // measure 43
0010
0000
0100
0000
0001
0010
0001
0000
,  // measure 44
1000
0000
0100
0000
0010
0001
0100
0000
,  // measure 45
0010
1000
0001
0000
0100
0001
1000
0000
,  // measure 46
0100
0000
0100
0000
0010
0001
0100
0000
,  // measure 47
0010
0000
0010
0000
1000
0001
0100
0000
,  // measure 48
0010
1000
0100
0010
,  // measure 49
0002
0000
0000
0000
0013
0000
0001
2000
,  // measure 50
0002
0000
0000
0000
,  // measure 51
0000
0000
0000
0000
,  // measure 52
0000
0000
0000
0000
,  // measure 53
0000
0000
0000
3003
,  // measure 54
0002
1000
0203
0010
,  // measure 55
0301
0000
0100
0000
0010
1000
0100
0010
,  // measure 56
0001
0000
1000
0000
0001
0100
0001
0010
,  // measure 57
0100
0000
0010
0000
0001
1000
0001
0000
,  // measure 58
0200
1000
0320
1000
,  // measure 59
0130
0000
0010
0000
1000
0100
0010
0001
,  // measure 60
1000
0110
0001
0110
,  // measure 61
2002
0000
3003
0000
,  // measure 62
1000
0100
0010
0100
,  // measure 63
1000
0000
0001
0000
0100
0010
0100
0000
,  // measure 64
0001
1000
0100
0010
,  // measure 65
0001
1000
0001
0000
0100
0000
0010
1000
,  // measure 66
0001
0000
0010
0000
0100
0010
0100
0000
,  // measure 67
0010
0000
0001
0000
1000
0010
0100
0000
,  // measure 68
0001
0100
0010
0000
1000
0001
0100
0000
,  // measure 69
0001
0000
0010
0000
0100
0010
0001
1000
,  // measure 70
0001
0000
0010
0100
0010
0000
0001
0000
,  // measure 71
1000
0000
0010
0100
0010
0000
1000
0000
,  // measure 72
0001
0000
1000
0100
0010
0000
0001
0000
,  // measure 73
1000
0010
1000
0000
0001
0100
0001
0000
,  // measure 74
1000
0000
0001
0100
0000
0000
0101
0000
,  // measure 75
1001
0000
1000
0100
0000
0000
1100
0000
,  // measure 76
1001
0000
0001
0010
0100
0000
0010
0000
,  // measure 77
2002
0000
0000
0000
,  // measure 78
3003
0000
0000
0000
;

//---------------dance-single - Oni-91----------------
#NOTES:
     dance-single:
     :
     Easy:
     4:
     0.257263,0.301428,0.069560,0.200952,0.000000,233.000000,224.000000,9.000000,26.000000,0.000000,0.000000,0.257263,0.301428,0.069560,0.200952,0.000000,233.000000,224.000000,9.000000,26.000000,0.000000,0.000000:
// measure 0
1000
0100
1000
0000
,  // measure 1
0001
0100
0001
0000
,  // measure 2
1000
0100
0010
0000
,  // measure 3
0001
0100
0010
0100
,  // measure 4
0001
1000
0001
0000
,  // measure 5
1000
0100
0010
0000
,  // measure 6
0100
0010
0001
0000
,  // measure 7
1000
0001
0100
0100
,  // measure 8
0010
1000
0001
0000
,  // measure 9
0100
0010
0100
0000
,  // measure 10
0010
1000
0001
0000
,  // measure 11
0010
0001
1000
1000
,  // measure 12
0001
0100
0010
0000
,  // measure 13
1000
0100
0010
0001
,  // measure 14
0100
0010
1000
0001
,  // measure 15
0200
0000
0000
0000
,  // measure 16
0020
0000
0000
0330
,  // measure 17
2002
0000
0000
3003
,  // measure 18
1000
0100
1000
0100
,  // measure 19
0010
0001
0010
0001
,  // measure 20
1000
0001
1000
0001
,  // measure 21
0100
0000
0001
0000
,  // measure 22
1000
0001
1000
0000
,  // measure 23
0010
0100
0010
0000
,  // measure 24
1000
0100
0010
0001
,  // measure 25
0100
0010
0100
0000
,  // measure 26
0001
0100
0001
0100
,  // measure 27
0010
1000
0010
1000
,  // measure 28
0001
1000
0001
1000
,  // measure 29
0100
0000
0010
0001
,  // measure 30
2002
0000
3003
0000
,  // measure 31
0220
0000
0330
0000
,  // measure 32
0010
1000
0100
0010
,  // measure 33
0200
0000
0000
0300
,  // measure 34
1001
0000
0001
0000
,  // measure 35
0100
0001
1000
0100
,  // measure 36
0010
0100
0100
1000
,  // measure 37
0001
0000
1000
0000
,  // measure 38
0001
0100
0010
0000
,  // measure 39
0100
0010
1000
0000
,  // measure 40
0001
0010
0100
0100
,  // measure 41
0010
0001
1000
0010
,  // measure 42
1000
0001
0010
0000
,  // measure 43
0001
1000
0100
0000
,  // measure 44
0010
0001
0100
0010
,  // measure 45
0100
0010
1000
0001
,  // measure 46
1000
1000
1000
0000
,  // measure 47
0001
0001
0001
0000
,  // measure 48
0100
0010
1000
0100
,  // measure 49
0020
0000
0031
1000
,  // measure 50
2002
0000
0000
0000
,  // measure 51
0000
0000
0000
0000
,  // measure 52
0000
0000
0000
0000
,  // measure 53
0000
0000
3003
0000
,  // measure 54
1000
0100
0010
0100
,  // measure 55
2000
0000
3001
0100
,  // measure 56
0002
0000
2003
0000
,  // measure 57
3200
0000
0320
0100
,  // measure 58
0130
0010
0001
1000
,  // measure 59
0002
0000
0103
0010
,  // measure 60
2000
0000
3002
0000
,  // measure 61
2000
0000
3003
0000
,  // measure 62
1000
0001
0100
0000
,  // measure 63
0001
1000
0100
0000
,  // measure 64
1000
0100
0010
0001
,  // measure 65
0200
0000
0000
0300
,  // measure 66
1001
0001
0100
0000
,  // measure 67
0001
0010
0001
0000
,  // measure 68
1000
0100
0010
0001
,  // measure 69
0100
0010
2000
3000
,  // measure 70
0001
0010
0100
0010
,  // measure 71
0001
1000
0010
0100
,  // measure 72
0020
0000
1030
0010
,  // measure 73
2000
0000
3000
0000
,  // measure 74
1001
0000
0001
0010
,  // measure 75
0110
0000
0100
0010
,  // measure 76
1001
0000
0100
0010
,  // measure 77
0200
0000
0000
0000
,  // measure 78
0300
0000
0000
0000
;

//---------------dance-single - Oni-91----------------
#NOTES:
     dance-single:
     :
     Beginner:
     2:
     0.153474,0.208295,0.100476,0.000000,0.000000,139.000000,126.000000,13.000000,0.000000,0.000000,0.000000,0.153474,0.208295,0.100476,0.000000,0.000000,139.000000,126.000000,13.000000,0.000000,0.000000,0.000000:
// measure 0
1000
0000
0001
0000
,  // measure 1
0100
0000
0000
0000
,  // measure 2
0001
0000
1000
0000
,  // measure 3
0100
0000
0000
0000
,  // measure 4
0010
0000
0100
0000
,  // measure 5
0010
0000
0000
0000
,  // measure 6
0001
0000
1000
0000
,  // measure 7
0001
0000
0100
0000
,  // measure 8
0010
0000
0100
0000
,  // measure 9
0001
0000
1000
0000
,  // measure 10
0100
0000
0010
0000
,  // measure 11
0001
0000
1000
0000
,  // measure 12
1001
0000
0000
0000
,  // measure 13
0001
0000
0100
0000
,  // measure 14
0010
0000
1000
0000
,  // measure 15
0001
0000
1000
0000
,  // measure 16
1001
0000
0000
0000
,  // measure 17
0110
0000
0000
0000
,  // measure 18
1000
0000
0001
0000
,  // measure 19
0100
0000
0010
0000
,  // measure 20
1000
0000
0000
0000
,  // measure 21
0001
0000
1000
0000
,  // measure 22
1001
0000
0000
0000
,  // measure 23
0001
0000
0000
0000
,  // measure 24
0100
0000
0010
0000
,  // measure 25
1000
0000
0100
0000
,  // measure 26
0010
0000
0000
0000
,  // measure 27
0100
0000
0000
0000
,  // measure 28
1000
0000
0000
0000
,  // measure 29
0001
0000
1000
0000
,  // measure 30
1001
0000
0000
0000
,  // measure 31
0110
0000
0000
0000
,  // measure 32
1001
0000
0000
0000
,  // measure 33
0000
0000
0000
0000
,  // measure 34
1000
0000
0100
0000
,  // measure 35
1000
0000
1000
0000
,  // measure 36
0001
0000
0100
0000
,  // measure 37
0010
0000
0100
0100
,  // measure 38
0100
0000
0001
0000
,  // measure 39
1000
0000
0100
0000
,  // measure 40
0010
0000
0001
0000
,  // measure 41
1000
0000
0001
0000
,  // measure 42
0100
0000
0001
0000
,  // measure 43
1000
0000
0100
0000
,  // measure 44
0010
0000
0100
0100
,  // measure 45
0100
0000
0010
0000
,  // measure 46
0001
0000
1000
0000
,  // measure 47
0001
0000
0100
0000
,  // measure 48
0010
0000
1000
1000
,  // measure 49
1000
0000
0001
0000
,  // measure 50
1001
0000
0000
0000
,  // measure 51
0000
0000
0000
0000
,  // measure 52
0000
0000
0000
0000
,  // measure 53
0000
0000
0000
0000
,  // measure 54
1000
0000
0001
0000
,  // measure 55
0100
0000
0010
0000
,  // measure 56
1000
0000
0000
0000
,  // measure 57
0001
0000
0000
0000
,  // measure 58
1000
0000
0100
0000
,  // measure 59
0010
0000
0001
0000
,  // measure 60
1000
0000
0001
0000
,  // measure 61
1001
0000
0000
0000
,  // measure 62
1000
0000
1000
0000
,  // measure 63
0001
0000
0001
0000
,  // measure 64
0100
0000
0010
0000
,  // measure 65
0100
0000
0000
0000
,  // measure 66
0001
0000
1000
0000
,  // measure 67
0100
0000
0010
0000
,  // measure 68
0001
0000
0100
0000
,  // measure 69
0010
0000
0000
0000
,  // measure 70
1000
0000
0001
0000
,  // measure 71
1000
0000
0010
0000
,  // measure 72
0100
0000
0010
0000
,  // measure 73
1000
0000
1000
0000
,  // measure 74
1001
0000
0000
0000
,  // measure 75
0110
0000
0000
0000
,  // measure 76
1001
0000
0000
0000
,  // measure 77
0110
0000
0000
0000
;
