#TITLE:TAMBOURINE BEATS;
#SUBTITLE:;
#ARTIST:Sana;
#TITLETRANSLIT:;
#SUBTITLETRANSLIT:;
#ARTISTTRANSLIT:;
#GENRE:;
#CREDIT:;
#BANNER:TAMBOURINE BEATS.png;
#BACKGROUND:TAMBOURINE BEATS-bg.png;
#LYRICSPATH:;
#CDTITLE:;
#MUSIC:TAMBOURINE BEATS.mp3;
#OFFSET:-8.009999;
#SAMPLESTART:71.049995;
#SAMPLELENGTH:16.000000;
#SELECTABLE:YES;
#BPMS:0.000000=120.000000
;
#STOPS:
;
#BGCHANGES:;
#KEYSOUNDS:;
#ATTACKS:;

//---------------dance-single - Oni-91----------------
#NOTES:
     dance-single:
     :
     Challenge:
     8:
     0.513474,0.524592,0.229230,0.201722,0.330091,392.000000,367.000000,25.000000,22.000000,0.000000,0.000000,0.513474,0.524592,0.229230,0.201722,0.330091,392.000000,367.000000,25.000000,22.000000,0.000000,0.000000:
// measure 0
1000
0000
0000
0000
1000
0000
0010
0000
1000
0000
0000
0001
0000
0000
0100
0000
,  // measure 1
0001
0000
0000
0000
0001
0000
0010
0000
0001
0000
0000
0100
0000
0000
0001
0000
,  // measure 2
1000
0100
0100
0010
0010
0100
1000
0010
,  // measure 3
0100
0000
0001
0000
1000
0000
0200
0000
0000
0000
0310
0001
1000
0000
0000
0000
,  // measure 4
0110
0000
0000
0000
1001
0000
0001
0000
0010
0001
0000
0010
0000
0000
0001
0000
,  // measure 5
1000
0000
0010
0100
0010
0000
1000
0001
0000
1001
0000
0000
1000
0000
0100
0000
,  // measure 6
0010
0010
0001
2000
0000
0010
3010
0000
,  // measure 7
0100
0100
0001
2000
0000
0001
3001
0000
,  // measure 8
1000
0000
1000
0100
0000
0100
0010
0000
0010
0001
0000
0000
1001
0000
0000
0000
,  // measure 9
0001
0000
0100
0010
0000
0100
0010
0000
1000
0000
0100
0010
0000
0011
0000
0000
,  // measure 10
1000
0100
1000
0100
0010
0000
0100
0000
2000
0000
0000
0000
3010
0000
0000
0000
,  // measure 11
0001
0100
0001
0100
0010
0000
1000
0000
0002
0000
0010
0000
0013
0000
0000
0000
,  // measure 12
1001
0000
0000
0000
1000
0000
0010
0000
0100
0000
0000
1000
0000
0000
0100
0000
,  // measure 13
0001
0000
0100
0000
1000
0000
0100
0000
0001
0000
0000
0010
0000
0000
0001
0000
,  // measure 14
1000
0100
0010
0100
0010
1000
0010
0001
,  // measure 15
1000
0000
0001
0000
1000
0000
0100
0000
0010
0100
0010
0100
0010
0000
0000
0000
,  // measure 16
1001
0000
0000
1000
0100
0000
0010
0000
0001
0000
0000
1000
0000
0000
0001
0000
,  // measure 17
1000
0000
0000
1000
0010
0000
0100
0000
0001
0000
0000
0010
0000
0000
0100
0000
,  // measure 18
0010
0001
0100
0010
0100
0001
0010
0100
,  // measure 19
1000
0000
0100
0000
1000
0000
0001
0000
1000
0001
0000
1000
0001
0000
0000
0000
,  // measure 20
0110
0000
0010
0000
0010
0100
0010
0100
0000
0100
0001
0000
1000
0000
0000
0000
,  // measure 21
1001
0000
1000
0000
1000
0001
1000
0001
0000
0001
0010
0000
0001
0000
0100
0000
,  // measure 22
0202
0000
0303
0000
0010
1000
0100
1100
,  // measure 23
0000
0000
1000
0000
0100
0000
0010
0000
0001
0010
0100
0010
0001
0000
0000
0000
,  // measure 24
1001
0000
1000
0000
0010
0100
0010
0100
0000
0100
0001
0000
1001
0000
0000
0000
,  // measure 25
1000
0100
1000
0100
0000
0010
0001
0010
0000
0001
1000
0000
1001
0000
0000
0000
,  // measure 26
1000
0100
1000
0001
0100
0001
0010
0000
,  // measure 27
0100
0000
0010
0001
0000
0001
1000
0000
0001
1000
0001
1000
0001
0000
0000
0000
,  // measure 28
1000
0000
0010
0000
0100
0000
0001
0000
0100
0000
0100
0000
0010
0000
1000
0001
,  // measure 29
0010
0000
0100
1000
0100
0000
1000
0000
2002
0000
0000
0000
3003
0000
0000
0000
,  // measure 30
1000
0100
1000
0000
0100
0000
0010
0000
0001
0010
0001
0000
0100
0000
0010
0000
,  // measure 31
2010
0001
0200
3300
,  // measure 32
0110
0000
1001
0000
0001
0100
0010
2000
,  // measure 33
0000
0100
0100
3100
0000
0100
0001
0100
,  // measure 34
0010
0000
0001
0000
1000
0010
0000
0010
0100
0000
0001
0000
1000
0100
0000
1000
,  // measure 35
0100
0010
0001
0010
1000
0010
0110
0000
,  // measure 36
1001
0000
0110
0000
0010
1000
0001
0020
,  // measure 37
0000
0000
0001
0000
0031
0000
0001
2000
0000
0000
0000
0000
3000
0000
0000
0000
,  // measure 38
0001
0000
0100
0000
0010
1000
0000
0100
0000
0000
0010
0000
0001
0000
0001
2000
,  // measure 39
0000
0000
0001
0000
0001
0000
0001
0002
0000
0000
0000
0000
3003
0000
0000
0000
,  // measure 40
1000
0000
0100
0000
0010
0001
0000
0001
0000
0010
0001
1000
0100
0000
1000
0200
,  // measure 41
0000
0000
0310
1001
,  // measure 42
1000
0000
0100
0000
0010
0000
0100
0000
1000
0000
0000
0001
0000
0000
1000
0000
,  // measure 43
0001
0000
0100
0000
0010
0000
0100
0000
0001
0000
0000
1000
0000
0000
0001
0000
,  // measure 44
0100
0010
1000
0100
0010
0010
0100
1000
,  // measure 45
0001
0000
0001
0000
1000
0000
1001
0000
0000
0000
1000
0001
1000
0000
0001
0000
,  // measure 46
0100
0000
0002
0000
0013
0000
1000
0000
0010
0000
0000
0100
0000
0000
0010
0000
,  // measure 47
0001
0000
0200
0000
1300
0000
0100
0000
0010
0000
0000
0100
0000
0000
0010
0000
,  // measure 48
1000
0200
0310
0001
0100
0010
1000
0001
,  // measure 49
0100
0010
0100
0110
0000
2002
3003
0000
;

//---------------dance-single - Oni-91----------------
#NOTES:
     dance-single:
     :
     Hard:
     7:
     0.432261,0.410550,0.183384,0.165045,0.114615,330.000000,310.000000,20.000000,18.000000,0.000000,0.000000,0.432261,0.410550,0.183384,0.165045,0.114615,330.000000,310.000000,20.000000,18.000000,0.000000,0.000000:
1000
0100
0010
0100
,
0010
0001
0100
0010
,
1000
0000
0001
0000
1000
0001
1000
0000
,
0001
0000
0000
0001
0000
0000
0001
0000
0000
0000
1000
0000
1001
0000
0000
0000
,
0001
0000
1000
0000
0001
0000
0000
0000
1000
0000
0000
0100
0000
0000
1000
0000
,
0100
0000
0010
0001
1000
0001
0000
0001
,
1000
1000
0010
0100
0000
0100
0010
0000
,
1000
1000
0100
0010
0000
0010
0001
0000
,
1000
0000
0000
0001
0000
0000
0100
0000
0000
0010
0000
0000
0110
0000
0000
0000
,
0100
0000
0000
0010
0000
0000
1000
0000
0001
0000
0000
1000
0000
0000
0100
0000
,
0010
0001
0010
0001
2000
0000
3010
0000
,
0010
0100
0001
0100
0020
1000
1030
0000
,
1000
0000
0100
0000
0010
0000
0001
0000
0100
0000
0000
0100
0000
0000
0100
0000
,
0010
0000
0100
0000
0001
0000
1000
0000
0100
0000
0000
0100
0000
0000
0100
0000
,
0010
0001
0100
0000
0010
1000
0100
0000
,
0010
0001
1000
0200
0000
0010
0310
0000
,
0110
0000
0000
0000
1001
0000
0000
0000
1000
0000
0000
0001
0000
0000
1000
0000
,
0001
0000
0000
0000
0101
0000
0000
0000
0100
0000
0000
0010
0000
0000
1000
0000
,
0010
0100
0001
1000
0100
0010
0100
0010
,
0001
1000
0001
0200
0000
0010
0310
0000
,
1001
0000
0001
0000
1000
0000
0001
2000
0000
0000
0001
0000
3001
0000
0000
0000
,
0010
0000
0100
0000
0010
0000
0100
0020
0000
0000
0100
0000
0130
0000
0000
0000
,
1001
0000
0011
0000
0001
1000
0100
1100
,
0000
1000
0100
0001
1000
0010
0001
0000
,
0100
0000
0001
0000
0100
0000
0001
0200
0000
0000
0010
0000
0310
0000
0000
0000
,
0010
1000
0010
0000
1000
0000
0001
2000
0000
0000
0100
0000
3100
0000
0000
0000
,
0100
1000
0001
0010
0001
0200
0000
0010
,
0310
0100
0010
1000
0000
0001
1001
0000
,
1000
0000
0100
0000
0010
0000
0001
0000
0010
0001
0010
0000
0100
0000
1000
0000
,
1000
0000
0000
0001
0000
0000
1000
0000
0001
0000
1000
0000
1001
0000
0000
0000
,
1000
0100
0010
0100
1000
0100
0010
0001
,
1002
0010
0200
0303
,
1010
0000
0011
0000
0001
0010
1000
0200
,
0000
0310
0001
0100
0000
0100
1000
0100
,
0001
0000
1000
0100
0010
0000
0001
0100
,
0010
0100
1000
0100
0001
0100
0010
0000
,
1001
0000
1100
0000
0100
0010
0001
0101
,
0000
0000
0100
0000
0010
0000
0000
0100
0000
0000
0010
0000
1000
0000
0000
0000
,
0001
0000
0010
0000
0001
0000
1000
0000
0100
0000
0010
0000
0001
0000
1000
0020
,
0000
0100
0100
0200
0000
0000
0330
0000
,
0010
0000
1000
0000
0001
0000
1000
0100
0000
0000
0010
0000
0001
0000
1000
0002
,
0000
0000
0103
1001
,
1000
0000
0100
0000
1000
0000
0001
0000
0100
0000
0000
0010
0000
0000
0100
0000
,
0001
0000
1000
0000
0100
0000
0010
0000
0001
0000
0000
1000
0000
0000
0001
0000
,
1000
0010
0100
0010
0001
0010
1000
0001
,
0100
0010
0100
0102
0000
1000
1003
0000
,
1000
0000
0100
0000
0001
0000
0100
0000
1000
0000
0000
0001
0000
0000
1000
0000
,
0001
0000
0010
0000
1000
0000
0010
0000
0001
0000
0000
1000
0000
0000
0001
0000
,
1000
0010
0100
0001
0100
0010
1000
0001
,
1000
0001
1000
1002
0000
0200
0303
0000
;

//---------------dance-single - Oni-91----------------
#NOTES:
     dance-single:
     :
     Medium:
     5:
     0.340570,0.319317,0.100861,0.220060,0.000000,260.000000,249.000000,11.000000,24.000000,0.000000,0.000000,0.340570,0.319317,0.100861,0.220060,0.000000,260.000000,249.000000,11.000000,24.000000,0.000000,0.000000:
1000
0100
1000
0100
,
0010
0100
1000
0100
,
0010
0000
0001
0000
0010
0010
0010
0000
,
0001
0000
2000
0002
0000
0000
3003
0000
,
0001
0000
0100
0000
0010
0100
0010
0000
,
0100
0000
0001
0000
1000
0001
0000
1000
,
0100
0100
0100
0200
0000
0000
0310
0000
,
0010
0010
0010
0020
0000
0000
0031
0000
,
1001
0000
1000
0000
0001
0100
0001
0000
,
1000
0010
1000
0000
0001
0010
0001
0000
,
2000
0000
0010
0010
0010
0000
3001
0000
,
0002
0000
0010
0010
0020
0000
0033
0000
,
1100
0000
0100
0000
1000
0000
0001
0100
,
0001
0000
1000
0000
0001
0000
0010
0001
,
0100
0000
0010
0100
0010
0000
1000
0000
,
0001
1000
0001
2000
0000
0000
3100
0000
,
0110
0000
0010
0000
0001
0000
0100
0001
,
1000
0000
0001
0000
1000
0000
0100
1000
,
0001
0000
0010
0001
0100
0000
0010
0000
,
0100
0010
0100
0020
0000
0000
1030
0000
,
1001
0000
1000
0001
2000
0000
3010
0000
,
0100
0000
0001
0010
0200
0000
0310
0000
,
1001
0000
1000
0000
0100
0000
0010
0002
,
0000
0000
0010
0000
1000
1000
1003
0000
,
0110
0000
0100
0010
0200
0000
0301
0000
,
0001
1000
0001
1000
0002
0000
0013
0000
,
0001
1000
0001
1000
0001
2000
0000
0000
,
3010
0000
0100
0000
0001
1000
0001
0000
,
0010
0100
0010
0100
0010
0100
0010
0000
,
0001
0000
1000
0001
2000
0000
3010
0000
,
0010
1000
0100
0000
0010
0001
0100
0000
,
0020
1000
0200
0330
,
1001
0000
1001
0000
1000
0000
0100
0010
,
0000
0010
0100
1000
0000
1000
0001
0000
,
0100
0000
0010
0100
0010
0000
0100
0001
,
0100
0001
1000
0100
,
0110
0000
0110
0000
0010
0000
0001
1000
,
0000
1000
0001
0100
0000
0100
0010
0000
,
0100
0000
0001
0000
1000
0000
0100
2000
,
0000
0000
0001
0001
0002
0000
3003
0000
,
0001
0000
0100
0001
0100
0000
0010
0100
,
0020
0000
0130
1001
,
1000
0100
1000
0000
0001
0000
0100
0001
,
0100
0010
0100
0000
0010
0000
1000
0001
,
1000
0001
0010
0000
0100
0000
0010
0000
,
0001
1000
0001
2000
0000
0000
3001
0000
,
1000
0010
1000
0000
0001
0000
0100
0001
,
0100
0010
0100
0000
0010
0000
1000
0010
,
1000
0001
1000
0000
0100
0000
0010
0000
,
0001
1000
0001
2000
0000
0002
3003
0000
;

//---------------dance-single - Oni-91----------------
#NOTES:
     dance-single:
     :
     Easy:
     4:
     0.248878,0.250892,0.146707,0.210891,0.000000,190.000000,174.000000,16.000000,23.000000,0.000000,0.000000,0.248878,0.250892,0.146707,0.210891,0.000000,190.000000,174.000000,16.000000,23.000000,0.000000,0.000000:
1000
1000
1000
1000
,
0100
0100
0100
0100
,
0010
0010
0010
0010
,
0001
0000
1000
2000
0000
0000
3000
0000
,
2002
3003
0001
0100
,
0001
1000
0100
0000
,
0010
0010
0100
1000
,
0010
0010
0100
0001
,
1000
0100
1000
0000
,
0001
0100
0001
1000
,
0100
0100
0100
0000
,
0010
0010
0010
0000
,
1001
0001
0100
0000
,
0001
1000
0100
0000
,
1000
0100
0010
0100
,
1000
0001
0100
0000
,
0110
0100
0001
0000
,
1000
0001
1000
0000
,
0001
0010
0001
1000
,
0100
0010
0001
0100
,
0120
0100
0200
0330
,
1002
1000
2000
3003
,
1001
1000
0100
0010
,
0001
0100
0010
1000
,
2001
0001
0002
3003
,
0120
0100
0200
0330
,
0010
1000
0100
1000
,
0001
1000
2002
3003
,
1000
0100
0010
0001
,
0100
0000
0010
0010
0020
0000
0030
0000
,
0010
1000
0100
0010
,
0220
0000
0000
0330
,
1001
1001
0001
1000
,
0100
0010
0100
0000
,
0010
0010
0001
0001
,
0100
0100
0010
0010
,
1001
1001
1000
0001
,
0100
0010
1000
0000
,
0001
1000
0100
1000
,
0020
0100
0200
0330
,
0010
1000
0100
0010
,
0200
0000
0300
0100
,
1001
1000
0100
0010
,
0001
0010
0100
0010
,
0001
0100
0010
0100
,
0010
0000
2000
0002
0000
0000
3003
0000
,
1001
0001
1000
0010
,
0100
0001
0100
0001
,
0010
0100
0010
0001
,
1000
0000
0002
2000
0000
0000
3003
0000
;

//---------------dance-single - Oni-91----------------
#NOTES:
     dance-single:
     :
     Beginner:
     1:
     0.136228,0.158856,0.073353,0.036677,0.000000,104.000000,96.000000,8.000000,4.000000,0.000000,0.000000,0.136228,0.158856,0.073353,0.036677,0.000000,104.000000,96.000000,8.000000,4.000000,0.000000,0.000000:
1000
0000
1000
0000
,
0001
0000
0001
0000
,
0100
0000
0100
0000
,
0010
0000
0100
0000
,
0110
0000
0000
0000
,
0001
0000
1000
0000
,
0100
0000
0100
0000
,
0010
0000
0010
0000
,
0110
0000
0000
0000
,
1000
0000
0000
0000
,
0001
0000
0001
0000
,
1000
0000
1000
0000
,
1001
0000
0000
0000
,
0001
0000
0100
0000
,
0001
0000
1000
0000
,
0100
0000
0100
0000
,
0110
0000
0010
0000
,
0001
0000
1000
0000
,
0010
0000
0100
0000
,
0010
0000
0010
0000
,
1000
1000
1000
0000
,
0001
0001
0001
0000
,
1000
0000
0100
0000
,
0010
0000
0001
0000
,
1000
1000
1000
0000
,
0001
0001
0001
0000
,
1000
0000
0010
0000
,
0100
0000
0001
0000
,
1000
0000
0001
0000
,
0100
0000
0010
0000
,
1000
0000
0001
0001
,
0002
0000
0000
0003
,
1001
0000
1000
0000
,
0001
0000
0100
0000
,
0010
0000
0100
0000
,
0001
0000
1000
0000
,
1001
0000
0001
0000
,
0010
0000
0100
0000
,
0010
0000
0001
0000
,
0100
0000
0000
0000
,
0010
0000
1000
0000
,
0200
0000
0300
0000
,
0110
0000
0010
0000
,
0001
0000
1000
0000
,
0100
0000
1000
0000
,
0002
0000
0003
0000
,
1001
0000
1000
0000
,
0001
0000
0100
0000
,
0010
0000
1000
0000
,
0002
0000
0003
0000
;
