#TITLE:Still In Love With You;
#SUBTITLE:;
#ARTIST:Electro Velvet;
#TITLETRANSLIT:;
#SUBTITLETRANSLIT:;
#ARTISTTRANSLIT:;
#GENRE:;
#CREDIT:;
#BANNER:Still In Love With You.png;
#BACKGROUND:Still In Love With You-bg.PNG;
#LYRICSPATH:;
#CDTITLE:;
#MUSIC:Still In Love With You.mp3;
#OFFSET:-0.020000;
#SAMPLESTART:28.730000;
#SAMPLELENGTH:16.370001;
#SELECTABLE:YES;
#BPMS:0.000000=117.000000
;
#STOPS:
;
#BGCHANGES:0.000=Still In Love With You.avi=1.000=1=0=0=StretchNoLoop==CrossFade==,
99999=-nosongbg-=1.000=0=0=0 // don't automatically add -songbackground-
;
#KEYSOUNDS:;
#ATTACKS:;

//---------------dance-single - Oni-91----------------
#NOTES:
     dance-single:
     :
     Hard:
     6:
     0.386365,0.361685,0.169035,0.178978,0.034801,272.000000,255.000000,17.000000,18.000000,0.000000,0.000000,0.386365,0.361685,0.169035,0.178978,0.034801,272.000000,255.000000,17.000000,18.000000,0.000000,0.000000:
0000
0000
0000
0000
,
0000
0000
0000
0000
,
1001
0000
1000
0000
0001
0100
0001
0000
,
1000
0000
0010
0100
0010
1000
0001
0000
,
0010
0001
1000
0100
1000
0000
0001
0000
,
1000
0001
0100
0000
0220
0000
0330
0000
,
0010
1000
0200
0000
0001
0000
1300
0000
,
0001
1000
0020
0000
0001
0000
0130
0000
,
0010
0100
0001
1000
0200
0000
0310
0000
,
0010
0001
0100
0000
0010
1000
0001
0000
,
1000
0100
0010
0001
2000
0000
3001
0000
,
0001
0100
0010
1000
0002
0000
0013
0000
,
0001
0100
0010
0000
0100
0001
1000
0000
,
0001
0010
0001
0010
0100
0000
1001
0000
,
0110
0000
0000
0000
0001
0000
0000
0000
1000
0000
0000
0100
0000
0000
1000
0000
,
0100
0000
0000
0000
0010
0000
0000
0000
0001
0000
0000
0100
0000
0000
0001
0000
,
0100
0000
0000
0000
0010
0000
1000
0000
0001
0000
0000
1000
0000
0000
0001
0000
,
1000
0100
1000
0000
0001
0100
0001
0000
,
1000
0100
0010
0001
0100
0000
0101
0000
,
0001
1000
0010
1000
0100
0000
0011
0000
,
1000
0001
1000
0000
0100
0010
0100
0000
,
0010
0001
1000
0001
0200
0000
0300
0000
,
0010
0000
1001
0000
1000
0100
0010
0000
,
0100
0000
1001
0000
0001
0100
0010
0000
,
1000
0010
1000
0000
0001
0100
0001
0000
,
1000
0000
0000
0100
0000
0000
0010
0000
0000
0001
0000
0000
1001
0000
0000
0000
,
1000
0000
0001
0100
0002
0000
0013
0000
,
0001
0100
0010
1000
0200
0000
0310
0000
,
0100
0010
0001
0000
0100
0010
1000
0000
,
0001
1000
0010
0100
0002
0000
1003
0000
,
0010
1010
1000
1001
,
0001
0011
0010
0110
,
0100
1001
0010
0101
,
0010
1000
0010
1000
0002
0000
0003
0000
,
1000
0000
0001
0100
0001
1000
0001
0000
,
1000
0000
0100
1000
0100
0010
0100
0000
,
0010
0010
0001
0100
0001
0100
0010
0000
,
1000
0001
1000
0000
0220
0000
0330
0000
,
0010
1000
0100
0000
1000
0000
0001
0000
,
1000
0001
0100
0000
0010
0100
0001
0000
,
0010
0001
1000
0000
0010
1000
0100
0000
,
0010
0000
0000
0100
0000
0000
0010
0000
0000
0100
0000
0000
0010
0000
0001
0000
,
1000
0000
0001
0100
0001
0000
1000
0000
,
0010
0100
0001
0010
0100
0000
0010
0000
,
0001
0010
0001
0010
0100
1000
0100
0000
,
1000
0010
1000
0001
2000
0000
3001
0000
,
0001
0010
0001
1000
0002
0000
1003
0000
,
1000
0001
1000
0001
1000
0000
2002
0000
,
0000
0000
3003
0000
;

//---------------dance-single - Oni-91----------------
#NOTES:
     dance-single:
     :
     Medium:
     5:
     0.340911,0.337572,0.149148,0.318183,0.000000,240.000000,225.000000,15.000000,32.000000,0.000000,0.000000,0.340911,0.337572,0.149148,0.318183,0.000000,240.000000,225.000000,15.000000,32.000000,0.000000,0.000000:
0000
0000
0000
0000
,
0000
0000
0000
0000
,
1000
0000
0100
0000
0001
0100
0001
0000
,
1000
0000
0001
0000
1000
0100
1000
0000
,
0001
0000
0100
0010
0100
0000
0001
0000
,
1000
0100
1000
0000
2002
0000
3003
0000
,
0002
0000
0010
0010
0010
0000
1003
0000
,
0200
0000
0010
0010
0010
0000
0301
0000
,
1000
1000
2000
0000
0010
0000
3001
0000
,
1000
0100
0010
0000
0001
0100
0010
0000
,
0200
0000
0001
0001
0001
0000
0310
0000
,
0002
0000
1000
1000
1000
0000
0013
0000
,
1000
0100
1000
0000
0001
0100
0001
0000
,
0100
0010
0100
0000
2002
0000
3003
0000
,
0001
0000
1000
0100
2000
0000
0010
0000
,
3001
0000
0100
0010
0200
0000
0001
0000
,
0310
0000
0001
0100
0020
0000
1030
0000
,
0100
0010
0100
0000
1000
0001
1000
0000
,
0002
0000
0010
0010
0010
0000
0103
0000
,
0020
0000
1000
1000
1000
0000
0130
0000
,
1000
0010
1000
0000
0001
0100
0001
0000
,
1000
0001
2002
3003
,
1000
0000
0100
0000
0010
0001
0100
0000
,
0001
0000
0100
0000
0010
1000
0010
0000
,
1000
0001
1000
0000
0001
0100
0001
0000
,
1000
0000
0001
0000
1000
0000
0100
0100
,
0100
0000
1000
0000
0010
0100
0020
0000
,
1030
0000
0100
0000
0010
0001
0020
0000
,
0031
0000
1000
0000
0001
0100
0001
0000
,
1000
0100
1000
0001
0200
0000
0300
0000
,
0001
1001
1000
1001
,
0001
0101
0100
0110
,
0010
1000
0100
0010
,
0001
1000
0220
0330
,
0001
1000
0200
0000
0010
0000
1300
0000
,
0001
0100
0020
0000
1000
0000
0130
0000
,
1000
0001
0100
0000
0001
1000
0100
0000
,
0011
1100
2002
3003
,
0001
0000
0100
0000
0001
0100
0001
0000
,
1000
0000
0100
0000
1000
0100
1000
0000
,
0001
0100
1000
0100
,
0001
0000
1000
0000
0001
0010
0100
0010
,
0001
0000
1000
0001
2000
0000
3010
0000
,
0001
0000
0100
0010
0200
0000
0301
0000
,
1000
0100
0010
0000
0001
0100
0010
0000
,
0110
1001
0220
0330
,
0001
1000
0001
1000
0002
0000
0003
0000
,
1000
0001
1000
0001
0100
0000
0220
0000
,
0000
0000
0330
0000
;

//---------------dance-single - Oni-91----------------
#NOTES:
     dance-single:
     :
     Easy:
     2:
     0.160512,0.192899,0.039773,0.039773,0.000000,113.000000,109.000000,4.000000,4.000000,0.000000,0.000000,0.160512,0.192899,0.039773,0.039773,0.000000,113.000000,109.000000,4.000000,4.000000,0.000000,0.000000:
0000
0000
0000
0000
,
0000
0000
0000
0000
,
1000
0000
0000
0000
,
0001
0000
0000
0000
,
1000
0000
0001
0000
,
0100
0100
0100
0000
,
1001
0000
0001
0000
,
0100
0000
0001
0000
,
1000
0000
0100
0000
,
0010
0010
0100
0100
,
0010
0000
0001
0000
,
1000
0000
0001
0000
,
1000
0000
1000
0000
,
0001
0001
0002
0003
,
1000
0000
0001
0000
,
0100
0010
0100
0000
,
0001
0000
1000
0000
,
0100
0010
0100
0000
,
0010
0000
0001
0000
,
1000
0000
0100
0000
,
1000
0000
0001
0000
,
0100
0100
0100
0000
,
1001
0000
0100
0000
,
0010
0000
1000
0000
,
0001
0000
0010
0000
,
0200
0000
0310
0000
,
0001
0000
1000
0000
,
0010
0000
0100
0000
,
0001
0000
0001
0000
,
1000
1000
1000
0000
,
1001
0000
0001
0000
,
0001
0000
0001
0000
,
0100
0000
0100
0000
,
0100
0000
0010
0010
,
1000
0000
0001
0000
,
0010
0000
0100
0000
,
0010
0000
0001
0000
,
0100
0100
0100
0000
,
1000
1000
1000
0000
,
0001
0001
0001
0000
,
0100
0100
0100
0000
,
0010
0010
0010
0000
,
1000
0000
0100
0000
,
1000
0000
0001
0000
,
0010
0010
0010
0000
,
0100
0100
0100
0000
,
0001
1000
0001
0000
,
0100
0010
0100
0220
,
0000
0000
0330
0000
;

//---------------dance-single - Oni-91----------------
#NOTES:
     dance-single:
     :
     Beginner:
     1:
     0.119319,0.166176,0.029830,0.000000,0.000000,84.000000,81.000000,3.000000,0.000000,0.000000,0.000000,0.119319,0.166176,0.029830,0.000000,0.000000,84.000000,81.000000,3.000000,0.000000,0.000000,0.000000:
0000
0000
0000
0000
,
0000
0000
0000
0000
,
1000
0000
0000
0000
,
0001
0000
0000
0000
,
1000
0000
0001
0000
,
0100
0100
0100
0000
,
0010
0000
0000
0000
,
0100
0000
0000
0000
,
0010
0000
0100
0000
,
0010
0000
1000
0000
,
0001
0000
0000
0000
,
1000
0000
0000
0000
,
0001
0000
1000
0000
,
0100
0100
0100
0000
,
1000
0000
0000
0000
,
0001
0000
0000
0000
,
0010
0000
0001
0000
,
0100
0000
0010
0000
,
0100
0000
0000
0000
,
0010
0000
0000
0000
,
1000
0000
0001
0000
,
1000
1000
1000
0000
,
0001
0000
0010
0000
,
0100
0000
1000
0000
,
0010
0000
0100
0000
,
0001
0000
1000
0000
,
0001
0000
0000
0000
,
1000
0000
0000
0000
,
0001
0000
1000
0000
,
0100
0100
0100
0000
,
1001
0000
0000
0000
,
0010
0000
0000
0000
,
0100
0000
0000
0000
,
0001
0000
1000
0000
,
0001
0000
0000
0000
,
0010
0000
0000
0000
,
0100
0000
0000
0000
,
0010
0010
0010
0000
,
0001
0000
1000
0000
,
0001
0000
1000
0000
,
0010
0000
0100
0000
,
0010
0000
0010
0000
,
1001
0000
0000
0000
,
0110
0000
0000
0000
,
0001
0000
1000
0000
,
0100
0100
0100
0000
,
1000
1000
1000
0000
,
0001
0001
0001
0001
;

//---------------dance-single - Oni-91----------------
#NOTES:
     dance-single:
     :
     Challenge:
     8:
     0.474434,0.458134,0.338070,0.188921,0.238637,334.000000,300.000000,34.000000,19.000000,0.000000,0.000000,0.474434,0.458134,0.338070,0.188921,0.238637,334.000000,300.000000,34.000000,19.000000,0.000000,0.000000:
// measure 0
0000
0000
0000
0000
,  // measure 1
0000
0000
0000
0000
,  // measure 2
1001
0000
0000
0000
1000
0000
0001
0000
0100
0010
0000
0010
0000
0000
0000
0000
,  // measure 3
1001
0000
0000
0000
1000
0000
0001
0000
0010
0100
0000
0100
0000
0000
0000
0000
,  // measure 4
1000
0000
0001
0000
0100
0000
0010
0000
1000
0000
0000
2002
0000
0000
3003
0000
,  // measure 5
0010
0000
0001
0000
0100
0010
0000
2020
0000
0000
3030
0000
1000
0000
0001
0000
,  // measure 6
0010
0001
0101
0000
0010
0000
1001
0000
,  // measure 7
1000
0100
0110
0000
1000
0000
1001
0000
,  // measure 8
0001
0100
0010
1000
0100
0010
0011
0000
,  // measure 9
0001
0100
1000
0001
1000
0100
0001
1000
,  // measure 10
0001
0010
0100
0010
0001
0000
1001
0000
,  // measure 11
1000
0000
0010
0000
0001
0000
0010
0000
0100
0000
0000
0010
0000
0000
0100
0000
,  // measure 12
0001
1000
1100
0000
1000
0001
0101
0000
,  // measure 13
1000
0001
0000
2000
0000
0000
0100
0000
3100
0000
0000
0000
1000
0000
0001
0000
,  // measure 14
0101
0000
0000
0000
0100
0000
0001
0000
1000
0000
0000
0100
0000
0000
1000
0000
,  // measure 15
0100
0000
0000
0000
0010
0000
0001
0000
0100
0000
0000
0001
0000
0000
1000
0000
,  // measure 16
0001
0000
0100
0000
1000
0000
0100
0000
0010
0000
0000
0100
0000
0000
0010
0000
,  // measure 17
1000
0100
0001
0100
0010
0100
1000
0001
,  // measure 18
0101
0000
0000
0000
0010
0000
1000
0000
0100
0000
0000
1000
0000
0000
0001
0000
,  // measure 19
0010
0000
0000
0000
0001
0000
1000
0001
1000
0000
0000
0001
0000
0000
0100
0000
,  // measure 20
0010
0000
0100
0000
0001
0000
1000
0100
0000
1000
0000
0100
0000
0000
0010
0000
,  // measure 21
0001
1000
0000
0002
0000
0000
0100
0000
0200
0000
0000
0000
0303
0000
0000
0000
,  // measure 22
0001
0010
1100
0000
1000
0000
0101
0000
,  // measure 23
0010
0100
1001
0000
0010
0000
1100
0100
,  // measure 24
0010
0001
0100
1000
0100
0001
1000
0001
,  // measure 25
1000
0000
0000
0100
0000
0000
0001
0000
0000
0100
0000
0000
1000
0000
0001
0000
,  // measure 26
0100
0000
0000
0100
0001
0000
1000
0000
0100
0000
0010
0000
0001
0000
0000
0000
,  // measure 27
1000
0000
0000
0001
1000
0000
0001
0100
0010
0000
0100
0000
0001
0000
0100
0000
,  // measure 28
0010
1000
0100
0001
0100
0010
0001
0100
,  // measure 29
0001
1000
0000
0020
0000
0000
0100
0000
0200
0000
0000
0000
0330
0000
0000
0000
,  // measure 30
1000
0000
0101
0000
0001
0010
1100
0000
,  // measure 31
1000
0001
0110
0000
0010
0000
1001
0000
,  // measure 32
1000
0000
0100
0000
0010
0000
0001
0000
0010
0000
0000
0011
0000
0000
0000
0000
,  // measure 33
0001
0000
0000
0101
0000
0000
0000
0000
1000
0000
0000
1100
0000
0000
0100
0000
,  // measure 34
1001
0000
0000
0000
0001
0000
0100
0000
0001
1000
0000
0001
0100
0000
0000
0000
,  // measure 35
0010
0000
1000
0100
1000
0000
0010
0100
0000
0010
0000
0100
0001
0000
0000
0000
,  // measure 36
0001
0000
1000
0000
0100
0000
1000
0000
0001
1000
0000
0001
1000
0000
0000
0000
,  // measure 37
0001
0000
0010
0000
0001
1000
0000
2002
0000
0000
0000
0000
3003
0000
0000
0000
,  // measure 38
0001
0100
0010
1000
0100
0010
1001
0000
,  // measure 39
0001
0100
0010
1000
0001
1000
0110
0000
,  // measure 40
0001
1000
0100
0010
0001
0100
0001
1000
,  // measure 41
0001
0000
0000
0001
0000
0000
1000
0000
0000
1000
0000
0000
0010
0000
0100
0000
,  // measure 42
0101
0000
0000
0000
0001
0000
1000
0000
0100
0000
0010
0002
0000
0000
0103
0000
,  // measure 43
0001
0000
0100
0000
0010
0000
1000
0000
0100
0000
1000
0002
0000
0000
0013
0000
,  // measure 44
0100
0000
0010
0000
0001
0000
0100
0010
0000
1000
0000
0001
0000
0000
0100
0000
,  // measure 45
0010
1000
0100
0010
2002
0000
3003
0000
,  // measure 46
0001
0100
0001
1000
0220
0000
0330
0000
,  // measure 47
1000
0001
1000
0001
0110
0000
2002
0000
,  // measure 48
0000
0000
3003
0000
;
