#TITLE:Sound of Our Hearts;
#SUBTITLE:;
#ARTIST:Compact Disco;
#TITLETRANSLIT:;
#SUBTITLETRANSLIT:;
#ARTISTTRANSLIT:;
#GENRE:;
#CREDIT:;
#BANNER:Sound of Our Hearts.png;
#BACKGROUND:Sound of Our Hearts-bg.png;
#LYRICSPATH:;
#CDTITLE:;
#MUSIC:Sound of Our Hearts.mp3;
#OFFSET:-6.020000;
#SAMPLESTART:39.060001;
#SAMPLELENGTH:12.000000;
#SELECTABLE:YES;
#DISPLAYBPM:80.000000;
#BPMS:0.000000=80.000000
,121.000000=74.000000
,122.000000=73.000000
,123.000000=70.000000
;
#STOPS:
;
#BGCHANGES:;
#KEYSOUNDS:;
#ATTACKS:;

//---------------dance-single - Oni-91----------------
#NOTES:
     dance-single:
     :
     Hard:
     6:
     0.308655,0.309811,0.237950,0.123734,0.109457,227.000000,202.000000,25.000000,13.000000,0.000000,0.000000,0.308655,0.309811,0.237950,0.123734,0.109457,227.000000,202.000000,25.000000,13.000000,0.000000,0.000000:
// measure 0
0000
0000
1000
1000
0000
0000
0010
0010
,  // measure 1
0000
0000
0000
2002
0000
0000
3003
0000
,  // measure 2
0220
0000
0330
0000
0010
1000
0100
0001
,  // measure 3
0100
0000
1100
0000
1000
0001
0010
0100
,  // measure 4
0010
0000
1001
0000
1000
0000
0010
0100
,  // measure 5
0001
0000
1001
0000
1000
0100
0010
0100
,  // measure 6
0001
1100
2010
3001
,  // measure 7
0001
0100
1000
0000
0100
0001
1000
0100
,  // measure 8
0010
1001
1020
0130
,  // measure 9
0010
1000
0100
0000
0010
0001
1000
0001
,  // measure 10
2002
0000
0000
0000
0000
0000
0000
3003
,  // measure 11
1001
0000
0000
0000
1000
0010
1000
0020
0000
0000
0100
0000
0100
0000
0130
0000
,  // measure 12
0000
0000
1001
0000
1000
0100
0010
0001
,  // measure 13
1000
0000
0000
0000
0001
0100
0001
0200
0000
0000
0010
0000
0010
0000
0310
0000
,  // measure 14
0000
0000
0010
1000
0100
0010
0001
0010
,  // measure 15
0011
0000
0000
0000
0001
1000
0001
1000
0000
0000
0001
0000
1000
0000
0100
0000
,  // measure 16
0010
0010
0100
1000
0010
0000
0100
0001
,  // measure 17
1001
0000
0000
0000
1000
0100
1000
0100
0000
0000
1000
0000
0010
0000
0000
0100
,  // measure 18
0001
0000
1000
0000
0100
0000
0000
0010
0001
0000
1000
0000
0001
0000
1000
0000
,  // measure 19
0110
0000
0000
0000
0010
1000
0010
0100
0001
0000
0010
0000
0001
0000
1000
0000
,  // measure 20
0100
0000
0101
0000
0001
0100
1000
0010
,  // measure 21
0100
0000
0000
0000
0010
1000
0001
0010
0001
0000
1000
0000
0100
0000
0010
0000
,  // measure 22
0100
0000
0000
0000
1001
0000
0000
0000
1000
0000
0010
0000
0100
0000
0001
1000
,  // measure 23
0001
0000
0000
0000
1000
0100
0010
0100
1000
0000
0001
0000
0100
0000
1000
0000
,  // measure 24
0100
0100
0010
0020
0000
0000
1030
0001
,  // measure 25
1001
0000
0000
0000
1000
0010
0100
0001
0000
0000
0001
0000
0100
0000
0000
0100
,  // measure 26
0010
0000
1000
0000
0100
0000
0000
0100
0010
0000
0001
0000
2002
0000
3003
0000
,  // measure 27
1001
0000
1100
0100
0010
0100
1100
1000
,  // measure 28
0010
0001
0010
0100
0001
0010
0100
0010
,  // measure 29
1001
0000
1010
0010
0100
0001
0011
0010
,  // measure 30
0100
0000
1000
0000
0010
0000
0100
0000
0001
0000
0100
0000
0001
1000
0001
1000
,  // measure 31
0001
0000
0000
0000
;

//---------------dance-single - Oni-91----------------
#NOTES:
     dance-single:
     :
     Medium:
     5:
     0.212116,0.221294,0.104698,0.218914,0.000000,156.000000,145.000000,11.000000,23.000000,0.000000,0.000000,0.212116,0.221294,0.104698,0.218914,0.000000,156.000000,145.000000,11.000000,23.000000,0.000000,0.000000:
// measure 0
0000
0000
1000
1000
0000
0000
0001
0001
,  // measure 1
0000
0000
0000
2002
0000
0000
3003
0000
,  // measure 2
2002
3000
0010
0100
,  // measure 3
0020
0000
0033
0000
0001
1000
0001
2000
,  // measure 4
0020
3000
0100
1000
,  // measure 5
0200
0000
0330
0000
0001
0100
0001
0200
,  // measure 6
0002
0300
0010
1000
,  // measure 7
0200
0000
0303
0000
0001
0010
0001
1000
,  // measure 8
0200
0010
0001
0010
,  // measure 9
2000
0000
3300
0000
1000
0100
0010
0001
,  // measure 10
0020
0000
0000
0030
,  // measure 11
1001
0000
0001
0100
0001
0000
1000
0000
,  // measure 12
0200
0000
0300
0000
0010
0100
0010
0000
,  // measure 13
1000
0000
0001
0100
0010
0000
0100
0001
,  // measure 14
1000
0000
0001
0000
1000
0100
0010
0000
,  // measure 15
1001
0000
1000
0010
0100
0000
0010
0000
,  // measure 16
1000
0001
1000
0002
0000
0000
1003
0000
,  // measure 17
1001
0000
1000
0100
0010
0100
0010
0000
,  // measure 18
0001
0100
0010
0000
0100
0010
1000
0000
,  // measure 19
1002
0000
0103
0001
0100
0000
0010
1000
,  // measure 20
0100
0000
0101
0000
0100
1000
0001
0000
,  // measure 21
0200
0000
0310
0100
0001
0000
0001
0010
,  // measure 22
0100
0000
0110
0000
0010
0100
1000
0000
,  // measure 23
0001
0000
1000
0001
1000
0000
0001
0100
,  // measure 24
0001
1000
0100
0020
0000
0000
0130
0010
,  // measure 25
1001
0000
0001
0100
0001
0000
1000
0000
,  // measure 26
0100
1000
0100
0000
0010
0001
1000
0000
,  // measure 27
1001
0000
0010
0020
0000
0000
1030
2000
,  // measure 28
0001
0010
0100
3001
,  // measure 29
1000
0000
0100
0200
0000
0000
0310
0020
,  // measure 30
0001
0100
1000
0130
,  // measure 31
1001
0000
0000
0000
;

//---------------dance-single - Oni-91----------------
#NOTES:
     dance-single:
     :
     Easy:
     1:
     0.108777,0.118023,0.057108,0.019036,0.000000,80.000000,74.000000,6.000000,2.000000,0.000000,0.000000,0.108777,0.118023,0.057108,0.019036,0.000000,80.000000,74.000000,6.000000,2.000000,0.000000,0.000000:
// measure 0
0000
1000
0000
0001
,  // measure 1
0000
0000
0000
1001
0000
0000
0000
0000
,  // measure 2
1001
0000
0001
0001
,  // measure 3
0001
0000
0100
0000
,  // measure 4
0010
0000
1000
1000
,  // measure 5
1000
0000
0001
0000
,  // measure 6
1000
0000
0001
0001
,  // measure 7
0001
0000
1000
0000
,  // measure 8
0100
0000
0010
0010
,  // measure 9
0010
0000
0100
0000
,  // measure 10
2002
0000
0000
3003
,  // measure 11
1001
0000
1000
0000
,  // measure 12
0010
0000
0100
0000
,  // measure 13
0010
0000
0100
0000
,  // measure 14
0001
0000
1000
1000
,  // measure 15
1000
0000
0001
0000
,  // measure 16
0010
0010
0010
0000
,  // measure 17
0100
0000
0010
0000
,  // measure 18
1000
0000
0001
0001
,  // measure 19
1001
0000
1000
0000
,  // measure 20
0010
0000
0100
0100
,  // measure 21
0100
0000
0010
0000
,  // measure 22
0100
0000
0001
0001
,  // measure 23
0001
0000
1000
0000
,  // measure 24
0001
0000
1000
0000
,  // measure 25
0100
0000
0010
0000
,  // measure 26
0001
0000
1000
1000
,  // measure 27
0001
0100
0000
0100
,  // measure 28
0100
0000
0010
0000
,  // measure 29
1000
1000
0000
1000
,  // measure 30
1000
0000
0001
1000
,  // measure 31
1001
0000
0000
0000
;

//---------------dance-single - Oni-91----------------
#NOTES:
     dance-single:
     :
     Beginner:
     1:
     0.076144,0.088517,0.057108,0.000000,0.000000,56.000000,50.000000,6.000000,0.000000,0.000000,0.000000,0.076144,0.088517,0.057108,0.000000,0.000000,56.000000,50.000000,6.000000,0.000000,0.000000,0.000000:
// measure 0
0000
0000
0000
0000
,  // measure 1
0000
0000
0000
0000
,  // measure 2
1001
0000
0000
0000
,  // measure 3
0001
0000
1000
0000
,  // measure 4
0001
0000
0000
0000
,  // measure 5
0100
0000
0010
0000
,  // measure 6
0100
0000
0000
0000
,  // measure 7
0010
0000
1000
0000
,  // measure 8
0001
0000
0000
0000
,  // measure 9
1000
0000
0001
0000
,  // measure 10
1001
0000
0000
0000
,  // measure 11
1001
0000
0001
0000
,  // measure 12
0100
0000
0010
0000
,  // measure 13
0100
0000
0001
0000
,  // measure 14
1000
0000
0100
0000
,  // measure 15
0010
0000
0000
0000
,  // measure 16
0100
0000
1000
0000
,  // measure 17
0001
0000
1000
0000
,  // measure 18
0001
0000
1000
0000
,  // measure 19
1001
0000
0000
0000
,  // measure 20
0001
0000
0100
0000
,  // measure 21
0010
0000
0000
0000
,  // measure 22
1000
0000
0100
0000
,  // measure 23
0010
0000
0001
0000
,  // measure 24
0100
0000
0001
0000
,  // measure 25
1000
0000
0010
0000
,  // measure 26
0100
0000
0100
0000
,  // measure 27
0110
0000
0000
0000
,  // measure 28
0010
0000
1000
0000
,  // measure 29
0001
0000
0000
0000
,  // measure 30
1000
0000
0001
0001
,  // measure 31
1001
0000
0000
0000
;
