#TITLE:Soul On Fire;
#SUBTITLE:;
#ARTIST:L.E.D.-G VS GUHROOVY fw NO+CHIN;
#TITLETRANSLIT:;
#SUBTITLETRANSLIT:;
#ARTISTTRANSLIT:;
#GENRE:;
#CREDIT:;
#BANNER:Soul On Fire.png;
#BACKGROUND:Soul On Fire-bg.png;
#LYRICSPATH:;
#CDTITLE:;
#MUSIC:Soul On Fire.mp3;
#OFFSET:-6.620000;
#SAMPLESTART:32.950001;
#SAMPLELENGTH:10.540000;
#SELECTABLE:YES;
#BPMS:0.000000=91.000000
,24.000000=182.000000
;
#STOPS:
;
#BGCHANGES:;
#KEYSOUNDS:;
#ATTACKS:;

//---------------dance-single - Oni-91----------------
#NOTES:
     dance-single:
     :
     Hard:
     9:
     0.611736,0.709660,0.524181,0.258058,0.068547,531.000000,466.000000,65.000000,32.000000,0.000000,0.000000,0.611736,0.709660,0.524181,0.258058,0.068547,531.000000,466.000000,65.000000,32.000000,0.000000,0.000000:
// measure 0
1000
0000
0001
0100
0001
0000
1000
0000
0100
0000
0010
0000
0100
0000
1000
0000
,  // measure 1
0001
0000
0000
1001
0000
0000
0001
1000
0000
1000
0001
0000
1000
0001
1000
0001
,  // measure 2
0200
0000
0000
1300
0000
0000
0100
0000
0002
0000
0000
0013
0000
0000
0100
0000
,  // measure 3
0010
0000
0001
1000
0000
1000
0001
0000
0100
0000
0000
0101
0000
0000
1001
0000
,  // measure 4
0001
0010
0100
1000
0100
0010
0100
1000
,  // measure 5
0001
0000
1000
0000
0001
0010
0001
0000
1000
0010
1000
0100
0010
0001
0100
0000
,  // measure 6
2002
0000
0000
3003
,  // measure 7
1000
0100
0010
0001
0100
0010
1000
0001
,  // measure 8
2002
0000
0000
3003
,  // measure 9
1000
0100
0001
0100
1000
0100
0010
0100
,  // measure 10
0220
0000
0000
0330
,  // measure 11
0010
0001
0010
0100
1000
0100
1000
0001
,  // measure 12
1001
0000
0000
0110
0000
0000
1001
0000
,  // measure 13
1000
0010
0100
0010
1000
0100
0010
0000
,  // measure 14
1000
0001
0100
0000
0010
2000
0000
0010
,  // measure 15
0000
3001
0000
1000
0001
0010
0100
1000
,  // measure 16
0100
0000
0010
0001
0100
0000
0010
1000
,  // measure 17
0100
0000
0010
0001
0100
0000
0110
0000
,  // measure 18
0010
1000
0001
0000
1000
0200
0000
0001
,  // measure 19
0000
1300
0000
1000
0100
0010
0001
0010
,  // measure 20
0001
0000
0100
0000
0101
0000
0001
1000
,  // measure 21
0100
0010
0100
0000
1100
0000
1001
0000
,  // measure 22
0101
0001
0100
0010
0100
0002
0000
0100
,  // measure 23
0000
1003
0000
1000
0100
0010
0001
0000
,  // measure 24
1001
0000
1000
0010
0001
0000
1000
0100
,  // measure 25
0001
1000
0100
0000
0011
0000
1100
0000
,  // measure 26
1000
0100
0010
0100
1000
0002
0000
0010
,  // measure 27
0000
0103
0000
0100
0001
1000
0100
0010
,  // measure 28
0011
0000
0101
0000
1010
0000
1000
0002
,  // measure 29
0000
1000
2000
3003
,  // measure 30
1000
0001
1001
0000
0000
1000
0000
0001
,  // measure 31
0000
0010
0000
0001
0010
0100
1000
0000
,  // measure 32
0100
1000
1001
0000
0000
0001
0000
0100
,  // measure 33
0000
0001
0010
0001
0100
0010
1000
0000
,  // measure 34
0100
1000
1001
0000
0001
0000
1000
0010
,  // measure 35
1000
0001
0100
0000
0001
1000
0000
0000
,  // measure 36
1000
0000
0100
0000
0010
0000
0011
0000
0000
1001
0000
0000
,  // measure 37
1000
0100
0010
0001
0100
1000
0100
0001
,  // measure 38
1001
0000
1000
0100
0010
0000
0100
1000
,  // measure 39
0000
1001
0000
0001
0100
0010
1000
0000
,  // measure 40
0001
1000
0100
0010
0100
0010
0001
1001
,  // measure 41
0000
1100
0000
0100
0001
0000
0110
0000
,  // measure 42
1000
0001
1000
0000
0001
0100
0010
1000
,  // measure 43
0000
1000
0100
0001
0100
1000
0010
0000
,  // measure 44
0110
0000
1001
0000
1000
0100
0010
0001
,  // measure 45
1000
0100
1000
0001
0101
0000
1001
0000
,  // measure 46
1000
0100
1000
0000
0001
0100
0000
0110
,  // measure 47
0000
1001
0000
1000
0100
0010
0001
0000
,  // measure 48
1000
0010
1000
0001
0100
0010
0000
0110
,  // measure 49
0000
1001
0000
1000
0100
0010
0100
0000
,  // measure 50
0010
0001
1000
0100
1000
0000
0001
0100
,  // measure 51
0020
1000
0001
1030
,  // measure 52
1000
0100
0001
0100
1000
0100
0010
0001
,  // measure 53
0100
1010
0101
1001
,  // measure 54
1000
0001
2000
0000
3001
0002
0000
0103
,  // measure 55
0200
0000
0310
1000
0100
0110
0000
1001
,  // measure 56
0001
0100
0002
0000
1003
2000
0000
3100
,  // measure 57
0200
0000
0310
0100
1000
0100
0010
0000
,  // measure 58
0001
1000
1001
0000
0101
0101
0000
0110
,  // measure 59
0110
0000
1001
1001
0000
1100
1100
0000
,  // measure 60
0210
0010
0010
0010
,  // measure 61
0310
0100
0010
0100
0010
0100
0010
0100
,  // measure 62
0010
0100
1000
0010
0001
0010
1000
0100
,  // measure 63
0001
0100
1000
0100
0010
0001
0100
0000
,  // measure 64
1001
0000
0001
1000
0100
0000
0010
0100
,  // measure 65
0000
0100
0010
0001
0100
0000
0110
0000
,  // measure 66
0100
0001
0100
0010
1000
0100
0010
0100
,  // measure 67
0010
0001
0100
1000
0001
0010
1000
0000
,  // measure 68
2020
3030
0202
0303
,  // measure 69
0022
0033
2200
3300
,  // measure 70
1000
0100
0001
0100
0010
0001
0100
1000
,  // measure 71
0100
0001
0010
0100
0001
0010
0100
0000
,  // measure 72
1001
0000
1000
0010
0100
0000
0010
0100
,  // measure 73
0000
0100
0001
0010
0100
0000
0110
0000
,  // measure 74
0001
0010
0100
1000
0001
0100
1000
0100
,  // measure 75
0001
0010
0100
0010
0001
1000
0010
0000
,  // measure 76
1000
0001
1000
0001
0100
0001
0100
0001
,  // measure 77
0100
0010
0100
0010
0110
0000
1001
0000
,  // measure 78
0220
0000
0000
0000
,  // measure 79
0000
0000
0000
0330
,  // measure 80
0110
0000
0000
0000
;

//---------------dance-single - Oni-91----------------
#NOTES:
     dance-single:
     :
     Medium:
     7:
     0.446994,0.548374,0.266123,0.201608,0.008064,388.000000,355.000000,33.000000,25.000000,0.000000,0.000000,0.446994,0.548374,0.266123,0.201608,0.008064,388.000000,355.000000,33.000000,25.000000,0.000000,0.000000:
// measure 0
1000
0000
0001
0000
1000
0001
1001
0000
,  // measure 1
1000
0010
0100
0001
0010
0100
1100
0000
,  // measure 2
1002
0000
0013
0000
0010
0001
1001
0000
,  // measure 3
1000
0010
0100
0010
1000
0100
1000
0000
,  // measure 4
0001
0010
0100
1000
0100
0010
0001
0000
,  // measure 5
1000
0010
0100
0001
2000
0000
0000
3000
,  // measure 6
2002
0000
0000
3003
,  // measure 7
1000
0000
0001
0000
1000
0001
1000
0001
,  // measure 8
0200
0000
0000
0300
,  // measure 9
0010
0000
1000
0000
0001
0000
1000
0100
,  // measure 10
2000
0000
0000
3000
,  // measure 11
0001
0000
0100
0000
0010
0000
1000
0001
,  // measure 12
0010
0000
0000
0110
0000
0000
1001
0000
,  // measure 13
2002
0000
0000
3003
,  // measure 14
1000
0000
0001
0000
0100
0020
0000
0100
,  // measure 15
0000
0100
0000
0130
0010
0100
0001
0000
,  // measure 16
1000
0000
0100
1000
0001
0000
0100
0001
,  // measure 17
1000
0000
0100
1000
0001
0000
1000
0000
,  // measure 18
0001
0000
0100
0000
0010
2000
0000
0010
,  // measure 19
0000
0010
0000
3010
1000
0000
0001
0000
,  // measure 20
1000
0100
0011
0100
,  // measure 21
1000
0001
0110
0101
,  // measure 22
1001
0000
1000
0000
0100
2000
0000
0010
,  // measure 23
0000
0001
0000
0100
3100
0000
1000
0000
,  // measure 24
0001
0000
0100
0010
0100
0000
0010
1000
,  // measure 25
0010
1000
0010
0000
1000
0000
0001
0000
,  // measure 26
0010
0000
0100
0000
0010
0002
0000
0010
,  // measure 27
0000
1000
0000
0100
0103
0000
0001
0000
,  // measure 28
1000
0000
0100
0000
1100
0000
1000
0001
,  // measure 29
0000
0001
1000
0000
2002
0000
3003
0000
,  // measure 30
0001
1000
0002
0000
0000
0000
0003
0000
,  // measure 31
0100
0010
1000
0001
,  // measure 32
1000
0010
2000
0000
0000
0000
3000
0000
,  // measure 33
0010
0100
0001
1000
,  // measure 34
0001
1000
0001
0000
1000
0000
0001
0000
,  // measure 35
1000
0100
1000
0000
0100
1000
0000
0000
,  // measure 36
1000
0000
0001
0000
1000
0000
0002
0000
0000
0003
0000
0000
,  // measure 37
1000
0010
0220
0330
,  // measure 38
1000
0000
0001
0000
1000
0000
0001
0010
,  // measure 39
0000
0100
0000
0010
0001
0000
1000
0000
,  // measure 40
0001
0000
0100
0000
0010
0000
1000
0010
,  // measure 41
0000
0100
0000
0010
1000
0000
0001
0000
,  // measure 42
1001
1000
0100
0010
,  // measure 43
0100
0010
0001
0100
,  // measure 44
1010
0000
1001
0000
1000
0100
0000
0110
,  // measure 45
0000
0010
0001
1000
0001
0000
0100
0000
,  // measure 46
0110
0000
0010
0000
1000
0000
0001
1000
,  // measure 47
0000
0001
1000
0001
0000
1000
0100
0000
,  // measure 48
0010
0000
0001
0000
1000
0000
0001
0100
,  // measure 49
0000
0010
1000
0010
1000
0000
0001
0000
,  // measure 50
1000
0000
0100
0010
0100
0000
1000
0000
,  // measure 51
0002
0010
1000
0103
,  // measure 52
0001
0000
1000
0000
1001
0000
0001
1000
,  // measure 53
0001
1000
0200
0300
,  // measure 54
1000
0001
1000
0000
1001
0000
0001
1000
,  // measure 55
0000
1000
0001
0000
0001
1000
0000
0000
,  // measure 56
0001
0100
0001
0000
0101
0000
0100
0001
,  // measure 57
0000
0001
0100
0000
0100
0001
0000
0000
,  // measure 58
0100
0010
0100
0000
0110
0000
0010
0100
,  // measure 59
0000
0100
0010
0000
0010
0100
0000
0000
,  // measure 60
2002
0000
0000
0000
,  // measure 61
0000
0000
0000
3003
,  // measure 62
1100
0000
1000
0000
0100
0010
0100
0000
,  // measure 63
0010
0000
0001
0100
0000
0100
0001
0000
,  // measure 64
1000
0000
0010
0000
0100
0010
0100
0000
,  // measure 65
0010
1000
0010
0000
1000
0001
1000
0000
,  // measure 66
0001
0000
0010
0000
0001
0100
0010
0000
,  // measure 67
0100
0000
0010
1000
0000
1000
0001
0000
,  // measure 68
1000
0000
0100
0000
0010
0000
0100
1000
,  // measure 69
0100
1000
0001
0100
,  // measure 70
0110
0000
0010
0000
1000
0000
0010
1000
,  // measure 71
0000
1000
0001
0000
0010
0001
0010
0000
,  // measure 72
0100
1000
0001
0000
1000
0000
0001
0100
,  // measure 73
0000
0100
0001
0010
0100
0000
0110
0000
,  // measure 74
0010
0001
1000
0000
0001
1000
0000
0101
,  // measure 75
0000
1001
0000
1000
0100
0010
0001
0000
,  // measure 76
1000
0001
1000
0000
0001
0010
0001
0000
,  // measure 77
1000
0100
1000
0001
0100
0000
0110
0000
,  // measure 78
2002
0000
0000
0000
,  // measure 79
0000
0000
0000
3003
,  // measure 80
1001
0000
0000
0000
;

//---------------dance-single - Oni-91----------------
#NOTES:
     dance-single:
     :
     Easy:
     5:
     0.299532,0.387087,0.185479,0.161286,0.000000,260.000000,237.000000,23.000000,20.000000,0.000000,0.000000,0.299532,0.387087,0.185479,0.161286,0.000000,260.000000,237.000000,23.000000,20.000000,0.000000,0.000000:
// measure 0
1000
0001
0100
0010
,  // measure 1
1000
0000
0100
0000
0010
0010
0010
0000
,  // measure 2
2002
3003
0220
0330
,  // measure 3
0010
1000
0100
0010
,  // measure 4
0100
1000
0001
0100
,  // measure 5
0010
1000
0002
0003
,  // measure 6
2002
0000
0000
3003
,  // measure 7
1000
0100
1000
0001
,  // measure 8
2002
0000
0000
3003
,  // measure 9
0001
0100
0010
0100
,  // measure 10
0220
0000
0000
0330
,  // measure 11
0010
1000
0100
0010
,  // measure 12
1001
0000
0000
1001
0000
0000
1001
0000
,  // measure 13
2002
0000
0000
3003
,  // measure 14
1000
0100
1000
0000
,  // measure 15
0001
0100
0001
0000
,  // measure 16
1000
0100
0010
0001
,  // measure 17
0100
0010
0100
0000
,  // measure 18
0001
0100
0001
0000
,  // measure 19
1000
0010
1000
0000
,  // measure 20
0001
0010
0100
0010
,  // measure 21
0001
1000
0010
1000
,  // measure 22
0001
0010
0001
0000
,  // measure 23
1000
0010
1000
0000
,  // measure 24
0001
1000
0100
0010
,  // measure 25
0001
0100
0010
0010
,  // measure 26
1000
0001
1000
0000
,  // measure 27
0001
1000
0001
0000
,  // measure 28
1000
0100
1000
0001
,  // measure 29
0100
0010
0100
0001
,  // measure 30
1001
0000
1000
0000
,  // measure 31
0100
0010
0100
0000
,  // measure 32
0010
0000
0001
0000
,  // measure 33
1000
0001
1000
0000
,  // measure 34
0001
1000
0100
0000
,  // measure 35
0010
0100
0010
0010
,  // measure 36
0001
1000
0001
0000
,  // measure 37
1000
0001
1000
0001
,  // measure 38
1001
0000
1000
0000
,  // measure 39
0010
0100
0010
0000
,  // measure 40
0100
0000
0001
0000
,  // measure 41
0010
0100
0010
0001
,  // measure 42
1000
0000
0001
0000
,  // measure 43
0100
0000
0010
0000
,  // measure 44
0100
0000
0001
1000
,  // measure 45
0100
0010
0001
0100
,  // measure 46
1001
0000
1000
0001
,  // measure 47
1000
0001
0100
0000
,  // measure 48
0010
0000
0100
0010
,  // measure 49
0100
0001
1000
0100
,  // measure 50
0010
0000
0100
0010
,  // measure 51
0100
1000
0001
0000
,  // measure 52
1000
0001
1000
0001
,  // measure 53
0100
0010
0100
0000
,  // measure 54
2000
0000
0010
0000
0001
0000
0000
0001
,  // measure 55
0000
0000
0001
0000
0000
3001
0000
0000
,  // measure 56
0002
0000
0010
0000
1000
0000
0000
1000
,  // measure 57
0000
0000
1000
0000
0000
1003
0000
0000
,  // measure 58
2000
0000
0100
0000
0001
0000
0000
0001
,  // measure 59
0000
0000
0001
0000
0000
3001
0000
0000
,  // measure 60
0220
0000
0000
0000
,  // measure 61
0000
0000
0000
0330
,  // measure 62
0010
1000
0100
0001
,  // measure 63
0100
1000
0001
0000
,  // measure 64
0100
0001
0100
0000
,  // measure 65
0010
1000
0010
0000
,  // measure 66
1000
0100
0010
0001
,  // measure 67
0100
0010
1000
0000
,  // measure 68
1001
0000
1001
0000
,  // measure 69
0110
0000
0110
0000
,  // measure 70
0010
1000
0010
0100
,  // measure 71
0001
0100
0001
0000
,  // measure 72
1000
0100
1000
0000
,  // measure 73
0001
0010
0001
0000
,  // measure 74
1000
0100
0001
0100
,  // measure 75
1000
0010
0100
0000
,  // measure 76
1001
0000
1001
0000
,  // measure 77
0110
0000
0110
0000
,  // measure 78
2002
0000
0000
0000
,  // measure 79
0000
0000
0000
3003
,  // measure 80
1001
0000
0000
0000
;

//---------------dance-single - Oni-91----------------
#NOTES:
     dance-single:
     :
     Beginner:
     2:
     0.153222,0.225801,0.137093,0.016129,0.000000,133.000000,116.000000,17.000000,2.000000,0.000000,0.000000,0.153222,0.225801,0.137093,0.016129,0.000000,133.000000,116.000000,17.000000,2.000000,0.000000,0.000000:
// measure 0
1001
0000
0000
0000
,  // measure 1
1000
0000
0010
0000
,  // measure 2
0110
0000
0000
0000
,  // measure 3
0100
0000
0010
0000
,  // measure 4
0100
0000
0000
0000
,  // measure 5
0001
0000
1000
0000
,  // measure 6
1001
0000
0000
0000
,  // measure 7
0000
0000
0000
0000
,  // measure 8
0110
0000
0000
0000
,  // measure 9
0000
0000
0000
0000
,  // measure 10
1001
0000
0000
0000
,  // measure 11
0000
0000
0000
0000
,  // measure 12
1001
0000
1001
0000
,  // measure 13
1001
0000
0000
0000
,  // measure 14
1000
0000
0100
0000
,  // measure 15
1000
0000
0001
0000
,  // measure 16
0100
0000
0000
0000
,  // measure 17
0010
0000
0000
0000
,  // measure 18
0100
0000
0010
0000
,  // measure 19
0100
0000
0001
0000
,  // measure 20
1000
0000
0000
0000
,  // measure 21
0001
0000
0000
0000
,  // measure 22
1000
0000
0100
0000
,  // measure 23
0010
0000
0001
0000
,  // measure 24
0100
0000
0000
0000
,  // measure 25
0010
0000
0000
0000
,  // measure 26
1000
0000
0010
0000
,  // measure 27
1000
0000
0001
0000
,  // measure 28
0100
0000
0000
0000
,  // measure 29
0001
0000
1000
0000
,  // measure 30
1001
0000
0000
0000
,  // measure 31
0001
0000
0000
0000
,  // measure 32
1000
0000
0000
0000
,  // measure 33
0100
0000
0000
0000
,  // measure 34
0010
0000
0100
0000
,  // measure 35
0010
0000
0000
0000
,  // measure 36
0001
0000
1000
0000
,  // measure 37
0001
0000
1000
0000
,  // measure 38
1001
0000
0000
0000
,  // measure 39
0001
0000
0000
0000
,  // measure 40
0100
0000
0010
0000
,  // measure 41
0100
0000
0000
0000
,  // measure 42
0010
0000
1000
0000
,  // measure 43
0010
0000
0000
0000
,  // measure 44
1000
0000
0001
0000
,  // measure 45
1000
0000
0100
0000
,  // measure 46
0110
0000
0000
0000
,  // measure 47
0010
0000
0001
0000
,  // measure 48
1000
0000
0010
0000
,  // measure 49
0100
0000
0001
0000
,  // measure 50
0100
0000
0000
0000
,  // measure 51
0001
0000
1000
0000
,  // measure 52
0001
0000
1000
0000
,  // measure 53
0001
1000
0001
0000
,  // measure 54
1001
0000
0000
0000
,  // measure 55
0000
0000
0000
0000
,  // measure 56
0110
0000
0000
0000
,  // measure 57
0000
0000
0000
0000
,  // measure 58
1001
0000
0000
0000
,  // measure 59
0000
0000
0000
0000
,  // measure 60
0110
0000
0000
0000
,  // measure 61
0000
0000
0000
0000
,  // measure 62
1000
0000
0100
0000
,  // measure 63
1000
0000
0001
0000
,  // measure 64
0100
0000
0100
0000
,  // measure 65
0100
0000
0100
0000
,  // measure 66
0010
0000
0100
0000
,  // measure 67
0001
0000
1000
0000
,  // measure 68
0001
0000
0001
0000
,  // measure 69
0001
0000
0001
0000
,  // measure 70
1000
0000
0100
0000
,  // measure 71
0010
0000
0001
0000
,  // measure 72
1000
0000
1000
0000
,  // measure 73
1000
0000
1000
0000
,  // measure 74
0010
0000
1000
0000
,  // measure 75
0100
0000
1000
0000
,  // measure 76
0010
0000
0010
0000
,  // measure 77
0010
0000
0010
0000
,  // measure 78
0220
0000
0000
0000
,  // measure 79
0000
0000
0330
0000
,  // measure 80
0110
0000
0000
0000
;
