#TITLE:Smile Like You Mean It;
#SUBTITLE:(Madeon Remix);
#ARTIST:The Killers;
#TITLETRANSLIT:;
#SUBTITLETRANSLIT:;
#ARTISTTRANSLIT:;
#GENRE:;
#CREDIT:;
#BANNER:Smile Like You Mean It (Madeon Remix).png;
#BACKGROUND:Smile Like You Mean It (Madeon Remix)-bg.png;
#LYRICSPATH:;
#CDTITLE:;
#MUSIC:Smile Like You Mean It (Madeon Remix).mp3;
#OFFSET:-9.610000;
#SAMPLESTART:40.130001;
#SAMPLELENGTH:15.360000;
#SELECTABLE:YES;
#BPMS:0.000000=124.999992
;
#STOPS:
;
#BGCHANGES:;
#KEYSOUNDS:;
#ATTACKS:;

//---------------dance-single - Oni-91----------------
#NOTES:
     dance-single:
     :
     Hard:
     5:
     0.293890,0.327688,0.251906,0.285494,0.004198,245.000000,215.000000,30.000000,34.000000,0.000000,0.000000,0.293890,0.327688,0.251906,0.285494,0.004198,245.000000,215.000000,30.000000,34.000000,0.000000,0.000000:
// measure 0
1000
0001
0200
0300
,  // measure 1
0010
0000
0100
0000
0001
1000
0001
0000
,  // measure 2
1000
0100
1000
0000
0001
0000
0010
0001
,  // measure 3
0000
0001
0010
0000
0100
1000
0001
0000
,  // measure 4
1000
0010
0200
0300
,  // measure 5
0010
0000
0100
0000
0001
1000
0001
2000
,  // measure 6
0000
3100
0010
0001
,  // measure 7
0100
0000
0000
0000
0010
0000
0000
0000
1000
0000
0000
1000
0001
0000
0000
0000
,  // measure 8
2002
0000
3003
0000
1000
0100
1000
0000
,  // measure 9
0001
0010
0100
0010
,  // measure 10
0001
2000
0000
0001
0000
0000
3010
0000
,  // measure 11
1000
0000
0001
0000
1000
0100
0010
0000
,  // measure 12
0220
0000
0330
0000
0010
0001
1000
0000
,  // measure 13
0001
0100
0010
1000
,  // measure 14
0002
0020
0030
1003
,  // measure 15
0220
0000
0000
0330
,  // measure 16
1000
0000
0100
0000
1000
0000
0001
0100
,  // measure 17
0000
0101
0000
0001
1000
0000
1001
0000
,  // measure 18
0001
0000
0010
0000
0100
0000
1000
0100
,  // measure 19
0000
0110
0000
0010
0001
0000
1001
0000
,  // measure 20
0001
0100
1000
0000
0100
0000
0001
1000
,  // measure 21
0000
0100
0000
0001
0100
1000
0001
0000
,  // measure 22
1001
1000
0010
0100
,  // measure 23
0110
0000
0000
1001
0000
0110
0000
0000
,  // measure 24
1000
0100
0000
0100
0010
0000
0001
1000
,  // measure 25
0000
2002
0000
0000
3000
0000
0000
0000
,  // measure 26
0200
0000
0003
0000
,  // measure 27
0020
0000
0000
0330
,  // measure 28
0010
1000
0000
1000
0100
0000
0010
0001
,  // measure 29
0000
2002
0000
0000
0003
0000
0000
0000
,  // measure 30
3020
0000
0000
0000
,  // measure 31
0200
0000
0000
0330
,  // measure 32
1002
0000
1000
0000
1000
0000
0000
0100
,  // measure 33
0000
0100
0000
0100
0100
0000
0103
0000
,  // measure 34
0021
0000
0001
0000
0001
0000
0000
0100
,  // measure 35
0000
0100
0000
0100
0130
0000
0010
0001
,  // measure 36
1000
0000
0001
0100
0010
0000
2002
0000
,  // measure 37
0000
0000
3003
0000
0000
1000
0001
1000
,  // measure 38
0000
0001
0000
1000
0100
0000
0220
0000
,  // measure 39
0000
0000
0000
0330
,  // measure 40
1001
0000
1000
0000
0100
0000
0010
0100
,  // measure 41
0000
0110
0000
0100
0010
0000
1001
0000
,  // measure 42
1000
0010
0100
0000
0001
0000
0100
0000
,  // measure 43
0001
0010
0000
0011
0000
1100
0000
0000
,  // measure 44
1000
0001
0100
0000
0010
0000
1000
0001
,  // measure 45
0000
1001
0000
1000
0001
0000
0010
0000
,  // measure 46
0001
0010
0100
0000
0001
0000
1000
0000
,  // measure 47
0001
0100
0000
1010
0000
1001
0000
0000
,  // measure 48
2002
0000
0003
0000
0100
0000
0010
0010
,  // measure 49
0000
0020
0000
0000
0000
0000
3030
0000
,  // measure 50
0220
0000
0300
0000
1000
0000
0001
0001
,  // measure 51
0000
0200
0000
0000
0000
0000
0330
0000
,  // measure 52
1000
0001
1000
0001
0100
0000
0000
0101
,  // measure 53
0000
0001
1000
0100
1000
0000
0011
0000
,  // measure 54
0001
0100
1000
0000
0100
0000
0010
1000
,  // measure 55
0000
1000
0001
0000
0220
0000
0330
0000
;

//---------------dance-single - Oni-91----------------
#NOTES:
     dance-single:
     :
     Beginner:
     1:
     0.098363,0.140438,0.075572,0.000000,0.000000,82.000000,73.000000,9.000000,0.000000,0.000000,0.000000,0.098363,0.140438,0.075572,0.000000,0.000000,82.000000,73.000000,9.000000,0.000000,0.000000,0.000000:
// measure 0
1000
0000
0001
0000
,  // measure 1
0100
0000
0000
0000
,  // measure 2
0010
0000
0100
0000
,  // measure 3
0001
0000
0000
0000
,  // measure 4
1000
0000
0001
0000
,  // measure 5
1000
0000
0000
0000
,  // measure 6
0001
0000
0000
0000
,  // measure 7
0000
0000
0000
0000
,  // measure 8
1001
0000
0000
0000
,  // measure 9
0000
0000
1000
0000
,  // measure 10
0100
0000
0000
0000
,  // measure 11
0010
0000
0100
0000
,  // measure 12
0010
0000
0000
0000
,  // measure 13
0000
0000
0001
0000
,  // measure 14
1000
0000
0000
0000
,  // measure 15
1001
0000
0000
0000
,  // measure 16
1001
0000
0001
0000
,  // measure 17
0100
0000
0000
0000
,  // measure 18
0010
0000
0100
0000
,  // measure 19
0001
0000
1000
0000
,  // measure 20
0100
0000
0010
0000
,  // measure 21
0100
0000
0000
0000
,  // measure 22
0010
0000
0001
0000
,  // measure 23
1000
0000
1000
0000
,  // measure 24
1001
0000
0000
0000
,  // measure 25
0000
0000
0000
0000
,  // measure 26
0001
0000
0000
0000
,  // measure 27
0000
0000
0000
0000
,  // measure 28
1001
0000
0000
0000
,  // measure 29
0000
0000
0000
0000
,  // measure 30
1000
0000
0000
0000
,  // measure 31
0000
0000
0000
0000
,  // measure 32
1001
0000
0000
0000
,  // measure 33
0001
0000
0000
0000
,  // measure 34
0100
0000
0000
0000
,  // measure 35
0010
0000
0000
0000
,  // measure 36
1000
0000
0000
0000
,  // measure 37
0100
0000
0000
0000
,  // measure 38
0110
0000
0000
0000
,  // measure 39
0000
0000
0000
0000
,  // measure 40
1001
0000
0001
0000
,  // measure 41
0100
0000
0000
0000
,  // measure 42
0010
0000
0100
0000
,  // measure 43
0001
0000
1000
0000
,  // measure 44
0100
0000
0010
0000
,  // measure 45
0100
0000
0000
0000
,  // measure 46
0010
0000
0001
0000
,  // measure 47
1000
0000
0001
0000
,  // measure 48
1001
0000
0000
0000
,  // measure 49
1000
0000
0001
0000
,  // measure 50
0100
0000
0000
0000
,  // measure 51
0010
0000
0100
0000
,  // measure 52
0001
0000
0001
0000
,  // measure 53
1000
0000
1000
0000
,  // measure 54
0100
0000
0100
0000
,  // measure 55
0010
0000
0010
0010
;

//---------------dance-single - Oni-91----------------
#NOTES:
     dance-single:
     :
     Easy:
     2:
     0.131951,0.187250,0.100762,0.243509,0.000000,110.000000,98.000000,12.000000,29.000000,0.000000,0.000000,0.131951,0.187250,0.100762,0.243509,0.000000,110.000000,98.000000,12.000000,29.000000,0.000000,0.000000:
// measure 0
1000
1000
1000
0000
,  // measure 1
0001
0000
0100
0000
,  // measure 2
0010
0000
0100
0100
,  // measure 3
0100
0000
0000
0000
,  // measure 4
0010
0010
0010
0000
,  // measure 5
1000
0000
0001
1000
,  // measure 6
0200
0000
0000
0000
,  // measure 7
0000
0000
0000
0300
,  // measure 8
1001
0000
0000
0000
,  // measure 9
1000
0000
0001
1000
,  // measure 10
0100
0000
0000
0000
,  // measure 11
0010
0000
0001
0010
,  // measure 12
0001
0000
0000
0000
,  // measure 13
1000
0000
0001
1000
,  // measure 14
0010
0010
0000
0100
,  // measure 15
0220
0000
0000
0330
,  // measure 16
1001
0000
0001
0000
,  // measure 17
1000
0000
0100
0010
,  // measure 18
0100
0000
0010
0000
,  // measure 19
0001
0000
1000
0001
,  // measure 20
1000
0000
0001
0000
,  // measure 21
0100
0000
0010
1000
,  // measure 22
0010
0000
1000
0001
,  // measure 23
2000
0000
0000
0000
0000
3000
0000
0000
,  // measure 24
2002
0000
0000
0000
0000
0000
0000
3003
,  // measure 25
0000
0000
0000
0000
,  // measure 26
0002
0000
0000
0000
,  // measure 27
0003
0000
0000
0000
,  // measure 28
0220
0000
0000
0000
0000
0000
0000
0330
,  // measure 29
0000
0000
0000
0000
,  // measure 30
0200
0000
0000
0000
,  // measure 31
0300
0000
0000
0000
,  // measure 32
2002
0000
0000
0000
,  // measure 33
3003
0000
0000
0000
,  // measure 34
2002
0000
0000
0000
,  // measure 35
3003
0000
0000
0000
,  // measure 36
0220
0000
0000
0000
,  // measure 37
0330
0000
0000
0000
,  // measure 38
0220
0000
0000
0000
,  // measure 39
0000
0000
0000
0330
,  // measure 40
1001
0000
0001
0000
,  // measure 41
1000
0000
0100
1000
,  // measure 42
0100
0000
0010
0001
,  // measure 43
0010
0000
0000
0000
,  // measure 44
0001
0000
0100
0010
,  // measure 45
0100
0000
0010
1000
,  // measure 46
0010
0000
1000
0001
,  // measure 47
1000
0000
0001
0000
,  // measure 48
2001
0000
0010
0000
,  // measure 49
0002
0000
3003
0000
,  // measure 50
1002
0000
0100
0000
,  // measure 51
2000
0000
3003
0000
,  // measure 52
0200
0010
0020
0330
,  // measure 53
0020
1000
1000
1030
,  // measure 54
2000
0100
0200
3300
,  // measure 55
0200
0010
0020
0330
;

//---------------dance-single - Oni-91----------------
#NOTES:
     dance-single:
     :
     Medium:
     4:
     0.206323,0.257469,0.075572,0.193128,0.000000,172.000000,163.000000,9.000000,23.000000,0.000000,0.000000,0.206323,0.257469,0.075572,0.193128,0.000000,172.000000,163.000000,9.000000,23.000000,0.000000,0.000000:
// measure 0
1000
0001
1000
0000
,  // measure 1
0001
0010
0100
1000
,  // measure 2
0100
0100
0010
0010
,  // measure 3
0001
0000
1000
0000
0001
0100
0001
0000
,  // measure 4
1000
0100
0010
0000
,  // measure 5
0100
0000
0010
0000
0001
0000
1000
0002
,  // measure 6
0000
0103
0001
1000
,  // measure 7
0100
0010
0100
0110
,  // measure 8
2002
0000
0000
3003
,  // measure 9
1000
0100
0010
0001
,  // measure 10
0100
0010
1000
0000
,  // measure 11
0001
1000
0100
0000
,  // measure 12
0220
0000
0000
0330
,  // measure 13
0010
0001
1000
0001
,  // measure 14
0100
0010
0000
1000
,  // measure 15
2002
0000
0000
3003
,  // measure 16
1000
0000
0001
0000
1000
0000
0001
0100
,  // measure 17
0000
0001
0000
0100
0001
0000
1000
0000
,  // measure 18
0100
0000
1000
0000
0100
0000
1000
0100
,  // measure 19
0000
1000
0000
0100
1000
0000
1001
0000
,  // measure 20
0001
0000
0100
0000
0010
0000
1000
0010
,  // measure 21
0000
0100
0000
0010
0100
0000
0001
0000
,  // measure 22
1000
0100
0010
0001
,  // measure 23
2000
0000
0000
0001
0000
3001
0000
0000
,  // measure 24
1000
0000
0000
0000
0001
0000
0000
0100
,  // measure 25
0000
0200
0000
0000
0000
0000
0000
0000
,  // measure 26
0300
0000
0000
0000
,  // measure 27
0000
0000
0000
0000
,  // measure 28
1000
0000
0000
0000
0001
0000
0000
0010
,  // measure 29
0000
0020
0000
0000
0000
0000
0000
0000
,  // measure 30
0030
0000
0000
0000
,  // measure 31
0000
0000
0000
0000
,  // measure 32
0001
0000
1000
0000
0002
0000
0000
0100
,  // measure 33
0000
0103
0000
0000
0000
0000
0000
0000
,  // measure 34
0010
0000
0100
0000
0020
0000
0000
1000
,  // measure 35
0000
1030
0000
0000
1000
0000
0001
0000
,  // measure 36
1000
0100
0010
0100
,  // measure 37
0000
0000
0010
0001
,  // measure 38
2002
0000
0000
0000
,  // measure 39
0000
0000
0000
3003
,  // measure 40
1001
0000
0000
0000
1000
0000
0010
0100
,  // measure 41
0000
0010
0000
0100
0010
0000
0100
0000
,  // measure 42
0001
0000
1000
0000
0100
0000
0010
0001
,  // measure 43
0000
0010
0000
0001
0010
0000
0001
0000
,  // measure 44
1000
0000
0000
0000
0001
0000
0100
0010
,  // measure 45
0000
0100
0000
0010
1000
0000
0001
0000
,  // measure 46
1001
0000
1000
0100
,  // measure 47
0120
0000
0000
0001
0000
0031
0000
0000
,  // measure 48
0002
0000
0000
0000
0010
0000
0000
1000
,  // measure 49
0000
2000
0000
0000
3003
0000
0000
0000
,  // measure 50
2000
0000
0000
0000
0010
0000
0000
0001
,  // measure 51
0000
0002
0000
0000
3003
0000
0000
0000
,  // measure 52
1000
0100
2000
3000
,  // measure 53
0001
0100
0002
0003
,  // measure 54
1000
0010
0200
0300
,  // measure 55
0001
0010
0200
0300
;
