#VERSION:0.83;
#TITLE:Shake What Your Mama Gave Ya;
#SUBTITLE:;
#ARTIST:Skeewiff;
#TITLETRANSLIT:;
#SUBTITLETRANSLIT:;
#ARTISTTRANSLIT:;
#GENRE:;
#ORIGIN:;
#CREDIT:;
#BANNER:Shake What Your Mama Gave Ya.png;
#BACKGROUND:Shake What Your Mama Gave Ya-bg.png;
#PREVIEWVID:;
#JACKET:;
#CDIMAGE:;
#DISCIMAGE:;
#LYRICSPATH:;
#CDTITLE:;
#MUSIC:Shake What Your Mama Gave Ya.mp3;
#OFFSET:-6.590000;
#SAMPLESTART:32.889999;
#SAMPLELENGTH:13.150000;
#SELECTABLE:YES;
#BPMS:0.000=146.000;
#STOPS:;
#DELAYS:;
#WARPS:;
#TIMESIGNATURES:0.000=4=4;
#TICKCOUNTS:0.000=4;
#COMBOS:0.000=1;
#SPEEDS:0.000=1.000=0.000=0;
#SCROLLS:0.000=1.000;
#FAKES:;
#LABELS:0.000=Song Start;
#BGCHANGES:;
#KEYSOUNDS:;
#ATTACKS:
;

//---------------dance-single - Oni-91----------------
#NOTEDATA:;
#CHARTNAME:;
#STEPSTYPE:dance-single;
#DESCRIPTION:Oni-91;
#CHARTSTYLE:;
#DIFFICULTY:Hard;
#METER:7;
#RADARVALUES:0.513987,0.500070,0.308962,0.159464,0.094682,361.000000,330.000000,31.000000,16.000000,0.000000,0.000000,0.000000,0.000000,0.000000,0.513987,0.500070,0.308962,0.159464,0.094682,361.000000,330.000000,31.000000,16.000000,0.000000,0.000000,0.000000,0.000000,0.000000;
#CREDIT:Oni-91;
#NOTES:
// measure 0
0001
0000
1100
0000
1000
0001
0100
0000
,  // measure 1
0010
0000
1001
0000
0010
0001
0100
0001
,  // measure 2
1000
0000
0011
0000
1000
0100
0010
0000
,  // measure 3
0001
1000
0001
1000
0001
0000
1000
0000
,  // measure 4
0110
0000
1000
0001
1000
0100
0010
0000
,  // measure 5
1001
0000
0100
0010
0100
0001
1000
0000
,  // measure 6
0110
0000
0001
0010
0001
1000
0010
0200
,  // measure 7
0001
0000
0000
0001
0000
0000
0001
0000
0000
0001
0000
0000
0301
0000
0000
0000
,  // measure 8
1002
0000
0000
2000
0000
0000
3003
0000
,  // measure 9
0210
0000
0000
0020
0000
0000
0330
0000
,  // measure 10
2001
0000
0000
0002
0000
0000
3003
0000
,  // measure 11
0120
0000
0000
0100
0000
0000
0100
0000
0000
0100
0000
0000
0130
0000
0000
0000
,  // measure 12
0001
1000
0001
1000
0001
1000
0001
1000
,  // measure 13
0010
0100
0010
0100
0010
0100
0010
0100
,  // measure 14
0001
0010
0100
1000
0100
0010
0001
1000
,  // measure 15
0001
0100
1000
0100
0001
1000
1001
0000
,  // measure 16
0101
0000
1000
0100
0010
0100
0000
0010
,  // measure 17
0001
0000
1000
0010
0100
0001
0100
0000
,  // measure 18
1001
0000
0001
1000
0010
0100
0000
0110
,  // measure 19
0000
1001
0000
1000
0100
0010
0001
0000
,  // measure 20
1010
0000
0001
0100
0010
0100
0000
0001
,  // measure 21
1000
0000
0001
0010
0100
2000
3001
0000
,  // measure 22
0101
0000
0010
1000
0100
1000
0000
0101
,  // measure 23
0000
1001
0000
1000
0100
0010
0001
0000
,  // measure 24
1000
0001
1000
0001
0100
0010
0100
0000
,  // measure 25
0010
1000
0010
1000
0001
0100
0001
0000
,  // measure 26
1000
0100
0010
0001
0010
0100
1000
0000
,  // measure 27
0010
1000
0001
0010
0100
0000
0110
0000
,  // measure 28
0010
0001
0100
0010
1000
0010
0100
0000
,  // measure 29
0001
1000
0100
0001
1000
0010
0001
0000
,  // measure 30
1000
0010
0100
0001
1000
0010
0100
0020
,  // measure 31
0000
1000
0001
0000
0100
0000
0130
0000
,  // measure 32
1001
0000
0000
0001
0000
0000
1000
0000
0000
0010
0000
0000
0100
0000
0001
0000
,  // measure 33
0100
0000
0000
0001
0000
0000
0100
0000
0000
0010
0000
0000
1000
0000
0100
0000
,  // measure 34
1000
0000
0000
0010
0000
0000
0100
0000
0000
0001
0000
0000
0010
0000
0000
0001
,  // measure 35
2000
0010
0000
0001
0000
0100
3100
0000
,  // measure 36
0011
0000
0000
0001
0000
0000
0010
0000
0000
0100
0000
0000
1000
0000
0001
0000
,  // measure 37
0100
0000
0000
0010
0000
0000
1000
0000
0000
0001
0000
0000
0100
0000
0001
0000
,  // measure 38
1000
0000
0000
0001
0000
0000
1000
0000
0000
0001
0000
0000
0100
0000
0000
0020
,  // measure 39
0200
0330
1001
0110
,  // measure 40
1001
0000
0001
0010
0001
0100
0000
0010
,  // measure 41
1000
0000
0001
1000
0100
0010
0001
1000
,  // measure 42
0100
0000
0001
0100
1000
0020
0000
0001
,  // measure 43
0000
1000
0000
0100
0130
0000
0110
0000
,  // measure 44
1001
0000
1000
0010
1000
0100
0000
0010
,  // measure 45
0001
0000
1000
0001
0100
1000
0001
0010
,  // measure 46
1000
0000
0001
0010
0100
0020
0000
1000
,  // measure 47
0000
0100
0000
0001
0002
0000
0033
0000
,  // measure 48
1001
0000
0001
0100
0001
1000
0100
1000
,  // measure 49
0010
0000
0100
0010
0100
0001
1000
0100
,  // measure 50
0010
0000
0100
0010
0001
1000
0001
0100
,  // measure 51
1000
0000
1000
0100
0001
0000
1001
0000
,  // measure 52
1000
0100
0010
0001
0010
0100
1000
0010
,  // measure 53
0000
0100
0010
1000
0100
0001
0100
1000
,  // measure 54
0001
0100
1000
0100
0001
1000
0100
0010
,  // measure 55
0110
0000
0000
0000
0000
0000
1001
0000
0000
0000
1000
0001
1000
0000
0000
0000
;

//---------------dance-single - Oni-91----------------
#NOTEDATA:;
#CHARTNAME:;
#STEPSTYPE:dance-single;
#DESCRIPTION:Oni-91;
#CHARTSTYLE:;
#DIFFICULTY:Medium;
#METER:6;
#RADARVALUES:0.408627,0.416725,0.269096,0.259129,0.000000,287.000000,260.000000,27.000000,26.000000,0.000000,0.000000,0.000000,0.000000,0.000000,0.408627,0.416725,0.269096,0.259129,0.000000,287.000000,260.000000,27.000000,26.000000,0.000000,0.000000,0.000000,0.000000,0.000000;
#CREDIT:Oni-91;
#NOTES:
// measure 0
1001
0000
0000
0001
0000
1000
0100
0000
,  // measure 1
1000
0000
0001
0100
0000
0010
1000
0000
,  // measure 2
0001
0000
1000
0100
0000
0010
0001
0000
,  // measure 3
1000
0010
0100
0000
0101
0000
1001
0000
,  // measure 4
1100
0000
0000
0100
0000
1000
0100
0000
,  // measure 5
0010
0000
0001
0100
0001
0000
1000
0000
,  // measure 6
0100
0000
0010
0001
0000
1000
0010
0100
,  // measure 7
0020
0000
0000
1000
1000
0000
0130
0000
,  // measure 8
2001
0000
0000
0002
0000
0000
0003
0000
,  // measure 9
0010
0000
0000
0020
0000
0000
0030
0000
,  // measure 10
0100
0000
0000
0200
0000
0000
0300
0000
,  // measure 11
0001
0000
0000
0002
0000
0000
3003
0000
,  // measure 12
1000
0010
1000
0000
0001
0100
0001
0000
,  // measure 13
1000
0001
0100
0000
0001
1000
0010
0000
,  // measure 14
0100
0001
0010
0000
0100
1000
0010
0000
,  // measure 15
1000
0010
0001
0010
1000
0000
1001
0000
,  // measure 16
0110
0000
0100
0000
0001
1000
0100
0000
,  // measure 17
1000
0000
0001
0010
0100
0000
0010
0000
,  // measure 18
1001
0000
1000
0010
0100
0002
0000
0010
,  // measure 19
0000
1000
0000
0100
0200
0000
0303
0000
,  // measure 20
1001
0000
1000
0000
0001
0010
0000
1100
,  // measure 21
0000
0000
1000
0000
0001
0100
0010
0000
,  // measure 22
0100
0000
0001
1000
0001
0200
0000
1000
,  // measure 23
0000
0010
0000
0001
0301
0000
1001
0000
,  // measure 24
1000
0100
0010
0001
0010
0000
0001
0000
,  // measure 25
1000
0010
0100
0001
0100
0000
0001
0000
,  // measure 26
1000
0001
1000
0001
1000
0000
0001
0000
,  // measure 27
1000
0001
0220
0330
,  // measure 28
0010
1000
0100
0010
0100
0000
1000
0000
,  // measure 29
0001
0100
0010
0100
0001
0000
0010
0000
,  // measure 30
0001
1000
0010
1000
0100
0000
0010
0000
,  // measure 31
2002
3000
1000
1003
,  // measure 32
0110
0000
0001
0000
1000
0100
0010
0000
,  // measure 33
0001
0000
1000
0000
0001
0100
0010
0100
,  // measure 34
0001
0000
1000
0000
0001
1000
0001
0000
,  // measure 35
2000
0010
0000
0100
0000
0001
3001
0000
,  // measure 36
1001
0000
0001
0000
1000
0010
0100
0000
,  // measure 37
0010
0000
1000
0000
0100
0010
0100
0000
,  // measure 38
0010
0000
0001
0000
1000
0100
0010
0002
,  // measure 39
2000
3003
1100
0101
,  // measure 40
1001
0000
1000
0000
0001
0100
0000
0101
,  // measure 41
0000
0000
0001
0000
1000
0100
1000
0000
,  // measure 42
1001
0000
0001
0000
1000
0200
0000
0001
,  // measure 43
0000
0010
0000
1000
2000
0000
3300
0000
,  // measure 44
1001
0000
0001
0000
0100
0010
0000
1010
,  // measure 45
0000
0000
1000
0000
0100
0010
0100
0000
,  // measure 46
1001
0000
0001
0000
1000
0020
0000
0100
,  // measure 47
0000
0001
0000
0100
0200
0000
0330
0000
,  // measure 48
2002
0000
3003
0000
1000
0000
0100
0010
,  // measure 49
0100
0000
0000
0010
0001
0000
1000
0001
,  // measure 50
1000
0000
0000
0001
0100
0000
0010
1000
,  // measure 51
0010
0000
1000
0001
1000
0000
0110
0000
,  // measure 52
2002
0000
3003
0000
0001
0000
1000
0100
,  // measure 53
0010
0000
0000
0100
1000
0000
0001
0100
,  // measure 54
0010
0000
0000
0100
0001
0000
1000
0100
,  // measure 55
1000
0000
0000
0001
0000
2002
3003
0000
;

//---------------dance-single - Oni-91----------------
#NOTEDATA:;
#CHARTNAME:;
#STEPSTYPE:dance-single;
#DESCRIPTION:Oni-91;
#CHARTSTYLE:;
#DIFFICULTY:Easy;
#METER:4;
#RADARVALUES:0.261977,0.333380,0.139531,0.129565,0.000000,184.000000,170.000000,14.000000,13.000000,0.000000,0.000000,0.000000,0.000000,0.000000,0.261977,0.333380,0.139531,0.129565,0.000000,184.000000,170.000000,14.000000,13.000000,0.000000,0.000000,0.000000,0.000000,0.000000;
#CREDIT:Oni-91;
#NOTES:
// measure 0
1000
0001
0100
0000
,  // measure 1
0001
1000
0100
0010
,  // measure 2
0100
1000
0001
0000
,  // measure 3
1000
0001
1000
0010
,  // measure 4
0110
0000
0001
0100
,  // measure 5
0010
0000
1000
0100
,  // measure 6
0010
0000
0100
0010
,  // measure 7
0001
1000
0001
1000
,  // measure 8
2002
0000
3003
0000
,  // measure 9
0200
0000
0300
0000
,  // measure 10
0020
0000
0030
0000
,  // measure 11
2000
0000
3000
0000
,  // measure 12
0001
0001
1000
1000
,  // measure 13
0010
0010
0100
0100
,  // measure 14
0010
1000
0001
0100
,  // measure 15
0001
0010
0100
1000
,  // measure 16
1001
0000
1000
0001
,  // measure 17
0010
0000
0100
0010
,  // measure 18
0001
0000
1000
0001
,  // measure 19
0100
0010
1000
0100
,  // measure 20
1000
0000
0001
0100
,  // measure 21
0001
0000
1000
0010
,  // measure 22
0100
0000
0010
0100
,  // measure 23
0001
1000
0100
0000
,  // measure 24
1000
0100
1000
0000
,  // measure 25
0001
0100
0001
0000
,  // measure 26
1000
0010
1000
0000
,  // measure 27
0001
0010
0001
0010
,  // measure 28
0100
0010
0100
0000
,  // measure 29
1000
0001
1000
0000
,  // measure 30
0001
0100
0010
1000
,  // measure 31
0220
0330
0110
1001
,  // measure 32
0110
0000
0010
1000
,  // measure 33
0001
0000
1000
0001
,  // measure 34
0010
0000
0100
0010
,  // measure 35
0000
0100
0000
0100
0000
0010
0010
0000
,  // measure 36
1001
0000
0001
0100
,  // measure 37
0010
0000
1000
0100
,  // measure 38
0010
0000
1000
0001
,  // measure 39
2002
0003
0001
3001
,  // measure 40
0110
0000
0010
1000
,  // measure 41
0100
0000
0010
0001
,  // measure 42
1000
0000
0001
0100
,  // measure 43
0010
1000
0100
0010
,  // measure 44
0001
0000
1000
0001
,  // measure 45
1000
0000
0001
0100
,  // measure 46
0001
0000
1000
0010
,  // measure 47
2002
0000
0000
3003
,  // measure 48
0110
0000
0010
1000
,  // measure 49
0100
0000
0010
0001
,  // measure 50
0100
0000
0001
1000
,  // measure 51
0100
0001
0100
1000
,  // measure 52
0001
0000
1000
0010
,  // measure 53
0100
0000
0010
0100
,  // measure 54
0001
0000
1000
0100
,  // measure 55
0110
0000
0000
0220
0000
0000
0330
0000
;

//---------------dance-single - Oni-91----------------
#NOTEDATA:;
#CHARTNAME:;
#STEPSTYPE:dance-single;
#DESCRIPTION:Oni-91;
#CHARTSTYLE:;
#DIFFICULTY:Beginner;
#METER:1;
#RADARVALUES:0.139531,0.191855,0.049833,0.000000,0.000000,98.000000,93.000000,5.000000,0.000000,0.000000,0.000000,0.000000,0.000000,0.000000,0.139531,0.191855,0.049833,0.000000,0.000000,98.000000,93.000000,5.000000,0.000000,0.000000,0.000000,0.000000,0.000000,0.000000;
#CREDIT:Oni-91;
#NOTES:
// measure 0
1001
0000
0000
0000
,  // measure 1
0001
0000
0000
0000
,  // measure 2
1000
0000
0000
0000
,  // measure 3
0010
0000
0100
0100
,  // measure 4
0100
0000
0000
0000
,  // measure 5
0010
0000
0000
0000
,  // measure 6
1000
0000
0000
0000
,  // measure 7
0001
0000
1000
1000
,  // measure 8
1000
0000
0000
0000
,  // measure 9
0001
0000
0000
0000
,  // measure 10
0100
0000
0000
0000
,  // measure 11
0010
0000
0000
0000
,  // measure 12
0100
0000
0100
0000
,  // measure 13
0010
0000
0010
0000
,  // measure 14
1000
0000
1000
0000
,  // measure 15
0001
0000
0001
0000
,  // measure 16
1001
0000
0000
0000
,  // measure 17
1000
0000
0100
0000
,  // measure 18
1000
0000
0000
0000
,  // measure 19
0001
0000
0100
0000
,  // measure 20
0001
0000
0000
0000
,  // measure 21
1000
0000
0010
0000
,  // measure 22
1000
0000
0000
0000
,  // measure 23
0001
0000
0010
0000
,  // measure 24
0001
0000
0000
0000
,  // measure 25
1000
0000
0000
0000
,  // measure 26
0001
0000
1000
0000
,  // measure 27
0010
0000
0100
0000
,  // measure 28
0010
0000
0000
0000
,  // measure 29
0100
0000
0000
0000
,  // measure 30
0010
0000
0100
0000
,  // measure 31
0001
0000
0000
0000
,  // measure 32
1000
0000
1000
1000
,  // measure 33
1000
0000
0001
0000
,  // measure 34
0100
0000
0010
0010
,  // measure 35
0010
0000
0000
0000
,  // measure 36
0110
0000
0100
0100
,  // measure 37
0100
0000
0001
0000
,  // measure 38
1000
0000
0001
0001
,  // measure 39
0001
0000
1000
1000
,  // measure 40
1000
0000
0000
0000
,  // measure 41
0001
0000
0010
0000
,  // measure 42
0001
0000
0000
0000
,  // measure 43
1000
0000
0100
0000
,  // measure 44
1000
0000
0000
0000
,  // measure 45
0001
0000
0100
0000
,  // measure 46
0010
0000
0100
0000
,  // measure 47
0010
0000
0000
0000
,  // measure 48
1001
0000
1000
0000
,  // measure 49
0100
0000
1000
0000
,  // measure 50
0001
0000
0100
0000
,  // measure 51
0010
0000
0000
0000
,  // measure 52
0100
0000
0010
0000
,  // measure 53
1000
0000
0001
0000
,  // measure 54
1000
0000
0100
0000
,  // measure 55
0110
0000
0000
0000
;
