#TITLE:Session 12;
#SUBTITLE:-Esther-;
#ARTIST:PRASTIK DANCEFLOOR;
#TITLETRANSLIT:;
#SUBTITLETRANSLIT:;
#ARTISTTRANSLIT:;
#GENRE:;
#CREDIT:;
#BANNER:Session 12 -Esther-.png;
#BACKGROUND:Session 12 -Esther--bg.png;
#LYRICSPATH:;
#CDTITLE:;
#MUSIC:Session 12 -Esther-.mp3;
#OFFSET:-4.190000;
#SAMPLESTART:21.670000;
#SAMPLELENGTH:8.700000;
#SELECTABLE:YES;
#BPMS:0.000000=171.979996
,7.500000=163.000000
,9.000000=146.000000
,10.500000=118.000000
,12.000000=64.000000
,12.250000=69.000000
,12.500000=75.000000
,12.750000=82.000000
,13.000000=88.000000
,13.250000=94.000000
,13.500000=101.000000
,13.750000=107.000000
,14.000000=113.000000
,14.250000=120.000000
,14.500000=125.999992
,14.750000=133.000000
,15.000000=139.000000
,15.250000=145.000000
,15.500000=152.000000
,15.750000=158.000000
,16.000000=164.000000
,16.250000=172.000000
,16.500000=177.000000
,16.750000=183.000000
,17.000000=190.000000
,17.250000=196.000000
,17.500000=203.000000
,17.750000=209.000000
,18.000000=193.000000
;
#STOPS:
;
#BGCHANGES:;
#KEYSOUNDS:;
#ATTACKS:;

//---------------dance-single - Oni-91----------------
#NOTES:
     dance-single:
     :
     Hard:
     9:
     0.727241,0.877385,0.682692,0.092711,0.088497,604.000000,523.000000,81.000000,11.000000,0.000000,0.000000,0.727241,0.877385,0.682692,0.092711,0.088497,604.000000,523.000000,81.000000,11.000000,0.000000,0.000000:
// measure 0
1000
0000
1000
0100
0000
0100
0010
0000
,  // measure 1
0010
0001
0100
0010
2000
0000
0000
0010
,  // measure 2
0000
0000
0001
0000
0000
0200
0000
3300
,  // measure 3
1000
0100
1000
0100
0010
0001
0010
0001
0100
0010
0100
0010
0100
0001
1000
0001
,  // measure 4
2000
0000
3000
0000
1001
0000
1000
1100
,  // measure 5
0000
1010
0000
0101
0000
0001
0010
0100
,  // measure 6
0010
0001
1001
0000
1000
1010
0000
0010
,  // measure 7
0100
0000
0000
0000
0001
0000
0010
0000
0000
0100
0000
0000
0001
0000
0000
0100
,  // measure 8
0000
0010
0000
0100
0010
0000
0001
0000
,  // measure 9
1001
0000
0010
0100
0001
0010
0100
0010
,  // measure 10
0000
0010
0001
0000
0001
1000
0000
1000
,  // measure 11
0001
0000
0000
0100
0000
0000
0010
0000
0000
0100
0000
0000
0010
0000
0000
1000
,  // measure 12
0000
0000
0001
0000
0000
1000
0000
0000
1001
0000
0000
0000
1000
0000
1100
0000
,  // measure 13
0000
0011
0000
1100
0000
1000
0001
0000
,  // measure 14
0001
0101
0000
0110
0000
0101
0000
0001
,  // measure 15
0100
0010
1000
0100
0000
0100
1000
0000
,  // measure 16
1001
0000
1000
0010
0000
0110
0000
1001
,  // measure 17
0000
1000
0100
0010
0001
0010
0000
0011
,  // measure 18
0000
0000
1000
0100
1000
0000
0100
0000
0010
0000
0100
0000
0020
0000
0000
0000
,  // measure 19
0030
1002
1000
1000
,  // measure 20
1000
1000
1000
1000
,  // measure 21
1000
0100
0100
0100
,  // measure 22
0100
0100
0100
0200
,  // measure 23
0303
0000
0001
0100
0010
1000
0100
0010
,  // measure 24
0100
0000
1000
0000
0000
0000
1000
0000
0100
0000
0010
0000
0001
0000
0000
0001
,  // measure 25
1000
0010
0100
0001
0000
0100
0010
0000
,  // measure 26
1000
0100
0000
0010
0001
1000
0100
0001
,  // measure 27
0100
1000
0010
0100
0000
0010
0100
0001
,  // measure 28
0010
0000
0001
1000
0001
0000
0000
0000
1000
0000
0100
0000
0000
0000
0010
0000
,  // measure 29
0001
0000
1000
0010
0000
0100
0001
0100
,  // measure 30
0010
1000
0001
1000
0001
1000
0000
0110
,  // measure 31
0000
1001
0000
1000
0100
0000
0010
0001
,  // measure 32
0000
0100
0010
1000
0100
0010
0100
1000
,  // measure 33
0010
0100
0001
0010
0000
0011
0000
1100
,  // measure 34
0000
1001
0000
0001
0100
0010
1000
0100
,  // measure 35
0010
0000
1000
0100
0001
0100
1000
0100
,  // measure 36
0010
0000
0110
0000
1001
0000
0001
0100
,  // measure 37
1000
0100
0001
0100
0010
0000
0110
0000
,  // measure 38
1001
0000
1000
0100
0010
0100
1000
0000
,  // measure 39
0001
0100
0010
0100
0001
0000
1000
0100
,  // measure 40
0001
0100
1000
0000
0001
0100
1000
0100
,  // measure 41
0001
0000
1000
0100
0010
0001
0100
0010
,  // measure 42
1000
0000
0001
0010
0100
0010
0001
0010
,  // measure 43
0100
1000
0010
0100
0001
0000
1000
0010
,  // measure 44
0100
0010
1000
0100
0010
0001
0100
0001
,  // measure 45
1000
0010
0100
0010
1000
0010
1000
0100
,  // measure 46
0001
0010
0001
0100
1000
0010
0001
0010
,  // measure 47
1000
0100
0010
0100
1000
0100
0010
0100
,  // measure 48
1000
0000
0001
0001
0001
0100
0010
0100
,  // measure 49
0001
0100
0010
0100
0001
0000
1000
1000
,  // measure 50
1000
0100
0010
0001
0100
0010
0100
0000
,  // measure 51
0010
0100
0001
1000
0100
0000
0010
0001
,  // measure 52
0100
1000
0100
0001
1000
0100
0001
0100
,  // measure 53
1000
0000
0001
0010
0100
0010
0100
1000
,  // measure 54
0010
0100
0010
0100
0001
0010
0001
0100
,  // measure 55
0010
1000
0100
0010
0100
1000
0001
0100
,  // measure 56
0010
1000
0001
0010
0001
1000
0100
1000
,  // measure 57
0001
0100
0001
1000
0010
1000
0001
0100
,  // measure 58
1000
0001
0010
1000
0001
0010
1000
0001
,  // measure 59
0100
1000
1100
1100
0000
0011
0011
0000
,  // measure 60
1001
0000
1001
0000
0000
0000
0110
0000
0110
0000
0000
0000
1010
0000
0000
0110
,  // measure 61
0000
0000
0101
0000
0000
0011
0000
0000
0110
0000
0000
1100
0000
0000
1001
0000
,  // measure 62
0000
2002
0000
0000
0000
0000
0000
0000
0000
0000
3003
0000
1000
0000
0100
0000
,  // measure 63
0010
0100
0000
0110
0000
1001
0000
0001
,  // measure 64
0100
1000
0100
0001
0000
1001
0000
1100
,  // measure 65
0000
1000
0100
0000
0010
0001
0000
0001
,  // measure 66
0100
0010
1000
0100
0010
0001
0000
1001
,  // measure 67
0000
1010
0000
0010
0100
0001
0010
0100
,  // measure 68
0000
0011
0000
1000
0001
1000
0010
0100
,  // measure 69
0010
0000
0110
0000
1001
0000
1000
0100
,  // measure 70
0001
0100
1000
0001
0000
0001
0100
0010
,  // measure 71
1000
0100
0010
0001
0100
0001
0000
0001
,  // measure 72
1000
0000
1000
0100
0000
0010
0001
0000
,  // measure 73
1001
0000
0001
0100
1000
0100
0001
1000
,  // measure 74
0001
1000
0100
0010
0001
0010
0100
0010
,  // measure 75
0001
1000
0010
0100
0001
0100
0010
0000
,  // measure 76
1001
0000
1100
0000
0100
0110
0000
0010
,  // measure 77
0011
0000
0001
1001
0000
1000
1010
0000
,  // measure 78
0010
0110
0000
0100
0101
0000
0001
1001
,  // measure 79
0000
1000
2001
0000
0001
0000
0001
0000
,  // measure 80
0001
0001
0001
0100
,  // measure 81
0100
0100
0100
0100
,  // measure 82
3100
0000
1010
1010
0000
0101
0101
0000
,  // measure 83
0011
0011
0000
1100
1100
0000
0110
0110
,  // measure 84
0000
1001
1001
0000
0110
0110
0000
1001
,  // measure 85
1001
0220
0000
0000
,  // measure 86
0000
0000
0000
0330
;

//---------------dance-single - Oni-91----------------
#NOTES:
     dance-single:
     :
     Medium:
     8:
     0.568308,0.621481,0.480413,0.235992,0.042141,472.000000,415.000000,57.000000,28.000000,0.000000,0.000000,0.568308,0.621481,0.480413,0.235992,0.042141,472.000000,415.000000,57.000000,28.000000,0.000000,0.000000:
// measure 0
1000
0000
1000
0010
0000
0010
0100
0000
,  // measure 1
0100
0001
0000
0001
2000
0000
0000
0010
,  // measure 2
0000
0000
0010
0000
0000
0020
0000
3030
,  // measure 3
2002
0000
0000
0000
,  // measure 4
0000
0000
3003
0000
1001
0000
1000
0001
,  // measure 5
0000
0101
0000
0110
0000
0010
0100
0001
,  // measure 6
1000
0000
0001
0000
1000
0100
0000
0010
,  // measure 7
0001
0000
0000
0000
1000
0000
0001
0000
0000
1000
0000
0000
0001
0000
0000
1000
,  // measure 8
0000
0001
0000
0100
0010
0000
0110
0000
,  // measure 9
0101
0000
0001
1000
0100
0010
0000
0110
,  // measure 10
0000
0100
1000
0000
1000
0001
0000
0000
,  // measure 11
1000
0000
0000
0100
0000
0000
1000
0000
0000
0100
0000
0000
0010
0000
0000
0001
,  // measure 12
0000
0000
0010
0000
0000
0001
0000
0000
1001
0000
0000
0000
1000
0000
0200
0000
,  // measure 13
0000
0001
0000
1300
0000
0001
0100
0000
,  // measure 14
0010
0200
0000
0001
0000
1300
0000
0100
,  // measure 15
0001
0000
1000
0001
0000
1000
0001
0000
,  // measure 16
0001
0000
0010
0200
0000
0001
0000
1300
,  // measure 17
0000
1000
0001
0000
1000
0020
0000
0001
,  // measure 18
0000
1000
1030
0000
0010
0100
0002
0000
,  // measure 19
0003
1002
1000
1000
,  // measure 20
1000
1000
1000
1000
,  // measure 21
1000
0100
0100
0100
,  // measure 22
0100
0100
0100
0200
,  // measure 23
0303
0000
0001
0100
0010
1000
0000
0010
,  // measure 24
1000
0100
0000
0010
0001
0000
1001
0000
,  // measure 25
1000
0000
1000
0010
0000
0000
0110
0000
,  // measure 26
0000
0101
0000
0000
0001
1000
0100
0010
,  // measure 27
0000
0100
1000
0001
0000
0100
0001
0100
,  // measure 28
0010
0000
0100
0000
0100
0001
0000
0000
,  // measure 29
1001
0000
0000
1100
0000
0000
0011
0000
,  // measure 30
1001
0000
1000
0001
1000
0002
0000
0010
,  // measure 31
0000
1003
0000
0001
0001
0100
0010
0010
,  // measure 32
0000
1000
0010
0100
0001
1000
0001
1000
,  // measure 33
0100
0000
0010
0100
0000
0110
0000
1001
,  // measure 34
0000
1001
0000
1000
0010
1000
0010
0100
,  // measure 35
0001
0000
1000
0000
0100
1000
0100
0000
,  // measure 36
1000
0100
1001
0001
,  // measure 37
0010
0001
0010
0000
0001
0000
0010
0000
,  // measure 38
1001
0000
1000
0000
0010
0100
0010
0000
,  // measure 39
1000
0000
0100
0010
0100
0000
0010
0000
,  // measure 40
0001
0100
0010
0000
0100
0000
0010
1000
,  // measure 41
0100
0000
0010
0001
0010
0001
0010
0000
,  // measure 42
0001
0000
0100
0000
0010
0000
1000
0010
,  // measure 43
1000
0010
1000
0000
0010
0000
0100
0000
,  // measure 44
0001
0000
1000
0000
0100
1000
0100
0000
,  // measure 45
0010
0000
0100
0010
0100
0000
0010
0000
,  // measure 46
0001
0010
0001
0000
1000
0001
1000
0001
,  // measure 47
1000
0000
0001
0100
0001
0100
0010
0000
,  // measure 48
0100
0000
0101
0000
1001
0000
0001
1000
,  // measure 49
0001
1000
0100
0000
1000
0000
1010
0000
,  // measure 50
1001
0000
0001
0100
0010
0100
0000
0010
,  // measure 51
1000
0010
1000
0001
0000
1000
0100
0010
,  // measure 52
0001
0010
0000
0001
0010
0100
1000
0100
,  // measure 53
0000
1000
0010
0100
0001
0100
0010
0000
,  // measure 54
1010
0000
1001
0000
1100
0000
0001
0010
,  // measure 55
0100
0010
0001
0000
0011
0000
1100
0000
,  // measure 56
1001
0000
1000
0100
1000
0000
1001
0000
,  // measure 57
0001
0100
0001
0000
1001
0000
1000
0010
,  // measure 58
0100
0000
0110
0000
0001
0010
0100
0000
,  // measure 59
0110
0000
0010
0020
0000
0001
0032
0000
,  // measure 60
1000
0000
2003
0000
0000
0000
0010
0000
3020
0000
0000
0000
0100
0000
0000
0100
,  // measure 61
0000
0000
0100
0000
0000
0100
0000
0000
0100
0000
0000
0100
0000
0000
0100
0000
,  // measure 62
0000
0200
0000
0000
0000
0000
0000
0000
0330
0000
0000
0000
1001
0000
0000
0000
,  // measure 63
1000
0200
0000
0001
0000
1300
0000
1000
,  // measure 64
0010
0000
0100
0020
0000
0001
0000
0130
,  // measure 65
0000
0010
1000
0000
0001
0100
0000
0001
,  // measure 66
0010
0000
1100
0000
1000
0200
0000
0001
,  // measure 67
0000
0001
0000
0301
0100
0000
2000
0010
,  // measure 68
0000
0010
0000
0010
3010
0000
1001
0000
,  // measure 69
0202
0000
0303
0000
0001
1000
0100
0010
,  // measure 70
0000
0110
0000
1100
0000
0001
0100
0010
,  // measure 71
1000
0100
0000
1100
0000
0011
0000
0100
,  // measure 72
0010
0000
1000
0010
0000
0100
0001
0000
,  // measure 73
0001
0010
0100
1000
0000
1001
0000
1010
,  // measure 74
0000
0010
0100
0010
1000
0100
0000
0011
,  // measure 75
0000
0100
0001
0100
0010
0000
2002
0000
,  // measure 76
3003
0000
1100
0000
0000
0110
0000
0000
,  // measure 77
0011
0000
0000
1001
0000
0000
1010
0000
,  // measure 78
0000
0110
0000
0000
0101
0000
0000
1001
,  // measure 79
0000
2001
0001
0001
,  // measure 80
0001
0001
0001
0100
,  // measure 81
0100
0100
0100
0100
,  // measure 82
3100
0000
1000
0100
0000
0010
0001
0000
,  // measure 83
0001
0100
0000
0010
1000
0000
1000
0001
,  // measure 84
0000
0001
1000
0000
0010
0100
0000
0100
,  // measure 85
0010
2002
0000
0000
,  // measure 86
0000
0000
0000
3003
;

//---------------dance-single - Oni-91----------------
#NOTES:
     dance-single:
     :
     Easy:
     7:
     0.426231,0.475250,0.193851,0.202279,0.025285,354.000000,331.000000,23.000000,24.000000,0.000000,0.000000,0.426231,0.475250,0.193851,0.202279,0.025285,354.000000,331.000000,23.000000,24.000000,0.000000,0.000000:
// measure 0
1000
0000
0000
0001
0000
0000
1000
0000
,  // measure 1
0000
0001
0000
0000
0100
0000
0000
0010
,  // measure 2
0000
0000
0220
0000
0000
0330
0000
0000
,  // measure 3
2002
0000
0000
0000
,  // measure 4
0000
0000
3003
0000
1001
0000
0001
0100
,  // measure 5
0000
0001
0000
0100
0000
0001
1000
0000
,  // measure 6
0001
0000
1001
0000
0000
1000
0000
0000
,  // measure 7
0001
0000
0000
0000
0000
0000
1000
0000
0000
1000
0000
0000
0001
0000
0000
0001
,  // measure 8
0000
1000
0000
0001
0100
0000
0001
0000
,  // measure 9
0100
0000
0010
1000
0000
0001
0000
1001
,  // measure 10
0000
0000
1000
0000
0000
0010
0000
0000
,  // measure 11
0100
0000
0000
0100
0000
0000
0100
0000
0000
0100
0000
0000
0010
0000
0000
0010
,  // measure 12
0000
0000
0010
0000
0000
0010
0000
0000
1000
0000
0000
0000
0002
0000
0100
0000
,  // measure 13
0000
0100
0000
0103
0000
0000
0001
0000
,  // measure 14
2000
0100
0000
0100
0000
3100
0000
0000
,  // measure 15
1000
0000
0001
1000
0000
0001
1000
0000
,  // measure 16
0001
0000
0020
0100
0000
0100
0000
0130
,  // measure 17
0000
0000
1000
0000
0200
0010
0000
0010
,  // measure 18
0000
0010
0310
0000
1000
0000
2002
0000
,  // measure 19
3003
0220
0000
0000
,  // measure 20
0000
0000
0000
0000
,  // measure 21
0000
0000
0000
0000
,  // measure 22
0000
0000
0000
0000
,  // measure 23
0330
0000
0010
0000
1000
0100
0000
1000
,  // measure 24
0100
0010
0001
0100
,  // measure 25
0001
0000
0100
0010
0000
0000
0010
0000
,  // measure 26
0000
0010
0000
0000
0010
0000
1000
0001
,  // measure 27
0000
0001
1000
0000
0001
0000
0010
0000
,  // measure 28
0100
0000
0010
0000
0001
1000
0000
0000
,  // measure 29
1000
0000
0000
1000
0000
0000
1000
0000
,  // measure 30
0001
0000
2001
0000
0000
0100
0000
0100
,  // measure 31
0000
3100
0000
0100
1000
0000
0001
0010
,  // measure 32
0000
0001
1000
0001
1000
0000
0001
0000
,  // measure 33
0101
0000
0100
0010
0000
0100
0000
0001
,  // measure 34
0000
1000
0100
0000
0010
0001
1000
0000
,  // measure 35
0001
0100
0001
0100
,  // measure 36
0010
0010
0010
0100
,  // measure 37
0010
1000
0100
0100
,  // measure 38
0100
0010
0100
1000
,  // measure 39
0001
0001
0001
1000
,  // measure 40
0010
0001
0010
0010
,  // measure 41
0010
0100
0001
0010
,  // measure 42
0100
0010
0100
0010
,  // measure 43
0001
0100
1000
0100
,  // measure 44
0001
1000
0100
0010
,  // measure 45
0100
1000
0100
0010
,  // measure 46
0001
0010
0100
0010
,  // measure 47
0001
0000
1000
0010
1000
0000
0001
0000
,  // measure 48
0100
0000
0001
0000
1000
0000
0001
0010
,  // measure 49
0001
0010
0001
1000
,  // measure 50
0100
0000
0010
0100
0010
0000
0100
0000
,  // measure 51
0010
0001
0010
0000
0001
0000
1000
0001
,  // measure 52
1000
0000
0001
0000
1000
0010
1000
0000
,  // measure 53
0010
0000
0100
0001
1000
0000
0100
0000
,  // measure 54
0010
0000
0100
0000
1000
0000
0010
0100
,  // measure 55
0001
0010
0100
0010
,  // measure 56
0001
0000
1000
0000
0010
0100
0001
0000
,  // measure 57
0010
0000
0001
0010
0100
0000
0010
0000
,  // measure 58
0001
1000
0010
0000
0100
0000
0010
1000
,  // measure 59
0001
0000
1002
0000
0000
0203
0000
0000
,  // measure 60
0320
0000
0000
2030
0000
0000
0002
0000
,  // measure 61
0000
0000
0000
0000
,  // measure 62
0000
3003
0000
0000
0000
0000
0000
0000
0000
0000
0000
0000
1001
0000
0000
0000
,  // measure 63
1000
0100
0000
0010
0000
0100
0000
1000
,  // measure 64
0001
0000
0100
0001
0000
0100
0000
0001
,  // measure 65
0000
1000
0100
0000
0010
0001
0000
1000
,  // measure 66
0010
0100
0001
0000
1000
0001
0000
1000
,  // measure 67
0000
0001
0000
1000
0100
0000
0010
0100
,  // measure 68
0000
1000
0000
0100
0010
0001
0010
0000
,  // measure 69
0100
0000
0010
0000
1001
0000
1000
0010
,  // measure 70
0000
0100
0000
0010
0000
1000
0010
0000
,  // measure 71
0100
0001
0000
0010
0000
0001
0000
0010
,  // measure 72
0100
0000
0010
0001
0000
0001
1000
0010
,  // measure 73
0100
0000
0010
1000
0000
0010
0000
1000
,  // measure 74
0000
0001
0010
0000
0001
0100
0000
0010
,  // measure 75
0000
1000
0100
0010
0100
0000
0010
0000
,  // measure 76
0001
0000
1001
0000
0000
1001
0000
0000
,  // measure 77
0110
0000
0000
0110
0000
0000
1001
0000
,  // measure 78
0000
1001
0000
0000
0110
0000
0000
0110
,  // measure 79
0000
2002
0000
0000
,  // measure 80
0000
0000
3003
0220
,  // measure 81
0000
0000
0000
0000
,  // measure 82
0330
0000
0010
0100
0000
0100
0010
0000
,  // measure 83
0010
1000
0000
1000
0001
0000
0001
1000
,  // measure 84
0000
1000
0100
0000
0100
0010
0000
0010
,  // measure 85
0100
2002
0000
0000
,  // measure 86
0000
0000
0000
3003
;

//---------------dance-single - ----------------
#NOTES:
     dance-single:
     :
     Beginner:
     3:
     0.152913,0.251479,0.210707,0.016857,0.000000,127.000000,102.000000,25.000000,2.000000,0.000000,0.000000,0.152913,0.251479,0.210707,0.016857,0.000000,127.000000,102.000000,25.000000,2.000000,0.000000,0.000000:
1000
0000
0000
0001
,
0000
0000
1001
0000
,
0000
0220
0000
0000
,
0330
0000
0000
0000
,
0000
0000
1001
0000
,
0000
0000
0000
0000
,
0000
0110
0000
0000
,
0000
0000
0000
0000
,
0000
1001
0000
0000
0000
0000
0000
0000
,
0000
0000
0000
0000
0000
0000
0000
0110
,
0000
0000
0000
0000
,
0000
0000
0000
0000
,
0000
0000
1001
0000
,
0000
1000
0000
0001
,
0000
0000
0000
0000
,
0100
0000
0000
0100
0000
0000
0100
0000
,
0100
0000
0000
0010
,
0000
1000
0000
0000
,
0000
0000
0000
1001
,
0000
0110
0000
0000
,
0000
0000
0000
0000
,
0000
0000
0000
0000
,
0000
0000
0000
0000
,
0000
0010
0000
0000
,
1000
0000
1000
0000
,
0001
0000
0000
0010
,
0000
0000
0100
0000
,
0000
0010
0000
0010
,
0000
0001
0000
0000
,
1000
0000
0000
0001
,
0001
0001
0000
0000
,
0000
0000
0000
0000
,
0000
0000
0000
0000
,
0110
0000
0000
0000
,
0000
0000
0000
0000
,
0000
1000
0000
0000
,
0100
0000
0000
0010
,
0000
0000
0001
0000
,
0000
1000
0000
0000
,
0001
0000
0000
0100
,
0000
0000
0010
0000
,
0000
1001
0000
0000
,
1000
0000
0000
0100
,
0000
0000
0010
0000
,
0000
0001
0000
0000
,
0100
0000
0000
0001
,
0000
0000
1000
0000
,
0000
1001
0000
0000
,
0001
0000
0000
1000
,
0000
0100
0100
0000
,
0000
0010
0000
0000
,
0100
0000
0000
0010
,
0000
0001
0001
0000
,
0000
1001
0000
0000
,
1000
0000
0000
0010
,
0000
0100
0100
0000
,
0000
0010
0000
0000
,
1000
0000
0000
0001
,
0000
1000
1000
0000
,
0001
1001
0000
0000
,
0000
0000
0000
1001
,
0000
0000
0000
0000
,
0000
0000
0000
0110
,
0000
0000
0000
0010
,
0010
0000
0000
0000
,
0000
1000
0000
0000
,
0001
0001
0000
0000
,
0000
0010
0010
0000
,
0000
0000
0000
0100
,
0100
0000
1001
0000
,
0000
0000
0001
0001
,
0000
0000
0000
0000
,
1000
0000
0000
0001
,
0001
0000
0000
0000
,
0100
0100
0000
0000
,
0000
0000
0010
0010
,
0010
0010
0000
0000
,
0110
0000
0000
1001
,
0000
0000
0110
0000
,
0000
1001
0000
0000
,
0000
0000
0000
0110
,
0000
0000
0000
0000
,
0000
1001
0000
0000
,
0000
0000
0000
0110
,
0000
0000
0000
0000
,
0000
0110
0000
0000
;

//---------------dance-single - Oni-91----------------
#NOTES:
     dance-single:
     :
     Challenge:
     12:
     0.992130,1.060174,1.095678,0.058998,0.539411,824.000000,694.000000,130.000000,7.000000,0.000000,0.000000,0.992130,1.060174,1.095678,0.058998,0.539411,824.000000,694.000000,130.000000,7.000000,0.000000,0.000000:
// measure 0
1000
0100
1000
0001
0010
0001
1000
0010
,  // measure 1
0100
0001
0010
0100
1100
0000
0000
0110
,  // measure 2
0000
0000
0011
0000
0000
1001
0000
0000
,  // measure 3
1000
0100
1000
0100
0010
0001
0010
0001
1000
0010
0100
0001
1000
0100
0010
0001
,  // measure 4
1000
0001
1000
0001
1000
0001
1000
0001
1000
0000
0000
0001
0100
0000
0110
0000
,  // measure 5
0000
0101
0000
1010
0000
1000
0100
0010
,  // measure 6
0001
1000
0001
0000
1000
0000
0000
0000
0010
0000
0011
0000
0000
0000
0001
0000
,  // measure 7
1000
0000
0010
1000
0010
1000
0010
0000
0000
1100
0000
0000
1010
0000
0000
0101
,  // measure 8
0000
0000
0011
0000
0000
0001
1000
0000
1001
0000
0000
0000
1100
0000
0000
0000
,  // measure 9
0110
0000
0000
0000
0010
0000
0100
0000
1000
0000
0001
1000
0001
0000
1000
0000
,  // measure 10
0000
0000
0010
0000
0110
0000
0000
0000
0100
0000
0101
0000
0001
1000
0001
1000
,  // measure 11
0100
0000
0000
0110
0000
0000
0011
0000
0000
1001
0000
0000
1010
0000
0000
0110
,  // measure 12
0000
0000
0101
0000
0000
1001
0000
0000
1001
0000
1000
0000
0100
0000
0010
0000
,  // measure 13
0100
0010
0001
0000
0100
0010
1000
0000
0000
0000
0010
0000
1000
0000
0100
0000
,  // measure 14
0010
0000
0001
0000
0010
0001
0100
0000
0001
0100
0001
0000
0000
0000
0001
0000
,  // measure 15
1001
0000
1000
1100
0000
0100
0110
0000
,  // measure 16
1001
0000
0001
0000
0100
0000
0010
0000
1000
0010
0100
0000
0001
0100
0010
0000
,  // measure 17
0000
0000
1000
0000
0100
0000
0010
0000
0001
0000
0010
0000
0100
0010
0100
0000
,  // measure 18
0010
0001
0010
0001
1000
0000
0010
0000
0100
0000
0001
1000
0001
0000
1000
0100
,  // measure 19
1000
0100
0010
0001
0020
0000
0000
0000
0001
0000
0000
0000
0001
0000
0000
0000
,  // measure 20
0001
0001
0001
0001
,  // measure 21
0001
0100
0100
0100
,  // measure 22
0100
0100
0100
0200
,  // measure 23
0330
0000
0000
0000
0010
0000
0001
0000
0101
0000
0100
0000
0010
0000
1000
0100
,  // measure 24
0010
0000
0110
0000
0000
0000
0100
0000
1000
0000
0001
0100
0010
0000
0100
0010
,  // measure 25
0100
0001
1000
1001
0000
0001
1010
0000
,  // measure 26
1000
0101
0000
0001
0110
0010
1000
1100
,  // measure 27
0100
0000
0010
0001
0100
0000
0110
0000
0000
0000
0010
0000
0100
0000
0001
0000
,  // measure 28
0010
0000
0001
0010
0001
0000
0000
0000
1000
0000
0110
0000
0000
0000
0001
0000
,  // measure 29
0110
0000
0000
0000
1000
0000
1001
0000
0000
0000
0001
0000
1001
0000
1000
0010
,  // measure 30
0100
0001
1000
0100
0010
0000
0100
0010
0100
0000
0110
0000
0000
0000
1001
0000
,  // measure 31
0000
0000
0110
0000
0000
0000
0101
0000
1010
0000
0010
1000
0100
0000
1100
0000
,  // measure 32
0000
0100
0010
0001
0010
1000
0010
0100
,  // measure 33
0010
0000
0001
1000
0001
0000
0110
0000
0000
0000
1010
0000
0000
0000
0101
0000
,  // measure 34
0000
0000
0011
0000
0011
0000
0001
1000
0100
0000
0010
0000
0100
0000
1000
0000
,  // measure 35
0001
1000
0001
0100
1000
0100
0001
1000
,  // measure 36
1001
0001
0011
0010
0110
0000
1000
0010
,  // measure 37
0001
0010
1000
0001
0011
0010
0110
0100
,  // measure 38
1100
0000
1000
0010
0001
0010
1010
0000
,  // measure 39
0001
0010
1000
0010
0011
0000
0001
0100
,  // measure 40
1000
0100
0001
0010
0100
0010
0001
0100
,  // measure 41
0110
0000
1001
0001
0100
1000
0010
0001
,  // measure 42
0101
0100
0110
0010
1010
0000
1100
0100
,  // measure 43
0001
0010
1000
0100
0110
0010
0011
0001
,  // measure 44
1001
0000
0010
1000
0100
0001
0101
0100
,  // measure 45
1000
0010
0100
0001
1001
1000
0100
0001
,  // measure 46
0100
0000
1000
0000
1010
0000
0010
0000
0100
0001
0100
0001
0100
0010
0100
0010
,  // measure 47
1000
0100
1001
0100
0010
1000
0100
0010
,  // measure 48
0100
0000
1000
0001
0100
0000
0001
1000
0100
0000
1000
0000
0011
0000
0100
0000
,  // measure 49
1000
0000
0001
0000
0100
0000
0010
0000
1000
0000
0001
1000
0100
0000
1000
0001
,  // measure 50
0100
0000
0001
0000
1000
0000
0010
0100
0001
0000
1000
0000
0100
0000
0010
0000
,  // measure 51
0001
0000
1000
0100
0010
0000
0100
0000
1000
0000
0010
0000
0100
0000
0001
0100
,  // measure 52
0010
0000
0100
0000
0001
0000
1000
0000
0001
0000
0010
0100
1000
0000
0010
0100
,  // measure 53
0001
0000
1000
0000
0101
0000
0010
1000
0100
0000
0001
0000
0100
0000
1000
0000
,  // measure 54
0011
0000
0010
0000
0110
0000
0100
0000
1100
0000
1000
0000
0011
0000
0100
0010
,  // measure 55
0001
0000
0100
0010
1000
0000
0001
0000
1010
0000
0010
0000
0110
0000
0100
0000
,  // measure 56
0101
0000
0001
0000
1000
0000
0100
0010
0100
0000
1000
0000
0010
0000
0100
0000
,  // measure 57
0001
0000
1000
0100
0010
0000
0100
0010
0001
0000
0010
0000
0100
0000
1000
0100
,  // measure 58
0010
0000
0001
0000
0100
0000
0001
0000
1000
0000
1000
0100
0010
0001
0010
0001
,  // measure 59
1000
0001
1001
1001
0000
1010
0101
0000
,  // measure 60
0011
0000
1100
0000
0000
0000
1001
0000
0110
0000
0000
0000
1001
0000
0000
1100
,  // measure 61
0000
0000
0110
0000
0000
0011
0000
0000
0101
0000
0000
0110
0000
0000
1001
0000
,  // measure 62
0000
2002
0000
0000
0000
0000
0000
0000
0000
0000
3003
0000
1000
0000
0001
0000
,  // measure 63
1000
0000
0100
1000
0100
0010
0001
0010
0001
0000
0100
0000
0000
0000
0010
0000
,  // measure 64
1000
0000
0001
0000
0100
0000
0010
1000
0010
1000
0001
0100
0001
1000
0001
0000
,  // measure 65
0000
1000
1100
0000
0010
0011
0000
0001
,  // measure 66
1001
0000
1000
0000
0010
0000
1000
0000
0001
0000
0010
0001
0100
0010
1000
0100
,  // measure 67
1000
0100
1000
0000
0000
0000
1000
0000
0010
0000
1000
0000
0100
0000
1000
0010
,  // measure 68
1000
0010
0100
0001
0010
0100
0010
0001
1000
0000
0001
0100
0001
0000
1000
0100
,  // measure 69
1000
0000
0100
0010
0100
0010
0100
1000
0001
0000
0100
0000
0010
0000
1000
0100
,  // measure 70
1000
0100
0010
0001
0010
0001
0100
0001
0100
0000
0010
0000
0100
0000
0001
0000
,  // measure 71
1000
0000
0100
0010
0001
0100
0010
1000
0100
0010
0001
0000
0000
0000
0001
0000
,  // measure 72
1001
0000
0001
0101
0000
0100
0110
0000
,  // measure 73
0010
0000
1000
0010
1000
0000
0001
0010
0001
0010
0100
1000
0100
0010
0001
0100
,  // measure 74
0010
0000
1000
0000
0001
0000
1000
0001
1000
0000
0001
0010
0001
1000
0100
0001
,  // measure 75
0100
1000
0010
0100
0001
0000
1000
0010
0100
0000
0001
0010
0100
0000
0010
0100
,  // measure 76
0010
0100
0010
0001
1001
0000
0100
0000
0010
0000
1010
0000
1000
0000
0100
0000
,  // measure 77
0110
0010
0001
1100
0010
1000
0101
0010
,  // measure 78
0100
1001
0010
1000
0101
0001
0010
1100
,  // measure 79
0100
0010
2001
0000
0001
0000
0001
0000
,  // measure 80
0001
0001
0001
0010
,  // measure 81
0010
0000
0000
0000
0010
0000
0000
0000
0010
0000
0000
0000
3010
0000
0100
0010
,  // measure 82
0100
0001
1000
0010
1010
0000
1010
0000
0100
0000
1001
0000
1001
0000
0000
0000
,  // measure 83
0101
0101
1000
0011
0011
0000
1001
1001
,  // measure 84
0010
1100
1100
0000
0110
0110
1000
1001
,  // measure 85
1001
0220
0000
0000
,  // measure 86
0000
0000
0000
0330
;
