#VERSION:0.83;
#TITLE:Save the World;
#SUBTITLE:(Knife Party Remix);
#ARTIST:Swedish House Mafia;
#TITLETRANSLIT:;
#SUBTITLETRANSLIT:;
#ARTISTTRANSLIT:;
#GENRE:;
#ORIGIN:;
#CREDIT:;
#BANNER:Save the World (Knife Party Remix).png;
#BACKGROUND:Save the World (Knife Party Remix)-bg.png;
#PREVIEWVID:;
#JACKET:;
#CDIMAGE:;
#DISCIMAGE:;
#LYRICSPATH:;
#CDTITLE:;
#MUSIC:Save The World (Knife Party Remix).mp3;
#OFFSET:-7.690000;
#SAMPLESTART:76.810005;
#SAMPLELENGTH:15.360000;
#SELECTABLE:YES;
#BPMS:0.000=125.000;
#STOPS:;
#DELAYS:;
#WARPS:;
#TIMESIGNATURES:0.000=4=4;
#TICKCOUNTS:0.000=4;
#COMBOS:0.000=1;
#SPEEDS:0.000=1.000=0.000=0;
#SCROLLS:0.000=1.000;
#FAKES:;
#LABELS:0.000=Song Start;
#BGCHANGES:;
#KEYSOUNDS:;
#ATTACKS:
;

//---------------dance-single - Oni-91----------------
#NOTEDATA:;
#CHARTNAME:;
#STEPSTYPE:dance-single;
#DESCRIPTION:Oni-91;
#CHARTSTYLE:;
#DIFFICULTY:Hard;
#METER:7;
#RADARVALUES:0.360495,0.493284,0.187918,0.366887,0.031320,282.000000,261.000000,21.000000,41.000000,0.000000,0.000000,0.000000,0.000000,0.000000,0.360495,0.493284,0.187918,0.366887,0.031320,282.000000,261.000000,21.000000,41.000000,0.000000,0.000000,0.000000,0.000000,0.000000;
#CREDIT:Oni-91;
#NOTES:
// measure 0
0010
0000
0001
0000
1000
0010
0100
0000
,  // measure 1
0010
0000
0100
0000
0001
0100
0001
1000
,  // measure 2
0100
0020
0100
0001
,  // measure 3
1000
0000
0100
0000
0001
0000
0130
0010
,  // measure 4
0001
0000
1000
0000
0010
0100
0001
0000
,  // measure 5
1000
0000
0100
1000
0001
0100
0001
0000
,  // measure 6
1000
0000
0100
0000
0010
0100
1000
0000
,  // measure 7
0100
0000
0010
0000
0001
1000
0001
1000
,  // measure 8
0100
0000
0010
0000
0001
0000
0100
0010
,  // measure 9
1000
0000
0001
1000
0001
2000
0000
0000
,  // measure 10
3100
0020
0001
0100
,  // measure 11
0001
0000
0100
0000
0031
1000
0001
0200
,  // measure 12
0000
0000
0000
0010
0000
0000
0001
0302
,  // measure 13
0000
0000
0000
0010
0000
0000
1000
0000
,  // measure 14
2003
0000
0000
0010
0000
0000
0100
3200
,  // measure 15
0000
0000
0000
0000
0310
0001
1000
0001
,  // measure 16
2000
0000
0000
0010
0000
0000
0100
3200
,  // measure 17
0000
0000
0000
0001
0000
0000
1000
0000
,  // measure 18
0320
0000
0000
0100
0000
0000
0001
0032
,  // measure 19
0000
0000
0000
0010
0000
1000
1003
0001
,  // measure 20
0001
0000
1100
0000
1000
0000
0001
0010
,  // measure 21
0100
0000
1001
0000
0100
0000
0010
0001
,  // measure 22
0100
0000
1010
0000
0100
0000
0010
1000
,  // measure 23
0001
1000
0001
0100
0000
0010
1000
0100
,  // measure 24
0010
0000
0100
0010
0000
0100
1000
0001
,  // measure 25
0000
1000
0010
0100
0000
0010
0100
0001
,  // measure 26
1000
0000
0001
0010
0000
0100
1000
0100
,  // measure 27
0000
2002
0000
0000
0000
0000
3003
0000
,  // measure 28
1010
0000
0000
0000
0101
0000
0000
0000
2001
0000
0000
0000
0001
0000
0000
0001
,  // measure 29
0000
0000
0001
0000
0000
0001
0000
0000
0001
0000
0000
0001
0000
0000
3001
0000
,  // measure 30
0202
0000
0303
0000
,  // measure 31
2002
0000
0000
3003
,  // measure 32
1000
0001
1000
0001
1000
0001
1000
0001
1000
0000
0000
0000
0001
0000
0010
0000
,  // measure 33
0100
1000
0100
0010
0001
1000
0001
1000
,  // measure 34
2002
0000
0000
0000
,  // measure 35
0000
0000
0000
3003
,  // measure 36
0220
0000
0330
0000
0100
0001
0100
0001
,  // measure 37
1000
0100
1000
0100
0010
0001
0100
0010
,  // measure 38
2002
0000
3003
0000
1000
0100
0010
0001
,  // measure 39
0010
0100
0001
0100
1000
0100
1000
0001
,  // measure 40
0202
0000
0303
0000
0100
1000
0100
0010
,  // measure 41
1000
0100
1000
0001
0010
0100
0010
0001
,  // measure 42
2002
0000
3003
0000
1000
0100
0010
0001
,  // measure 43
2001
0000
0010
0010
0010
0000
3001
0000
,  // measure 44
0220
0000
0330
0000
0010
1000
0100
1000
,  // measure 45
0010
0100
0001
0100
0001
0010
0100
1000
,  // measure 46
1200
0000
0320
0000
0031
0100
0001
1000
,  // measure 47
0200
0000
0310
0001
0200
0000
0310
0000
,  // measure 48
2002
0000
3003
0000
1000
0100
0010
0001
,  // measure 49
1000
0010
0100
0001
0100
1000
0100
0010
,  // measure 50
2000
0000
3002
0000
1003
0100
1000
0001
,  // measure 51
0011
0000
0101
0000
1000
0010
0100
0001
,  // measure 52
2002
0000
3003
0000
;

//---------------dance-single - Oni-91----------------
#NOTEDATA:;
#CHARTNAME:;
#STEPSTYPE:dance-single;
#DESCRIPTION:Oni-91;
#CHARTSTYLE:;
#DIFFICULTY:Medium;
#METER:4;
#RADARVALUES:0.249279,0.328856,0.178969,0.438475,0.000000,195.000000,175.000000,20.000000,49.000000,0.000000,0.000000,0.000000,0.000000,0.000000,0.249279,0.328856,0.178969,0.438475,0.000000,195.000000,175.000000,20.000000,49.000000,0.000000,0.000000,0.000000,0.000000,0.000000;
#CREDIT:Oni-91;
#NOTES:
2000
0000
0010
0001
,
3200
0000
0010
1000
,
0310
2002
0000
0000
,
0000
0000
0000
3003
,
0002
0000
0100
1000
,
0023
0000
0100
0001
,
0230
0000
0001
0010
,
2300
0000
0001
0100
,
3002
0000
0000
0000
0100
0100
0100
0000
,
2003
0000
0000
0000
0100
0200
0000
0000
,
3300
2002
0000
0000
,
0000
0000
3003
0000
0001
1000
0001
2000
,
0000
0000
0000
0000
0000
0000
0001
3002
,
0000
0000
0000
0000
0000
0000
0100
0203
,
0000
0000
0000
0020
0000
0000
0000
0000
,
0330
0000
0000
0000
1000
0001
1000
0002
,
0000
0000
0000
0000
0000
0000
0010
0023
,
0000
0000
0000
0000
0000
0000
0100
0200
,
0000
0000
0000
0000
,
0330
0000
0000
0000
0000
0010
0001
1000
,
0100
0001
0100
1000
,
0010
0001
0010
1000
,
0001
0000
0010
0000
0100
0000
1000
0001
,
0000
1000
0000
0001
0000
1000
0100
1000
,
0100
0010
0100
1000
,
0001
0100
0010
0100
,
0001
0000
0010
0000
0001
0000
1000
0020
,
0000
0200
0000
0000
0000
0000
0330
0000
,
2002
0000
3003
0001
,
0100
0010
1000
0100
,
0220
0000
0330
0010
,
0001
1000
0001
1000
,
2002
0000
3003
0001
,
0100
0010
1000
0100
,
0220
0000
0000
0330
,
2002
0000
0000
3003
,
0220
0000
0330
0000
0010
1000
0010
0000
,
0100
0000
0001
0000
1000
0001
1000
0000
,
0022
0000
0033
0000
0010
0001
0100
0000
,
0010
1000
0100
0010
,
2200
0000
3300
0000
1000
0001
0100
0000
,
0001
0000
0010
0000
0100
0010
0001
0000
,
2020
0000
3030
0000
0001
0100
0001
0000
,
1000
0000
0010
1000
0100
0000
0110
0000
,
2002
0000
3003
0000
0001
0010
0001
0000
,
1000
0100
1000
0000
0001
1000
0010
0000
,
0220
0000
0330
0000
0010
1000
0100
0000
,
1010
0000
0010
1000
0001
0000
1001
0000
,
0022
0000
0033
0000
0010
0001
0100
0000
,
0010
1000
0100
0000
1000
0001
0100
0000
,
2020
0000
3030
0000
0010
1000
0001
0000
,
1001
0000
1001
0000
1000
0100
0010
0001
,
0200
0000
0300
0000
;

//---------------dance-single - Oni-91----------------
#NOTEDATA:;
#CHARTNAME:;
#STEPSTYPE:dance-single;
#DESCRIPTION:Oni-91;
#CHARTSTYLE:;
#DIFFICULTY:Easy;
#METER:3;
#RADARVALUES:0.167464,0.234897,0.143175,0.384784,0.000000,131.000000,115.000000,16.000000,43.000000,0.000000,0.000000,0.000000,0.000000,0.000000,0.167464,0.234897,0.143175,0.384784,0.000000,131.000000,115.000000,16.000000,43.000000,0.000000,0.000000,0.000000,0.000000,0.000000;
#CREDIT:Oni-91;
#NOTES:
2000
0000
0000
0000
,
3002
0000
0000
0000
,
1003
2002
0000
0000
,
0000
0000
0000
3003
,
0020
0000
0000
0000
,
0230
0000
0000
0000
,
0302
0000
0000
0000
,
2003
0000
0000
0000
,
3200
0000
0000
0000
,
0320
0000
0000
0000
,
0130
0220
0000
0000
,
0000
0000
0000
0330
,
2002
0000
0000
0000
,
0003
0000
0000
0000
,
0200
0000
0000
0000
,
3000
0000
0000
0000
,
0020
0000
0000
0000
,
0300
0000
0000
0000
,
0002
0000
0000
0000
,
0033
0000
0000
0000
,
0001
0010
0001
0000
,
1000
0100
1000
0000
,
0001
0100
0010
1000
,
0001
1000
0001
0000
,
1000
0100
0010
0000
,
0001
0100
0010
0000
,
1000
0001
1000
0001
,
0100
0010
0100
0000
,
2002
0000
3003
0000
,
0001
1000
0010
0100
,
0220
0000
0330
0000
,
0010
0100
0001
1000
,
2002
0000
3003
0000
,
1000
0100
0010
0100
,
0220
0000
0330
0000
,
0010
0001
1000
0001
,
2002
3003
1000
0000
,
0001
1000
0001
0100
,
0220
0330
0100
0000
,
0010
0100
0100
0001
,
2002
3003
1000
0000
,
0001
0010
0001
0100
,
0220
0330
0010
0000
,
1000
0001
1000
0001
,
2002
3003
1000
0100
,
0010
0001
0100
0010
,
0220
0330
0010
0100
,
0001
0100
0001
1000
,
2002
3003
1000
0100
,
0010
0100
0010
0001
,
2002
3003
1000
0001
,
0100
0010
0100
0010
,
2002
0000
3003
0000
;

//---------------dance-single - Oni-91----------------
#NOTEDATA:;
#CHARTNAME:;
#STEPSTYPE:dance-single;
#DESCRIPTION:Oni-91;
#CHARTSTYLE:;
#DIFFICULTY:Beginner;
#METER:1;
#RADARVALUES:0.111217,0.162862,0.053691,0.000000,0.000000,87.000000,81.000000,6.000000,0.000000,0.000000,0.000000,0.000000,0.000000,0.000000,0.111217,0.162862,0.053691,0.000000,0.000000,87.000000,81.000000,6.000000,0.000000,0.000000,0.000000,0.000000,0.000000,0.000000;
#CREDIT:Oni-91;
#NOTES:
1000
0000
0000
0000
,
0001
0000
0000
0000
,
0100
0100
0000
0000
,
0000
0000
0000
0000
,
0001
0000
0000
0000
,
1000
0000
0000
0000
,
0100
0000
0000
0000
,
0010
0000
0000
0000
,
0100
0000
0000
0000
,
0010
0000
0000
0000
,
0100
0100
0000
0000
,
0000
0000
0000
0000
,
1001
0000
0000
0000
,
0000
0000
0000
0000
,
1000
0000
0000
0000
,
0000
0000
0000
0000
,
0001
0000
0000
0000
,
0000
0000
0000
0000
,
0100
0000
0000
0000
,
0000
0000
0000
0000
,
0001
0000
0000
0000
,
1000
0000
0100
0000
,
1000
0000
0000
0000
,
0100
0000
0010
0000
,
0100
0000
0000
0000
,
0010
0000
0001
0000
,
1000
0000
0000
0000
,
0001
0000
1000
0000
,
0001
0001
0001
0000
,
1000
0000
0001
0000
,
0100
0100
0100
0000
,
0010
0000
0100
0000
,
0010
0010
0010
0000
,
1000
0000
0100
0000
,
1000
1000
1000
0000
,
0001
0000
1000
0000
,
1001
0000
0001
0000
,
0100
0000
0001
0000
,
1000
0000
0100
0000
,
0010
0000
0100
0000
,
0110
0000
0010
0000
,
0001
0000
1000
0000
,
0001
0000
0100
0000
,
0001
0000
1000
0000
,
1001
0000
0001
0000
,
0100
0000
0001
0000
,
0100
0000
0010
0000
,
1000
0000
0001
0000
,
1001
0000
1000
0000
,
0100
0000
0010
0000
,
0001
0000
0100
0000
,
0010
0000
1000
0000
,
1001
0000
0000
0000
;
