#TITLE:Saturday Night's Alright for Fighting;
#SUBTITLE:;
#ARTIST:Elton John;
#TITLETRANSLIT:;
#SUBTITLETRANSLIT:;
#ARTISTTRANSLIT:;
#GENRE:;
#CREDIT:;
#BANNER:Saturday Night's Alright for Fighting.png;
#BACKGROUND:Saturday Night's Alright for Fighting-bg.png;
#LYRICSPATH:;
#CDTITLE:;
#MUSIC:Saturday Night's Alright for Fighting.mp3;
#OFFSET:-7.030000;
#SAMPLESTART:34.760002;
#SAMPLELENGTH:13.000000;
#SELECTABLE:YES;
#DISPLAYBPM:153.000000;
#BPMS:0.000000=150.000000
,8.000000=153.000000
,16.000000=151.000000
,24.000000=152.000000
,32.000000=151.000000
,40.000000=153.000000
,48.000000=152.000000
,56.000000=151.000000
,64.000000=152.000000
,70.000000=155.000000
,72.000000=151.000000
,80.000000=152.000000
,88.000000=151.000000
,96.000000=153.000000
,120.000000=151.000000
,136.000000=152.000000
,144.000000=151.000000
,148.000000=153.000000
,152.000000=152.000000
,160.000000=153.000000
,184.000000=155.000000
,188.000000=153.000000
,192.000000=154.000000
,208.000000=156.000000
,216.000000=154.000000
,224.000000=153.000000
,236.000000=154.000000
;
#STOPS:
;
#BGCHANGES:;
#KEYSOUNDS:;
#ATTACKS:;

//---------------dance-single - Oni-91----------------
#NOTES:
     dance-single:
     :
     Hard:
     8:
     0.532393,0.483611,0.199338,0.000000,0.034667,430.000000,407.000000,23.000000,0.000000,0.000000,0.000000,0.532393,0.483611,0.199338,0.000000,0.034667,430.000000,407.000000,23.000000,0.000000,0.000000,0.000000:
// measure 0
1001
0000
0001
0100
0000
0010
1000
0000
,  // measure 1
0001
1000
0001
0010
0000
0001
1000
0000
,  // measure 2
0010
0100
0010
0100
0001
0000
0010
0100
,  // measure 3
0010
0000
0001
0000
1000
0010
0100
1001
,  // measure 4
0000
1000
0001
0010
0100
0010
0001
1000
,  // measure 5
0000
0001
0100
0000
0010
0100
0001
0000
,  // measure 6
1000
0001
0100
0001
1000
0100
0010
0100
,  // measure 7
0000
0010
0001
0010
0001
1000
0001
0100
,  // measure 8
0010
0000
0100
0000
0001
0010
0001
0000
,  // measure 9
1000
0000
0100
0000
0010
0100
1000
0100
,  // measure 10
0010
0000
0001
0000
1000
0010
0100
0000
,  // measure 11
0001
1000
0001
0010
0100
1000
0001
0000
,  // measure 12
1000
0010
1000
0000
0001
0000
0100
0001
,  // measure 13
0100
0001
1000
0100
0000
0010
0100
0010
,  // measure 14
0001
0000
1000
0000
0001
1000
0001
1000
,  // measure 15
0100
0010
0001
0100
0010
1000
0001
1000
,  // measure 16
1100
0000
0010
0001
0100
0010
0100
0001
,  // measure 17
1000
0000
0010
0000
1000
0000
0100
0000
0010
0000
0000
0100
0010
0000
0100
0000
,  // measure 18
1000
0001
0100
1000
0100
0000
0010
0100
,  // measure 19
0000
0100
0001
0010
0000
0100
0010
0000
,  // measure 20
0001
1000
0010
1000
0001
0010
0100
0010
,  // measure 21
0001
0000
1000
0000
0010
0100
0010
0000
,  // measure 22
1000
0010
0100
0001
0000
0011
0000
0110
,  // measure 23
0000
1100
0000
0101
0000
1100
0000
1000
,  // measure 24
0001
0010
0100
0010
0001
1000
0001
0100
,  // measure 25
0000
0010
0100
0010
0100
0010
0000
0000
,  // measure 26
1000
0010
0001
0010
1000
0010
0100
0001
,  // measure 27
0010
0100
0000
0110
0000
0010
0001
1000
,  // measure 28
0001
0100
0010
1000
0100
0010
0100
1000
,  // measure 29
0000
0001
0010
0100
0010
0001
1000
0101
,  // measure 30
0000
0010
0100
0001
0000
0101
0000
1100
,  // measure 31
0000
0101
0000
0110
0000
1001
0000
0001
,  // measure 32
0010
0100
0010
0001
0010
1000
0010
0100
,  // measure 33
1000
0010
0001
0010
1000
0010
0001
0010
,  // measure 34
0110
0000
1010
0000
1000
0100
0010
0001
,  // measure 35
0000
1000
0010
1000
0000
0001
0010
0100
,  // measure 36
1000
0100
0010
0100
1000
0000
0001
0100
,  // measure 37
0001
1000
0100
0000
0010
0010
0010
0000
,  // measure 38
0001
0000
1000
0000
0100
0000
0000
0100
1000
0000
0001
0000
0010
0000
0001
0000
,  // measure 39
0100
0000
0000
0100
0010
0000
0100
0000
0000
0000
0001
0000
0100
0000
0000
0000
,  // measure 40
0001
0000
0010
0000
0100
0000
0000
0010
0100
0000
1000
0000
0001
0000
1000
0000
,  // measure 41
0001
0000
0000
0001
1000
0000
0100
0000
0000
0000
1000
0000
0001
0000
0000
0000
,  // measure 42
1000
0000
0100
0000
0001
0000
0000
0001
0100
0000
0010
0000
0001
0000
1000
0000
,  // measure 43
0001
0000
0000
1000
0001
0000
0010
0000
0000
0000
0001
0000
1000
0000
0000
0000
,  // measure 44
0001
0000
0010
0000
0100
0000
0000
0010
0001
0000
1000
0000
0010
0000
0110
0000
,  // measure 45
0000
1000
0001
0011
0000
1000
0001
0010
,  // measure 46
0100
0010
0100
0000
0010
0001
0100
1000
,  // measure 47
0100
0000
0010
0100
0000
0100
0001
0000
,  // measure 48
1000
0100
0010
0100
0001
0100
1000
0001
,  // measure 49
0100
0000
0010
0100
0000
0001
1000
0010
,  // measure 50
0001
0010
0100
0000
0001
0100
0010
1000
,  // measure 51
0100
0000
0010
0100
0000
0001
1000
0000
,  // measure 52
0001
0100
0001
0100
1000
0100
1000
0100
,  // measure 53
0001
0010
0001
0010
1000
0010
1000
0010
,  // measure 54
0100
0010
0100
0000
0010
0001
0100
1000
,  // measure 55
0100
0000
1000
0100
0001
0010
0001
0110
,  // measure 56
0000
0001
1000
0000
0001
0010
0100
0010
,  // measure 57
1000
0000
0010
0001
1000
0010
0100
1001
,  // measure 58
0000
1000
0001
0100
0010
0001
0010
0100
,  // measure 59
1000
0100
0010
1000
0000
0001
1000
0100
,  // measure 60
0010
0001
1000
0000
1001
0000
1000
0100
,  // measure 61
0010
0100
1000
0000
0001
0010
1000
0000
,  // measure 62
0110
0000
0000
0000
;

//---------------dance-single - Oni-91----------------
#NOTES:
     dance-single:
     :
     Medium:
     6:
     0.399914,0.349275,0.034667,0.000000,0.000000,323.000000,319.000000,4.000000,0.000000,0.000000,0.000000,0.399914,0.349275,0.034667,0.000000,0.000000,323.000000,319.000000,4.000000,0.000000,0.000000,0.000000:
// measure 0
1001
1000
0001
0010
,  // measure 1
0100
0010
0001
1000
,  // measure 2
0001
0100
0001
0000
1000
0000
0010
0100
,  // measure 3
0000
0010
0100
0000
0001
0000
1000
0001
,  // measure 4
0000
1000
0100
0010
,  // measure 5
0100
1000
0001
0010
,  // measure 6
0100
0010
0100
0000
0010
0001
0000
0001
,  // measure 7
1000
0010
0000
0100
0000
0001
0000
1000
,  // measure 8
0001
0000
1000
0000
0001
0010
0000
0100
,  // measure 9
1000
0000
0001
0000
1000
0001
1000
0000
,  // measure 10
0001
0000
0100
0000
0010
0100
0000
0010
,  // measure 11
0100
0000
0001
0000
1000
0100
1000
0000
,  // measure 12
0001
0010
0001
0100
,  // measure 13
0010
1000
0100
1000
0000
0000
0001
0000
,  // measure 14
0100
1000
0100
0001
,  // measure 15
1000
0100
0000
1000
0001
1000
0001
1000
,  // measure 16
0001
0000
0100
0000
0010
0000
0100
0001
,  // measure 17
0000
1000
0010
0000
0110
0000
0000
0000
,  // measure 18
0100
0000
0001
0000
1000
0000
0001
0010
,  // measure 19
0000
0010
0001
0000
1000
0000
0001
0000
,  // measure 20
0100
0010
0100
0000
0001
1000
0001
0000
,  // measure 21
1000
0000
0100
0000
0010
0100
1000
0100
,  // measure 22
0000
0010
0001
1000
0000
0001
0000
0100
,  // measure 23
0000
0001
0000
1000
0000
0010
0000
0100
,  // measure 24
0001
0000
1000
0000
0010
0100
0010
0100
,  // measure 25
0000
0010
0100
0000
0001
1000
0000
0000
,  // measure 26
0001
0010
0001
0000
1000
0010
1000
0000
,  // measure 27
0001
0100
0000
1000
0000
0100
0001
0000
,  // measure 28
1000
0000
0001
0010
0001
0000
1000
0100
,  // measure 29
0000
0010
0001
0000
1000
0001
1000
0000
,  // measure 30
0001
0000
0100
0010
0000
1000
0000
0001
,  // measure 31
0000
0010
0000
0100
0000
0010
0001
1000
,  // measure 32
0001
0100
0010
1000
,  // measure 33
0001
1000
0000
0001
0000
0010
0000
0110
,  // measure 34
0000
0100
0010
0000
0001
0000
1000
0010
,  // measure 35
0100
0000
0001
0100
0000
0010
1000
0010
,  // measure 36
0000
1000
0001
0000
1000
0000
0001
0010
,  // measure 37
0000
0001
0010
0000
1000
0100
1000
0000
,  // measure 38
0001
0100
0001
0000
0001
1000
0000
1000
,  // measure 39
0001
0000
0001
0010
0000
0010
0001
0000
,  // measure 40
1000
0010
1000
0000
1000
0100
0000
0100
,  // measure 41
1000
0000
1000
0001
0000
0001
1000
0000
,  // measure 42
0010
0100
0010
0000
0010
1000
0000
1000
,  // measure 43
0010
0000
0010
0100
0000
0100
0010
0000
,  // measure 44
1000
0010
1000
0000
0001
0100
0001
0000
,  // measure 45
1000
0001
0000
1000
0000
0010
0000
0100
,  // measure 46
0010
0100
0010
0000
0100
0000
0001
1000
,  // measure 47
0001
0000
1000
0100
0000
0010
0001
0000
,  // measure 48
1000
0100
1000
0000
0001
0000
0100
0010
,  // measure 49
1000
0000
0100
0010
0000
0100
1000
0000
,  // measure 50
0001
0100
0001
0000
1000
0000
0001
0010
,  // measure 51
0001
0000
0100
0010
0000
0010
0100
0000
,  // measure 52
0001
1000
0010
1000
,  // measure 53
0001
0000
0010
0000
0100
0010
0100
0000
,  // measure 54
0010
0001
0010
0000
0001
0000
1000
0010
,  // measure 55
1000
0000
0001
0100
0000
0010
1000
0000
,  // measure 56
0001
1000
0001
0000
0010
0000
0001
1000
,  // measure 57
0001
0000
0100
0010
0000
0100
0010
0000
,  // measure 58
1000
0100
1000
0000
0001
0000
0010
0100
,  // measure 59
0010
0000
0001
1000
0001
1000
0001
0000
,  // measure 60
1000
0000
0010
0000
0100
0010
0100
0010
,  // measure 61
0000
0100
0001
0000
1000
0001
1000
0000
,  // measure 62
0110
0000
0000
0000
;

//---------------dance-single - Oni-91----------------
#NOTES:
     dance-single:
     :
     Easy:
     4:
     0.286006,0.295540,0.034667,0.000000,0.000000,231.000000,227.000000,4.000000,0.000000,0.000000,0.000000,0.286006,0.295540,0.034667,0.000000,0.000000,231.000000,227.000000,4.000000,0.000000,0.000000,0.000000:
// measure 0
1000
0001
0100
0000
,  // measure 1
0010
0100
0001
0000
,  // measure 2
1000
0100
0010
0001
,  // measure 3
0100
0000
0010
0000
,  // measure 4
0100
0010
0100
0001
,  // measure 5
1000
0100
0010
0000
,  // measure 6
0100
1000
0100
1000
,  // measure 7
0001
0010
0001
0010
,  // measure 8
0001
0000
1000
0000
,  // measure 9
0001
0100
0010
0100
,  // measure 10
0001
0000
1000
0001
,  // measure 11
1000
0000
0010
0000
,  // measure 12
0100
0001
0010
0000
,  // measure 13
0100
0010
0001
0000
,  // measure 14
1000
0001
1000
0001
,  // measure 15
0100
0010
0100
0010
,  // measure 16
1001
0100
0010
1000
,  // measure 17
0100
0010
0110
0000
,  // measure 18
0100
0010
0001
1000
,  // measure 19
0010
0100
0001
0000
,  // measure 20
1000
0010
0100
0001
,  // measure 21
0010
0100
1000
0000
,  // measure 22
0001
0010
0001
0010
,  // measure 23
0100
1000
0100
0000
,  // measure 24
1000
0010
0100
0001
,  // measure 25
0100
0010
1000
0001
,  // measure 26
1000
0100
0010
0100
,  // measure 27
1000
0001
0100
0000
,  // measure 28
0001
0100
0010
0100
,  // measure 29
0001
1000
0100
0000
,  // measure 30
0010
0001
1000
0010
,  // measure 31
0100
0001
0100
0000
,  // measure 32
0010
0010
0100
0100
,  // measure 33
0001
1000
0001
1000
,  // measure 34
0110
0000
0010
1000
,  // measure 35
0100
0001
0100
1000
,  // measure 36
0001
1000
0001
0000
,  // measure 37
0010
0001
0100
0000
,  // measure 38
0010
0010
1000
0001
,  // measure 39
0001
1000
0100
0010
,  // measure 40
0100
0100
0010
0001
,  // measure 41
0001
1000
0001
0100
,  // measure 42
0010
0010
0100
0001
,  // measure 43
0001
1000
0001
0010
,  // measure 44
0001
1000
0010
1000
,  // measure 45
0100
1000
0001
0010
,  // measure 46
0100
0100
0010
0001
,  // measure 47
0001
1000
0010
0100
,  // measure 48
0010
0010
1000
0100
,  // measure 49
0100
1000
0001
0100
,  // measure 50
0010
0010
0100
0001
,  // measure 51
0001
0010
0100
0010
,  // measure 52
0001
1000
0100
0001
,  // measure 53
0100
0010
0001
0100
,  // measure 54
0001
0001
0100
1000
,  // measure 55
1000
0100
0010
1000
,  // measure 56
0001
0001
0010
0100
,  // measure 57
0100
0010
0001
1000
,  // measure 58
0100
0100
0001
0100
,  // measure 59
0100
0010
0001
1000
,  // measure 60
0010
0100
0001
0010
,  // measure 61
0100
0010
0001
1000
,  // measure 62
1001
0000
0000
0000
;

//---------------dance-single - Oni-91----------------
#NOTES:
     dance-single:
     :
     Beginner:
     2:
     0.159718,0.188071,0.034667,0.000000,0.000000,129.000000,125.000000,4.000000,0.000000,0.000000,0.000000,0.159718,0.188071,0.034667,0.000000,0.000000,129.000000,125.000000,4.000000,0.000000,0.000000,0.000000:
// measure 0
1000
0000
0001
0000
,  // measure 1
0100
0000
0000
0000
,  // measure 2
0010
0000
0100
0000
,  // measure 3
0001
0000
0000
0000
,  // measure 4
1000
0000
0001
0000
,  // measure 5
1000
0000
0010
0000
,  // measure 6
0100
0000
0001
0000
,  // measure 7
0010
0000
0000
0000
,  // measure 8
0100
0000
0010
0000
,  // measure 9
0100
0000
0100
0000
,  // measure 10
0010
0000
0001
0000
,  // measure 11
1000
0000
0000
0000
,  // measure 12
0001
0000
0100
0000
,  // measure 13
0010
0000
1000
0000
,  // measure 14
0001
0000
0001
0000
,  // measure 15
1000
0000
0000
0000
,  // measure 16
0001
0000
1000
0000
,  // measure 17
0110
0000
0000
0000
,  // measure 18
1001
0000
0001
0000
,  // measure 19
1000
0000
0100
0000
,  // measure 20
0010
0000
0010
0010
,  // measure 21
0010
0000
0000
0000
,  // measure 22
0001
0000
1000
0000
,  // measure 23
0001
0000
0100
0000
,  // measure 24
0010
0000
0100
0100
,  // measure 25
0100
0000
0000
0000
,  // measure 26
0010
0000
1000
0000
,  // measure 27
0001
0000
1000
0000
,  // measure 28
0100
0000
0010
0010
,  // measure 29
0010
0000
0000
0000
,  // measure 30
0001
0000
1000
0000
,  // measure 31
0001
0000
0100
0000
,  // measure 32
0010
0000
1000
0000
,  // measure 33
0001
0001
0001
0001
,  // measure 34
0001
0000
0000
0000
,  // measure 35
1000
0000
0001
0000
,  // measure 36
1001
0000
0000
0000
,  // measure 37
0000
0000
0000
0000
,  // measure 38
0110
0000
0100
0000
,  // measure 39
0001
0000
1000
0000
,  // measure 40
0100
0000
1000
0000
,  // measure 41
0001
0000
0010
0000
,  // measure 42
0100
0000
0010
0000
,  // measure 43
0001
0000
1000
0000
,  // measure 44
0001
0000
1000
0000
,  // measure 45
0010
0010
0010
0000
,  // measure 46
0100
0000
0010
0000
,  // measure 47
0100
0000
0001
0000
,  // measure 48
1000
0000
0100
0000
,  // measure 49
0010
0000
0001
0000
,  // measure 50
1000
0000
0100
0000
,  // measure 51
1000
0000
0001
0000
,  // measure 52
0100
0100
0100
0000
,  // measure 53
0010
0010
0010
0000
,  // measure 54
0100
0000
0001
0000
,  // measure 55
1000
0000
0100
0100
,  // measure 56
0100
0000
0010
0000
,  // measure 57
0100
0000
1000
1000
,  // measure 58
1000
0000
0001
0000
,  // measure 59
0100
0000
0010
0010
,  // measure 60
0010
0000
0100
0000
,  // measure 61
0001
0001
0001
0001
,  // measure 62
0001
0000
0000
0000
;
