#TITLE:Satellite;
#SUBTITLE:(Rockabilly Version);
#ARTIST:Stefan Raab feat. Lena;
#TITLETRANSLIT:;
#SUBTITLETRANSLIT:;
#ARTISTTRANSLIT:;
#GENRE:;
#CREDIT:;
#BANNER:Satellite (Rockabilly Version).png;
#BACKGROUND:Satellite (Rockabilly Version)-bg.png;
#LYRICSPATH:;
#CDTITLE:;
#MUSIC:Satellite (Rockabilly Version).mp3;
#OFFSET:-8.899999;
#SAMPLESTART:26.677473;
#SAMPLELENGTH:12.222219;
#SELECTABLE:YES;
#BPMS:0.000000=216.000000
,376.000000=215.000000
,384.000000=208.000000
,385.500000=184.000000
,387.000000=124.000000
,388.000000=74.000000
,392.000000=77.000000
,393.000000=74.000000
;
#STOPS:
;
#BGCHANGES:;
#KEYSOUNDS:;
#ATTACKS:;

//---------------dance-single - Oni-91----------------
#NOTES:
     dance-single:
     :
     Hard:
     9:
     0.562018,0.691331,0.724306,0.312595,0.609942,516.000000,421.000000,95.000000,41.000000,0.000000,0.000000,0.562018,0.691331,0.724306,0.312595,0.609942,516.000000,421.000000,95.000000,41.000000,0.000000,0.000000:
// measure 0
1000
0100
1000
0100
,  // measure 1
0010
0001
0100
0000
,  // measure 2
0001
1000
0100
0001
,  // measure 3
0100
1000
0001
0000
,  // measure 4
1000
0000
0000
0100
0000
0000
0020
0000
0001
0000
0000
0100
,  // measure 5
0000
0000
0100
0000
0000
0031
0000
0000
0000
0001
0000
0000
,  // measure 6
1000
0010
0100
0001
,  // measure 7
1001
0000
0000
0000
0000
0000
1000
0000
0100
1000
0000
0000
,  // measure 8
0001
0000
0000
0100
0000
0000
0001
0000
0100
0010
0000
0000
,  // measure 9
1000
0000
0000
0100
0000
0000
1000
0000
0100
0010
0000
0000
,  // measure 10
0001
0100
1000
0100
,  // measure 11
0001
0000
0000
0010
0000
0000
0100
0000
0010
0001
0000
0000
,  // measure 12
1000
0000
0002
0000
0000
0010
0000
0000
0010
0000
0000
1000
,  // measure 13
0000
0000
1000
0000
0000
0103
0000
0000
0100
0001
0000
0000
,  // measure 14
1000
0000
0000
0100
0000
0000
0010
0000
0100
0010
0000
0200
,  // measure 15
0000
0000
0000
0300
,  // measure 16
1010
0100
0011
0100
,  // measure 17
1001
0000
0000
0001
0000
0000
0010
0000
0100
1000
0000
0100
,  // measure 18
1000
0000
0000
0001
0000
0000
0100
0000
0000
0010
0000
1000
,  // measure 19
0000
0000
1000
0010
0000
0000
0100
0000
0001
1000
0000
0000
,  // measure 20
0011
0100
1010
0100
,  // measure 21
1001
0000
0000
1000
0000
1010
0000
0000
0101
0000
0000
0001
,  // measure 22
1000
0000
1000
0100
0000
0110
0000
0000
0011
0000
0000
2002
,  // measure 23
0000
0000
0000
3003
,  // measure 24
1000
0010
0001
0010
,  // measure 25
0100
0000
0000
0001
0000
0010
0000
0000
1100
0000
0000
1001
,  // measure 26
0000
0000
0001
0010
0000
0100
1000
0000
0000
0001
0000
1000
,  // measure 27
0001
1000
0100
0010
,  // measure 28
0100
0000
0000
1000
0000
0000
0001
0000
0100
0001
0000
0100
,  // measure 29
0010
0000
0000
1000
0000
1001
0000
0000
0011
0000
0000
1000
,  // measure 30
0100
0000
0010
0001
0000
0011
0000
0000
1100
0000
0000
2002
,  // measure 31
0000
0000
0000
0000
0000
0000
3003
0000
1000
0001
0000
0101
,  // measure 32
0000
0000
0000
1001
0000
0000
1000
0000
0000
0100
0000
0110
,  // measure 33
0000
0000
0000
0011
0000
0000
0001
0000
0000
1000
0000
1010
,  // measure 34
0000
0000
0000
0110
0000
0000
0100
0000
0001
0000
0000
1001
,  // measure 35
0000
0000
1000
0100
0000
0000
0010
0000
0001
0010
0000
0011
,  // measure 36
0000
0000
0000
1001
0000
0000
1000
0000
0010
0000
0000
0101
,  // measure 37
0000
0000
0000
0011
0000
0001
1000
0000
0100
0000
0000
0110
,  // measure 38
0000
0000
0000
0011
0000
0000
0001
0000
1000
0000
0000
1002
,  // measure 39
0000
0000
0100
0000
0000
0100
0000
0000
0103
0000
0000
0110
,  // measure 40
0000
0000
0000
1010
0000
0000
1000
0000
0100
1000
0000
1100
,  // measure 41
0000
0000
0000
0110
0000
0000
0010
0000
0001
1000
0000
1001
,  // measure 42
0000
0000
0000
0101
0000
0000
0010
0000
1000
0100
0000
0011
,  // measure 43
0000
0000
0000
1000
0000
0001
0000
0000
0001
1000
0000
1001
,  // measure 44
0000
0000
0000
0101
0000
0000
0100
0000
0010
0100
0000
0110
,  // measure 45
0000
0000
0000
1010
0000
1000
0100
0000
0010
0001
0000
0011
,  // measure 46
0000
0000
0000
0101
0000
0100
0010
0000
0010
1000
0000
2001
,  // measure 47
0000
0000
0100
0000
0000
0100
0000
0000
3100
0000
0000
0000
,  // measure 48
1001
0000
0000
0001
0000
0202
0000
0000
0000
0303
0000
0000
,  // measure 49
0110
0000
0000
0010
0000
2020
0000
0000
0000
3030
0000
0000
,  // measure 50
1000
0000
0000
0100
0000
1000
0100
0000
0000
0010
0000
0001
,  // measure 51
1000
0000
0000
0001
0000
1000
0010
0000
0100
0001
0000
1000
,  // measure 52
0100
0101
0100
1100
,  // measure 53
1000
0000
0000
0010
0000
0000
0100
0000
0000
0001
0000
0100
,  // measure 54
0001
0000
0000
1000
0000
0100
0000
0000
0100
1000
0000
0000
,  // measure 55
1000
0000
0100
0000
0000
0100
1000
0000
0000
1001
0000
0000
,  // measure 56
0101
0000
0000
0100
0000
0220
0000
0000
0000
0330
0000
0000
,  // measure 57
1010
0000
0000
1000
0000
2002
0000
0000
0000
3003
0000
0000
,  // measure 58
0001
0000
0000
0010
0000
0001
0010
0000
0000
0100
0000
1000
,  // measure 59
0100
0000
0000
1000
0000
0001
0000
0000
0001
0100
0000
0000
,  // measure 60
0110
0000
0000
0010
0000
0010
1000
0000
1000
0100
0000
0100
,  // measure 61
0010
0000
0010
0001
0000
0001
1000
0000
0001
1000
0000
2002
,  // measure 62
0000
0000
0000
0000
,  // measure 63
3003
0000
0110
0000
0000
0110
0000
0000
0110
0000
0000
0100
,  // measure 64
0002
1000
0000
1000
,  // measure 65
0000
1000
0000
1000
,  // measure 66
0000
0100
0000
0100
,  // measure 67
0000
0010
0000
0013
,  // measure 68
0001
0010
0100
0010
,  // measure 69
0001
1000
0010
1000
,  // measure 70
0100
0000
0000
0010
0000
0000
0001
0000
1000
0001
0000
2002
,  // measure 71
0000
0000
0000
3003
,  // measure 72
1000
0000
0000
1000
0000
0200
0000
0000
0000
0300
0000
0000
,  // measure 73
2002
0000
0000
3003
,  // measure 74
0001
0101
0100
0110
,  // measure 75
0010
0000
0000
1010
0000
0000
1000
0000
0001
1000
0000
0001
,  // measure 76
1000
0000
1000
0100
0000
0000
0010
0000
0010
0001
0000
1000
,  // measure 77
0000
0000
0000
0001
0000
0000
0100
0000
0001
0100
0000
0010
,  // measure 78
1000
1100
0100
0110
,  // measure 79
0010
0000
0000
0001
0000
1001
0000
0000
0110
0000
0000
0010
,  // measure 80
1000
0000
1000
0001
0000
1001
0000
0000
0110
0000
0000
2002
,  // measure 81
0000
0000
0000
3003
,  // measure 82
1000
0000
0000
0001
0000
0000
0010
0000
0100
0010
0000
0200
,  // measure 83
0000
0001
0010
1300
,  // measure 84
1000
0000
0001
0100
0000
0010
1000
0000
0000
0001
0000
0000
,  // measure 85
0010
0000
0000
1000
0000
0000
0010
0000
0001
0010
0000
0001
,  // measure 86
0100
0000
0000
0010
0000
0000
1000
0000
0100
1000
0000
0200
,  // measure 87
0000
0000
0000
0300
0000
0110
0000
0000
0110
0000
0000
0010
,  // measure 88
0001
0000
0000
1000
0000
0000
0001
0000
0000
1000
0000
2020
,  // measure 89
0000
0000
0000
3030
,  // measure 90
1000
0000
0000
0010
0000
0000
0100
0000
0001
0000
0000
0101
,  // measure 91
0000
0000
1010
0000
0000
0101
0000
0000
1010
0000
0000
1100
,  // measure 92
0000
0000
0000
1000
0000
0000
0001
0000
0010
0000
0000
0011
,  // measure 93
0000
0000
1100
0000
0000
0011
0000
0000
1100
0000
0000
1001
,  // measure 94
0000
0000
0000
1000
0000
0000
0001
0000
1000
0000
0000
1100
,  // measure 95
0000
0000
1000
0100
0000
0010
0001
0000
1000
0000
0000
0000
,  // measure 96
2002
0000
3003
0220
0000
0330
2002
3003
,  // measure 97
0220
0000
0000
0000
0000
0000
0000
0000
0000
0000
0000
0000
0330
0000
0010
1000
,  // measure 98
0001
2002
0000
0000
,  // measure 99
0000
0000
0000
0000
,  // measure 100
0000
0000
3003
0110
;

//---------------dance-single - Oni-91----------------
#NOTES:
     dance-single:
     :
     Medium:
     7:
     0.372500,0.422480,0.251601,0.541324,0.205855,342.000000,309.000000,33.000000,71.000000,0.000000,0.000000,0.372500,0.422480,0.251601,0.541324,0.205855,342.000000,309.000000,33.000000,71.000000,0.000000,0.000000:
// measure 0
1000
0000
0100
0000
,  // measure 1
1000
0001
1000
0000
,  // measure 2
0001
0000
0100
0000
,  // measure 3
0001
1000
0001
0000
,  // measure 4
1000
0100
0010
0001
,  // measure 5
0100
0010
0100
0000
,  // measure 6
0010
1000
0001
1000
,  // measure 7
0001
0000
0000
0000
,  // measure 8
1000
0100
0010
0000
,  // measure 9
0100
0010
0001
0000
,  // measure 10
1000
0001
1000
0001
,  // measure 11
0100
0010
0100
0000
,  // measure 12
0010
1000
0100
0010
,  // measure 13
0001
0100
0010
0000
,  // measure 14
0100
0000
0000
0001
0000
0000
1000
0000
0000
0001
0000
0200
,  // measure 15
0000
0000
0000
0300
,  // measure 16
0220
0330
2020
3030
,  // measure 17
2002
3003
0001
0010
,  // measure 18
0001
0100
1000
0100
,  // measure 19
0001
1000
0100
0000
,  // measure 20
0220
0330
0022
0033
,  // measure 21
2002
0000
0000
3003
0000
1000
0000
0000
0001
0000
0000
1000
,  // measure 22
0100
0000
0000
0010
0000
0001
0000
0000
1000
0000
0000
2002
,  // measure 23
0000
0000
0000
3003
,  // measure 24
1000
0010
0100
0001
,  // measure 25
2000
3000
0100
0010
,  // measure 26
0100
0010
0001
1000
,  // measure 27
0001
2000
0000
3010
,  // measure 28
0100
0000
0000
0100
0000
0000
0010
0000
0000
1000
0000
0002
,  // measure 29
0000
0000
0000
0003
0000
0010
0000
0000
0001
0000
0000
0001
,  // measure 30
0100
0000
0000
0100
0000
0010
0000
0000
0100
0000
0000
0220
,  // measure 31
0000
0000
0000
0330
,  // measure 32
0010
1000
0100
1000
,  // measure 33
0001
0100
0010
0000
,  // measure 34
0100
0001
0010
0001
,  // measure 35
1000
0100
0010
0000
,  // measure 36
0100
1000
0100
0000
,  // measure 37
0010
0001
0010
0000
,  // measure 38
0001
0100
0010
1000
,  // measure 39
0001
0000
0100
1000
,  // measure 40
0100
0001
0010
0000
,  // measure 41
0001
0100
1000
0000
,  // measure 42
0100
0001
1000
0100
,  // measure 43
0010
0000
1001
0000
,  // measure 44
1000
0000
0000
0010
0000
0000
1000
0000
0010
0000
0000
0000
,  // measure 45
0100
0000
0000
0001
0000
0000
0100
0000
0001
0000
0000
0000
,  // measure 46
1000
0000
0000
0001
0000
0000
1000
0000
0001
0000
0000
2001
,  // measure 47
0000
0000
0001
0000
0000
0001
0000
0000
3001
0000
0000
0000
,  // measure 48
2002
0000
0000
3003
0000
0202
0000
0000
0000
0303
0000
0000
,  // measure 49
2020
0000
0000
3030
0000
0220
0000
0000
0000
0330
0000
0000
,  // measure 50
0010
1000
0100
0010
,  // measure 51
0001
0100
0010
1000
,  // measure 52
0001
0100
0202
0303
,  // measure 53
0001
1000
2200
3300
,  // measure 54
1000
0200
0000
0320
,  // measure 55
0000
0032
0000
1003
,  // measure 56
2002
0000
0000
3003
0000
0220
0000
0000
0000
0330
0000
0000
,  // measure 57
0220
0000
0000
0330
0000
2002
0000
0000
0000
3003
0000
0000
,  // measure 58
1000
0100
0010
0001
,  // measure 59
0010
0100
1000
0001
,  // measure 60
1000
0010
0202
0303
,  // measure 61
0001
0000
0000
1000
0000
0000
0100
0000
0010
0000
0000
0220
,  // measure 62
0000
0000
0000
0000
,  // measure 63
0300
0000
0100
0000
0000
0100
0000
0000
0130
0000
0000
0010
,  // measure 64
0002
1000
0000
1000
,  // measure 65
0000
1000
0000
1000
,  // measure 66
0000
1000
0000
1000
,  // measure 67
0000
1000
0000
1003
,  // measure 68
0001
1000
0001
1000
,  // measure 69
0010
1000
0010
1000
,  // measure 70
0100
0000
0000
1000
0000
0000
0100
0000
0000
1000
0000
2002
,  // measure 71
0000
0000
0000
3003
,  // measure 72
1000
0000
0000
0001
0000
0200
0000
0000
0000
0300
0000
0000
,  // measure 73
0220
0000
0000
0330
,  // measure 74
1000
0100
0001
0100
,  // measure 75
1000
0000
0001
0100
,  // measure 76
0001
1000
0100
0010
,  // measure 77
0001
0100
0010
1000
,  // measure 78
0001
0000
1000
0100
,  // measure 79
1000
0000
0100
0010
,  // measure 80
0100
0000
0000
0010
0000
0001
0000
0000
1000
0000
0000
2002
,  // measure 81
0000
0000
0000
3003
,  // measure 82
0001
0100
1000
0100
,  // measure 83
0001
0000
1000
0100
,  // measure 84
0010
0000
0000
0001
0000
0000
1000
0000
0000
0001
0000
1000
,  // measure 85
0000
0000
2002
0000
0000
0000
3003
0000
0000
1000
0000
0000
,  // measure 86
0100
0000
0000
0010
0000
0000
0100
0000
0000
0010
0000
0200
,  // measure 87
0000
0000
0000
0000
0000
1000
0000
0000
1300
0000
0000
1000
,  // measure 88
0100
0000
0000
0010
0000
0000
0001
0000
0000
0100
0000
0202
,  // measure 89
0000
0000
0000
0303
,  // measure 90
0001
0000
0000
1000
0000
0000
0200
0000
0000
0300
0000
0012
,  // measure 91
0000
0000
0010
0000
0000
0010
0000
0000
0013
0000
0000
1001
,  // measure 92
0000
0000
0000
0001
0000
0000
0200
0000
0000
0300
0000
0120
,  // measure 93
0000
0000
0100
0000
0000
0100
0000
0000
0130
0000
0000
1001
,  // measure 94
0000
1000
0100
0010
,  // measure 95
0001
0100
0010
1000
,  // measure 96
2000
0000
0000
3200
0000
0000
0320
0000
,  // measure 97
0200
0000
0000
0000
0000
0000
0000
0000
0000
0000
0000
0000
0330
0000
0100
0010
,  // measure 98
0100
2002
0000
0000
,  // measure 99
0000
0000
0000
0000
,  // measure 100
0000
0000
3003
1001
;

//---------------dance-single - Oni-91----------------
#NOTES:
     dance-single:
     :
     Easy:
     5:
     0.273385,0.422480,0.213480,0.266850,0.007624,251.000000,223.000000,28.000000,35.000000,0.000000,0.000000,0.273385,0.422480,0.213480,0.266850,0.007624,251.000000,223.000000,28.000000,35.000000,0.000000,0.000000:
// measure 0
1000
0000
0001
0000
,  // measure 1
0100
0000
0000
0000
,  // measure 2
0010
0000
0100
0000
,  // measure 3
0001
0000
0000
0000
,  // measure 4
1000
0000
0100
0000
,  // measure 5
0010
0000
0001
0000
,  // measure 6
1000
0000
0001
1000
,  // measure 7
0001
0000
0000
0000
,  // measure 8
1000
0000
0010
0000
,  // measure 9
1000
0000
0000
0000
,  // measure 10
0001
0000
0100
0000
,  // measure 11
0001
0000
0000
0000
,  // measure 12
0010
0000
0001
0000
,  // measure 13
0100
0000
0010
0000
,  // measure 14
1000
0000
0001
1000
,  // measure 15
0002
0000
0003
0000
,  // measure 16
1001
0000
0110
0000
,  // measure 17
2002
0000
3003
0000
,  // measure 18
1000
0100
1000
0100
,  // measure 19
1000
0000
0001
0000
,  // measure 20
1001
0000
0110
0000
,  // measure 21
2002
0000
3003
0000
,  // measure 22
0001
0010
0001
0010
,  // measure 23
0200
0000
0300
0000
,  // measure 24
0010
0001
0010
0000
,  // measure 25
0001
0000
1000
0000
,  // measure 26
0001
0100
0010
0000
,  // measure 27
1000
0000
0001
0000
,  // measure 28
1000
0100
1000
0100
,  // measure 29
0010
0000
0100
0000
,  // measure 30
0010
0001
0010
0001
,  // measure 31
1000
0000
0000
0000
,  // measure 32
0001
1000
0001
0000
,  // measure 33
1000
0010
1000
0000
,  // measure 34
0001
0100
0001
0000
,  // measure 35
0010
0000
0001
0000
,  // measure 36
1000
0100
1000
0000
,  // measure 37
0001
0010
0001
0000
,  // measure 38
0100
0000
0000
0010
0000
0000
1000
0000
0000
0000
0000
2002
,  // measure 39
0000
0000
0000
3003
,  // measure 40
0001
1000
0001
0000
,  // measure 41
1000
0100
1000
0000
,  // measure 42
0001
0010
0001
0000
,  // measure 43
0100
0000
0010
0000
,  // measure 44
0001
1000
0010
0100
,  // measure 45
0001
0000
0010
0001
,  // measure 46
0100
0000
0001
1000
,  // measure 47
2002
0000
0000
3003
,  // measure 48
0220
0000
0330
0000
,  // measure 49
2002
0000
3003
0000
,  // measure 50
1001
0000
1000
0100
,  // measure 51
0010
0000
0100
0010
,  // measure 52
0001
0000
1000
0000
,  // measure 53
0001
0000
0100
0010
,  // measure 54
0200
0010
0000
0010
,  // measure 55
0000
0010
0000
0310
,  // measure 56
0220
0000
0330
0000
,  // measure 57
2002
0000
3003
0000
,  // measure 58
1000
0000
0100
0010
,  // measure 59
0100
0000
0010
0001
,  // measure 60
1000
0000
0001
0000
,  // measure 61
1000
0001
1000
0001
,  // measure 62
0200
0000
0000
0000
,  // measure 63
0300
0000
0000
0000
,  // measure 64
2001
0001
0000
0001
,  // measure 65
0000
0001
0000
0001
,  // measure 66
0000
0001
0000
0001
,  // measure 67
0000
0001
0000
3001
,  // measure 68
0200
0010
0000
0010
,  // measure 69
0000
0010
0000
0010
,  // measure 70
0000
0000
0000
0010
0000
0000
0000
0000
0000
0310
0000
0220
,  // measure 71
0000
0000
0000
0330
,  // measure 72
2002
0000
3003
0000
,  // measure 73
0220
0000
0000
0330
,  // measure 74
0010
0000
1000
0000
,  // measure 75
0100
0000
0000
0000
,  // measure 76
0010
0000
0001
1000
,  // measure 77
0001
0000
1000
0010
,  // measure 78
0100
0000
0001
0000
,  // measure 79
1000
0000
0001
1000
,  // measure 80
0100
0010
0001
0000
,  // measure 81
2002
0000
0000
3003
,  // measure 82
1000
0100
1000
0100
,  // measure 83
0010
0000
0100
0000
,  // measure 84
1000
0000
0001
0100
,  // measure 85
0001
0000
0100
0000
,  // measure 86
0010
0100
0001
0100
,  // measure 87
0010
0000
1000
0000
,  // measure 88
0001
1000
0001
1000
,  // measure 89
0200
0000
0000
0300
,  // measure 90
0110
0000
1001
0000
,  // measure 91
1000
0001
1000
0000
,  // measure 92
1001
0000
0110
0000
,  // measure 93
0010
0100
0010
0000
,  // measure 94
0010
1000
0001
0000
,  // measure 95
1000
0001
0100
0000
,  // measure 96
1001
0000
0000
1001
0000
0000
1001
0000
,  // measure 97
2002
0000
0000
0000
,  // measure 98
3003
0220
0000
0000
,  // measure 99
0000
0000
0000
0000
,  // measure 100
0000
0000
0330
0110
;

//---------------dance-single - Oni-91----------------
#NOTES:
     dance-single:
     :
     Beginner:
     3:
     0.159021,0.224726,0.160110,0.000000,0.000000,146.000000,125.000000,21.000000,0.000000,0.000000,0.000000,0.159021,0.224726,0.160110,0.000000,0.000000,146.000000,125.000000,21.000000,0.000000,0.000000,0.000000:
// measure 0
1000
0000
0000
0000
,  // measure 1
0001
0000
0000
0000
,  // measure 2
1000
0000
0001
0000
,  // measure 3
0100
0000
0000
0000
,  // measure 4
0010
0000
0000
0000
,  // measure 5
0100
0000
0000
0000
,  // measure 6
0010
0000
0100
0000
,  // measure 7
0001
0000
0000
0000
,  // measure 8
1000
0000
0000
0000
,  // measure 9
1000
0000
0000
0000
,  // measure 10
0001
0000
1000
0000
,  // measure 11
0001
0000
0000
0000
,  // measure 12
0010
0000
0000
0000
,  // measure 13
0010
0000
0000
0000
,  // measure 14
0100
0000
0010
0000
,  // measure 15
0100
0000
0000
0000
,  // measure 16
1001
0000
0000
0000
,  // measure 17
1001
0000
0000
0000
,  // measure 18
1000
0000
0001
0000
,  // measure 19
0100
0000
0000
0000
,  // measure 20
0110
0000
0000
0000
,  // measure 21
0110
0000
0000
0000
,  // measure 22
0100
0000
0010
0000
,  // measure 23
1000
0000
0000
0000
,  // measure 24
0001
0000
0010
0000
,  // measure 25
0001
0000
1000
0000
,  // measure 26
0100
0000
1000
0000
,  // measure 27
0100
0000
0000
0000
,  // measure 28
0010
0000
0001
0000
,  // measure 29
1000
0000
0000
0000
,  // measure 30
0001
0000
1000
0000
,  // measure 31
0001
0000
0000
0000
,  // measure 32
1001
0000
0000
0000
,  // measure 33
0001
0000
1000
0000
,  // measure 34
0010
0000
0000
0000
,  // measure 35
0010
0000
0100
0000
,  // measure 36
0001
0000
0000
0000
,  // measure 37
0001
0000
1000
0000
,  // measure 38
0100
0000
0010
0000
,  // measure 39
0100
0000
0000
0000
,  // measure 40
0110
0000
0010
0000
,  // measure 41
0100
0000
0000
0000
,  // measure 42
0010
0000
0001
0000
,  // measure 43
1000
0000
0000
0000
,  // measure 44
0001
0000
1000
0000
,  // measure 45
0010
0000
0100
0000
,  // measure 46
0001
0000
1000
0000
,  // measure 47
0001
0000
0000
0000
,  // measure 48
1001
0000
0000
0000
,  // measure 49
1001
0000
0000
0000
,  // measure 50
1000
0000
0001
0000
,  // measure 51
1000
0000
0001
0000
,  // measure 52
0100
0000
0000
0000
,  // measure 53
0010
0000
0000
0000
,  // measure 54
0100
0000
0000
0000
,  // measure 55
0001
0000
0000
0000
,  // measure 56
1001
0000
0000
0000
,  // measure 57
1001
0000
0000
0000
,  // measure 58
1000
0000
0100
0000
,  // measure 59
0010
0000
0001
0000
,  // measure 60
0100
0000
0000
0000
,  // measure 61
0010
0000
0000
0000
,  // measure 62
1000
0000
0001
0000
,  // measure 63
1000
0000
0000
0000
,  // measure 64
1001
0000
0000
0000
,  // measure 65
0000
0000
0000
0000
,  // measure 66
1000
0000
0000
0000
,  // measure 67
0001
0000
0000
0000
,  // measure 68
0100
0000
0000
0000
,  // measure 69
0000
0000
0000
0000
,  // measure 70
0010
0000
0000
0000
,  // measure 71
0110
0000
0000
0000
,  // measure 72
0000
0000
0000
0000
,  // measure 73
1001
0000
0000
0000
,  // measure 74
1001
0000
0000
0000
,  // measure 75
1001
0000
0000
0000
,  // measure 76
1000
0000
0001
0000
,  // measure 77
1000
0000
0000
0000
,  // measure 78
0010
0000
0000
0000
,  // measure 79
0100
0000
0000
0000
,  // measure 80
0010
0000
0100
0000
,  // measure 81
0010
0000
0000
0000
,  // measure 82
1000
0000
0010
0000
,  // measure 83
1000
0000
0000
0000
,  // measure 84
0001
0000
0100
0000
,  // measure 85
0001
0000
0000
0000
,  // measure 86
1000
0000
0000
0000
,  // measure 87
0100
0000
0000
0000
,  // measure 88
0010
0000
0001
0000
,  // measure 89
1000
0000
0000
0000
,  // measure 90
1001
0000
0000
0000
,  // measure 91
1001
0000
0000
0000
,  // measure 92
1000
0000
0000
0000
,  // measure 93
0010
0000
0000
0000
,  // measure 94
0110
0000
0000
0000
,  // measure 95
0110
0000
0000
0000
,  // measure 96
1001
0000
0000
0000
,  // measure 97
0000
0000
0000
0000
,  // measure 98
0000
0110
0000
0000
;
