#TITLE:SHONEN A;
#SUBTITLE:;
#ARTIST:Remixed by SHONEN RADIO;
#TITLETRANSLIT:;
#SUBTITLETRANSLIT:;
#ARTISTTRANSLIT:;
#GENRE:;
#CREDIT:;
#BANNER:SHONEN A.png;
#BACKGROUND:SHONEN A-bg.png;
#LYRICSPATH:;
#CDTITLE:;
#MUSIC:SHONEN A.mp3;
#OFFSET:-10.669999;
#SAMPLESTART:55.200844;
#SAMPLELENGTH:12.500000;
#SELECTABLE:YES;
#DISPLAYBPM:90.000000:192.000000;
#BPMS:0.000000=89.980003
,64.000000=192.000000
,256.000000=185.000000
,260.000000=179.000000
;
#STOPS:64.000000=1.250000
;
#BGCHANGES:;
#KEYSOUNDS:;
#ATTACKS:;

//---------------dance-single - Oni-91----------------
#NOTES:
     dance-single:
     :
     Challenge:
     12:
     0.904476,1.009998,0.285195,0.195562,1.116335,777.000000,742.000000,35.000000,24.000000,0.000000,0.000000,0.904476,1.009998,0.285195,0.195562,1.116335,777.000000,742.000000,35.000000,24.000000,0.000000,0.000000:
// measure 0
1000
0100
0010
0001
0000
1100
0000
1002
,  // measure 1
0000
0100
0100
0100
0000
1000
0000
1003
,  // measure 2
0001
0010
0100
1000
0001
0010
0100
1000
,  // measure 3
0001
0010
0100
1000
0100
0000
1000
0001
1000
0000
1001
0000
0001
0100
0010
0100
,  // measure 4
0001
0000
1000
0000
0011
0000
1001
0000
1000
0010
0001
0010
0100
0000
1001
0000
,  // measure 5
0001
0010
0100
0000
0110
0000
0010
0001
0100
0010
1000
0001
0100
0000
1010
0000
,  // measure 6
0001
0000
0010
0000
0110
0000
1001
0000
1000
0100
0010
0001
0010
0000
1100
0000
,  // measure 7
0001
0000
1000
0000
0110
0000
0010
1000
0100
0000
0010
0001
0100
0001
1000
0100
,  // measure 8
0010
0000
0100
0000
1001
0000
0001
0100
0010
0100
0001
0000
1000
0100
0010
0100
,  // measure 9
1000
0100
0011
0100
1010
0100
1001
0010
,  // measure 10
1000
0010
1000
0010
0100
0001
0100
0001
1000
0100
1000
0100
0010
0001
0010
0001
,  // measure 11
1000
0100
0001
0100
1000
0010
0001
0010
0100
0010
1000
0100
0010
0001
0100
0010
,  // measure 12
2002
0000
0000
0003
,  // measure 13
3002
0000
0010
0000
2003
0000
0200
3300
,  // measure 14
1100
1100
1100
1100
0110
0110
0110
0110
,  // measure 15
0010
0000
0001
0000
0010
0000
0001
0000
0010
0000
0001
0000
0010
0000
0001
0000
1000
0001
1000
0001
1000
0001
1000
0001
1000
0001
1000
0002
2000
0000
0000
0000
,  // measure 16
0000
0000
0000
0000
3003
0000
0000
0000
1000
0100
1000
0100
0010
0001
0010
0002
,  // measure 17
2000
0000
0000
0000
3003
0000
0000
0000
1000
0010
0100
0000
0001
0000
0010
0000
,  // measure 18
0100
0001
0100
1000
0001
1000
0010
0000
,  // measure 19
1000
0010
1000
0000
0001
0100
0001
0000
1000
0100
1000
0000
0001
0010
0001
0000
,  // measure 20
1000
0100
0010
0000
0001
0000
1000
0000
0001
1000
0001
1000
0010
0000
0000
0000
,  // measure 21
0100
0010
0100
0001
1000
0000
0001
0000
1000
0100
0010
0001
0010
0000
0001
0000
,  // measure 22
1000
0100
0010
0001
1000
0010
0100
0001
0100
0010
1000
0001
1000
0000
0100
0000
,  // measure 23
0010
0100
0010
0001
1000
0000
0010
0000
0100
0010
0100
0001
2000
0000
0000
0000
,  // measure 24
3001
0010
0001
0010
0100
0000
1000
0000
0010
1000
0010
1000
0001
0000
0100
0000
,  // measure 25
0010
1000
0010
0000
0100
0001
0010
0000
0001
1000
0001
0000
1000
0010
0100
0001
,  // measure 26
0010
0001
0010
0000
0100
1000
0001
0000
1000
0010
1000
0000
0010
0100
0001
0000
,  // measure 27
1000
0100
0010
0100
1000
0000
0001
0000
1000
0010
0100
0001
0010
0100
0010
0100
,  // measure 28
2000
0000
0000
0000
3010
0000
0000
0000
1000
0010
1000
0001
0100
0000
0001
0000
,  // measure 29
0010
0001
0100
0010
1000
0000
0100
0000
1000
0010
0100
0001
0010
0000
0001
0000
,  // measure 30
0010
0000
0100
0000
0001
0000
0100
0000
1000
0000
0001
0000
0100
0001
0100
0000
,  // measure 31
0010
1000
0010
1000
0001
0100
0001
0100
0001
0010
0001
0010
0100
1000
0100
1000
,  // measure 32
0001
0010
0100
1000
0001
0010
0100
1000
0010
0100
0001
0010
0100
1000
0010
0100
,  // measure 33
0002
0000
0000
0000
1003
0100
1000
0100
2000
0000
0000
0000
3001
0100
0001
0100
,  // measure 34
0002
0000
0000
0000
1003
0001
1000
0001
1000
0001
0100
0010
1000
0100
0010
0100
,  // measure 35
0010
0000
0100
0000
0010
0001
1000
0001
0200
0000
0000
0000
0310
1000
0001
1000
,  // measure 36
0200
0000
0000
0000
0310
0001
1000
0100
0010
0100
1000
0001
0100
0010
1000
0010
,  // measure 37
0100
0000
0010
0000
1000
0001
1000
0001
0010
0000
0001
0000
1000
0100
0010
0100
,  // measure 38
2000
0000
0000
0000
3001
0100
0010
0100
0010
1000
0010
1000
0001
0010
0100
1000
,  // measure 39
0100
0000
0010
0000
0001
0010
0100
0010
0100
0000
0010
0000
0001
0000
1000
0000
,  // measure 40
0001
0100
0001
0100
0010
1000
0100
0010
0100
0010
0100
0010
0001
1000
0010
0100
,  // measure 41
0001
0000
1000
0100
1000
0000
0001
1000
0001
0000
0100
0001
0100
0000
0010
0100
,  // measure 42
0010
0000
1000
0001
1000
0000
0001
0010
0100
1000
0100
0010
0001
0000
1000
0010
,  // measure 43
1000
0001
0011
0010
0100
1000
1100
0100
,  // measure 44
0010
0100
1100
1000
1001
0001
0101
0100
,  // measure 45
0010
0000
1000
0000
0001
0010
0001
0010
0100
1000
0100
1000
0001
0000
1000
0001
,  // measure 46
1000
0000
0100
0000
0010
0001
0010
0100
1000
0100
0010
0001
1000
0000
1000
0001
,  // measure 47
2000
0000
0000
0000
3001
0010
0001
0010
0002
0000
0000
0000
0103
0010
0100
0010
,  // measure 48
0100
0010
1000
0010
0100
0001
0010
0001
0100
0001
1000
0100
0010
0001
0100
0010
,  // measure 49
1000
0000
0001
0010
0000
0010
0001
0000
0001
1000
0000
1000
0010
0000
0010
0100
,  // measure 50
0000
0010
0100
0000
0001
1000
0000
0001
1000
0100
0010
0001
0010
0100
1000
0000
,  // measure 51
0001
0000
1000
0100
0000
0010
0001
0000
1000
0010
0000
0100
0001
0000
0100
0010
,  // measure 52
0000
1000
0100
0000
0010
0001
0000
1000
0100
1000
0001
0100
0001
1000
0010
0100
,  // measure 53
0002
0000
0000
0000
1003
0100
0010
0001
2000
0000
0000
0000
3001
0100
0010
1000
,  // measure 54
0001
0000
0000
1000
0000
0000
0100
0000
0010
0000
0100
0000
0010
0001
0010
0001
,  // measure 55
0010
0000
0000
0000
0001
1000
0010
1000
0100
0000
0000
0000
0010
0001
0100
0001
,  // measure 56
1000
0000
0001
0100
0001
0000
1000
0010
0100
0010
1000
0001
1000
0000
0001
0000
,  // measure 57
1001
0000
0000
0000
0001
0010
0001
0010
0100
1000
0010
0100
0001
0100
0010
1000
,  // measure 58
1001
0000
0000
0000
1000
0100
0010
0001
0010
0100
0010
0001
1000
0010
0100
0010
,  // measure 59
0100
0010
1000
0000
1000
0001
0010
0000
0010
0001
0100
0000
0100
0010
1000
0100
,  // measure 60
0010
0000
0000
0000
0001
1000
0001
1000
0001
0000
1000
0000
0001
0000
0100
0000
,  // measure 61
0110
0000
0000
0000
0010
1000
0001
0100
0001
0010
0100
1000
0100
0010
0001
1000
,  // measure 62
1001
0000
0000
0000
1000
0100
0010
0100
1000
0001
0100
0010
0100
0001
1000
0001
,  // measure 63
1000
0100
1000
0100
0010
0001
0010
0001
1000
0010
1000
0010
0100
0001
0100
0001
,  // measure 64
1000
0100
0010
0100
0010
0001
1000
0010
1000
0010
0100
0001
1000
0100
0010
0001
,  // measure 65
2000
0000
0000
0000
,  // measure 66
0002
0000
0000
3003
,  // measure 67
1001
0000
0000
0000
;

//---------------dance-single - Oni-91----------------
#NOTES:
     dance-single:
     :
     Hard:
     9:
     0.561078,0.764323,0.138523,0.130375,0.130375,482.000000,465.000000,17.000000,16.000000,0.000000,0.000000,0.561078,0.764323,0.138523,0.130375,0.130375,482.000000,465.000000,17.000000,16.000000,0.000000,0.000000:
// measure 0
0000
0001
0100
0010
0000
0110
0000
2002
,  // measure 1
0000
0000
0000
3003
,  // measure 2
1000
0100
1000
0100
0010
0001
0010
0001
,  // measure 3
1000
0000
0001
0000
0100
0000
0010
0000
1000
0000
0001
0000
1000
0001
1000
0001
,  // measure 4
1000
0100
0011
0000
0001
0100
0010
1010
,  // measure 5
1000
0000
0100
0000
0010
0000
0001
0000
1000
0000
0001
0100
0001
0000
0000
0000
,  // measure 6
1000
0100
1100
0000
0100
0010
0001
1001
,  // measure 7
1000
0000
0010
0000
0100
0000
0001
0000
1000
0000
0001
1000
0001
0000
1000
0100
,  // measure 8
1000
0100
0110
0000
0010
0001
1000
1010
,  // measure 9
0010
0100
0001
0010
0100
0010
0001
1000
,  // measure 10
0001
0100
0001
0000
1000
0010
1000
0000
0001
1000
0001
0000
1000
0100
1000
0000
,  // measure 11
0001
1000
0001
1000
0010
0100
0010
0100
0001
0100
0010
1000
0001
1000
0002
2000
,  // measure 12
0000
0000
0000
0000
,  // measure 13
0000
0000
0000
0000
0000
0000
0000
3003
,  // measure 14
1000
1000
0001
0001
0100
0100
0010
0010
,  // measure 15
1000
0001
1000
0001
1000
0001
1000
0001
1000
0100
0010
0001
1000
0020
0200
0000
,  // measure 16
0000
0000
0330
0000
0010
1000
0001
0000
,  // measure 17
2002
0000
3003
0000
1000
0100
1000
0000
,  // measure 18
0001
0100
0010
1000
0010
0100
0001
0000
,  // measure 19
1000
0100
0010
0100
0001
0100
0010
0100
,  // measure 20
1000
0010
0100
0010
0100
0001
1000
0000
,  // measure 21
0001
0010
0100
0010
0001
1000
0001
0100
,  // measure 22
0010
1000
0100
0010
0001
0100
0001
0000
,  // measure 23
1000
0100
0010
0001
0100
0010
1000
0100
,  // measure 24
0010
0001
0100
0010
1000
0010
0100
0000
,  // measure 25
0001
0100
0010
0100
0001
0100
0010
0100
,  // measure 26
0001
1000
0100
0010
0100
1000
0001
1000
,  // measure 27
0010
0100
0001
0100
0010
1000
0010
0100
,  // measure 28
0002
0000
0003
0000
1000
0100
0010
0001
,  // measure 29
1000
0010
0100
0010
0001
0010
0100
0010
,  // measure 30
1000
0000
0001
0010
0100
0000
1001
0000
,  // measure 31
1000
0100
0010
0001
0010
0100
0001
0100
,  // measure 32
1000
0010
0100
0001
0100
1000
0100
0010
,  // measure 33
1001
0000
0001
0010
1100
0000
1000
0010
,  // measure 34
0101
0000
1000
0100
0010
0001
0100
0010
,  // measure 35
1001
0000
1000
0001
0110
0000
0001
1000
,  // measure 36
0110
0000
0010
0001
0100
0010
1000
0100
,  // measure 37
2000
0000
3001
0001
0002
0000
0103
0100
,  // measure 38
0200
0000
0310
0100
0010
1000
0100
0010
,  // measure 39
0100
0000
0010
0001
0100
0000
0010
1000
,  // measure 40
0100
0010
0001
0100
0001
1000
0010
0100
,  // measure 41
0010
0100
0010
0100
0001
0100
0001
0100
,  // measure 42
0010
1000
0010
1000
0001
1000
0001
1000
,  // measure 43
0001
0010
0100
0010
0001
0010
0100
0010
,  // measure 44
0001
0010
0100
0010
1000
0010
0001
1000
,  // measure 45
0001
0100
0010
1000
0010
0100
0001
0010
,  // measure 46
0100
0010
0100
1000
0001
1000
0010
0100
,  // measure 47
0002
0000
0013
0010
0020
0000
0130
0100
,  // measure 48
0100
0010
0001
1000
0010
0100
0001
0100
,  // measure 49
0001
0000
0000
0001
0000
0000
1000
0000
0000
1000
0000
0000
0100
0000
0000
0100
,  // measure 50
0000
0000
0010
0000
0000
0010
0000
0000
0100
0000
1000
0000
0001
0000
0100
0000
,  // measure 51
0010
0000
0000
0010
0000
0000
0100
0000
0000
0100
0000
0000
0001
0000
0000
0001
,  // measure 52
0000
0000
1000
0000
0000
1000
0000
0000
0001
0000
0010
0000
0100
0000
1000
0000
,  // measure 53
0100
0000
0001
1000
0001
0000
1000
0010
,  // measure 54
0100
0000
0010
0100
0001
0010
0100
0010
,  // measure 55
0001
0000
1000
0010
0100
0000
0010
0100
,  // measure 56
0001
0000
1000
0100
0010
0001
0100
0010
,  // measure 57
1000
0000
0010
1000
0100
0001
0100
1000
,  // measure 58
0010
0000
0100
0001
0010
1000
0010
0001
,  // measure 59
0100
0000
0010
1000
0001
1000
0100
0010
,  // measure 60
0001
1000
0100
0010
0100
1000
0010
0100
,  // measure 61
0010
0000
1000
0010
0001
0010
1000
0100
,  // measure 62
0010
0000
0001
0100
1000
0100
0001
0010
,  // measure 63
0100
0010
0001
1000
0100
0010
0001
0100
,  // measure 64
0001
0100
0010
1000
0001
0010
0100
1000
,  // measure 65
0002
0000
0000
0000
,  // measure 66
2000
0000
0000
3003
,  // measure 67
1001
0000
0000
0000
;

//---------------dance-single - Oni-91----------------
#NOTES:
     dance-single:
     :
     Medium:
     6:
     0.401601,0.436756,0.162969,0.065187,0.000000,345.000000,325.000000,20.000000,8.000000,0.000000,0.000000,0.401601,0.436756,0.162969,0.065187,0.000000,345.000000,325.000000,20.000000,8.000000,0.000000,0.000000:
// measure 0
0000
1000
0001
1000
0000
0110
0000
2002
,  // measure 1
0000
0000
0000
3003
,  // measure 2
0001
0010
0001
0000
1000
0100
1000
0000
,  // measure 3
0001
0000
1000
0000
0001
1000
0001
1000
,  // measure 4
1001
0000
0101
0000
0100
0001
1000
0000
,  // measure 5
0100
1000
0010
0000
0100
0010
0110
0000
,  // measure 6
1010
0000
1001
0000
0001
0010
0100
0000
,  // measure 7
0010
0001
1000
0000
0001
1000
1001
0000
,  // measure 8
0101
0000
0110
0000
0010
1000
0100
0000
,  // measure 9
0010
0001
1000
0000
0001
0100
0101
0000
,  // measure 10
0001
1000
0001
1000
,  // measure 11
0001
0010
0001
0010
0100
1000
0100
2000
,  // measure 12
0002
0000
0000
0000
,  // measure 13
0000
0000
0000
0000
0000
0000
0000
3003
,  // measure 14
1000
0100
1000
0001
,  // measure 15
1000
0000
0010
0000
0100
0010
0100
0020
,  // measure 16
0000
0030
0100
0000
,  // measure 17
1001
0000
0000
0000
1000
0001
0100
0000
,  // measure 18
0010
0000
0100
0000
0001
1000
0100
0000
,  // measure 19
1000
0001
0100
0010
,  // measure 20
1000
0000
0001
0000
1000
0001
1000
0000
,  // measure 21
0001
0100
0010
0000
1000
0100
0010
0000
,  // measure 22
0001
1000
0001
0000
1000
0010
1000
0000
,  // measure 23
0001
0000
0010
0000
0100
0010
0001
0000
,  // measure 24
1000
0010
1000
0000
0001
0100
0001
0000
,  // measure 25
1000
0100
1000
0001
,  // measure 26
0100
0001
1000
0100
,  // measure 27
0010
0000
0100
0000
0010
0100
0010
0100
,  // measure 28
0020
0000
0030
0000
0001
1000
0001
0000
,  // measure 29
1000
0010
0100
0001
,  // measure 30
1000
0100
0010
0001
,  // measure 31
1000
0100
1000
0000
0001
0010
0001
0000
,  // measure 32
1000
0010
0100
0000
0010
0100
0001
0000
,  // measure 33
1001
1000
0100
0010
,  // measure 34
0100
0000
1000
0000
0001
1000
0001
1000
,  // measure 35
0001
1000
0010
0001
,  // measure 36
0010
0000
0100
0000
0010
0100
0010
0100
,  // measure 37
0010
1000
0100
0001
,  // measure 38
0100
0000
1000
0000
0001
0010
0001
0010
,  // measure 39
0001
0000
1000
0100
1000
0000
0001
0000
,  // measure 40
0100
0000
0010
0000
1000
0001
1000
0000
,  // measure 41
0001
0100
0010
1000
,  // measure 42
0100
0000
0010
0000
0001
0010
0100
1000
,  // measure 43
0100
0010
0001
0100
,  // measure 44
0010
0000
1000
0000
0010
1000
0010
0100
,  // measure 45
0001
0000
1000
0100
1000
0000
0001
0000
,  // measure 46
0100
0000
0010
0100
0001
0000
0100
0000
,  // measure 47
0010
0000
1000
0010
0100
0000
0010
0100
,  // measure 48
0001
0000
1000
0001
1000
0001
1000
0000
,  // measure 49
1001
0001
0010
0100
,  // measure 50
1000
0000
0100
0000
0010
0001
1000
0001
,  // measure 51
0100
0010
1000
0010
,  // measure 52
0100
0000
0001
0000
1000
0001
1000
0001
,  // measure 53
1000
0000
0001
0010
0100
0000
0010
0000
,  // measure 54
0001
0000
1000
0010
0100
0000
0010
0100
,  // measure 55
0001
0000
1000
0001
1000
0000
0001
0000
,  // measure 56
0100
0010
1000
0000
0010
1000
0001
0000
,  // measure 57
1001
0000
1000
0100
1000
0100
0010
0000
,  // measure 58
0110
0000
0100
0010
0001
0010
0001
0000
,  // measure 59
1000
0000
0001
0100
0010
0000
0100
0010
,  // measure 60
1000
0001
1000
0100
,  // measure 61
0110
0000
0010
0001
0010
0001
1000
0000
,  // measure 62
1001
0000
0001
1000
0010
1000
0010
0000
,  // measure 63
0100
0001
0100
0000
0010
1000
0010
0000
,  // measure 64
1000
0001
1000
0000
0001
0010
0001
0000
,  // measure 65
2002
0000
0000
0000
,  // measure 66
0000
0000
0000
3003
,  // measure 67
1001
0000
0000
0000
;

//---------------dance-single - Oni-91----------------
#NOTES:
     dance-single:
     :
     Easy:
     5:
     0.259586,0.272972,0.089633,0.105930,0.000000,223.000000,212.000000,11.000000,13.000000,0.000000,0.000000,0.259586,0.272972,0.089633,0.105930,0.000000,223.000000,212.000000,11.000000,13.000000,0.000000,0.000000:
// measure 0
1000
0000
2000
0000
0000
0001
0000
0002
,  // measure 1
0000
0000
0000
3003
,  // measure 2
1000
0001
1000
0001
,  // measure 3
1000
0010
0100
0001
,  // measure 4
2001
0000
3200
0000
,  // measure 5
0310
0100
0010
0001
,  // measure 6
0200
0000
0320
0000
,  // measure 7
1030
0010
0100
0001
,  // measure 8
2000
0000
3200
0000
,  // measure 9
0310
0001
1000
0001
,  // measure 10
1000
1000
0001
0001
,  // measure 11
1000
0100
0010
0001
,  // measure 12
2002
0000
0000
0000
,  // measure 13
0000
0000
0000
0000
0000
0000
0000
3003
,  // measure 14
1000
0001
1000
0001
,  // measure 15
0100
0000
0100
0000
0010
0000
0010
0020
,  // measure 16
0000
0030
0000
0000
,  // measure 17
1001
0000
0001
0000
,  // measure 18
0010
0001
1000
0000
,  // measure 19
0001
1000
0001
1000
,  // measure 20
0010
0100
0010
0000
,  // measure 21
0100
0000
0001
0000
,  // measure 22
1000
0100
1000
0000
,  // measure 23
0001
0010
0001
0010
,  // measure 24
0100
1000
0001
1000
,  // measure 25
0010
0000
0100
0000
,  // measure 26
0010
1000
0100
0000
,  // measure 27
0010
0001
1000
0001
,  // measure 28
0100
0010
1000
0001
,  // measure 29
1000
0000
0001
0010
,  // measure 30
0100
0000
0010
0001
,  // measure 31
1000
0100
0010
0100
,  // measure 32
1000
0001
0010
0100
,  // measure 33
0010
0000
0001
0000
,  // measure 34
1000
0000
0001
0100
,  // measure 35
0001
0000
1000
0000
,  // measure 36
0010
0100
0010
1000
,  // measure 37
0001
0001
1000
1000
,  // measure 38
0100
0010
0100
0010
,  // measure 39
0001
0000
0001
0000
,  // measure 40
1000
0010
0100
0001
,  // measure 41
1001
0000
1000
0100
,  // measure 42
1000
0100
0010
0001
,  // measure 43
0010
0001
1000
0001
,  // measure 44
0100
0001
1000
0001
,  // measure 45
1000
0010
0100
0001
,  // measure 46
0010
0100
0010
0001
,  // measure 47
1000
0100
0010
0001
,  // measure 48
1000
0010
0100
0001
,  // measure 49
1001
0000
0001
0100
,  // measure 50
0001
0100
0010
1000
,  // measure 51
0100
0000
1000
0100
,  // measure 52
1000
0001
0100
0010
,  // measure 53
0100
0000
0010
0000
,  // measure 54
0100
0010
0100
0001
,  // measure 55
1000
0000
0001
0000
,  // measure 56
1000
0100
0010
0001
,  // measure 57
1001
0000
0001
0100
,  // measure 58
0110
0000
0010
1000
,  // measure 59
0001
1000
0100
0010
,  // measure 60
0001
1000
0001
0100
,  // measure 61
0110
0000
0010
1000
,  // measure 62
1001
0000
0001
1000
,  // measure 63
0100
0010
0001
1000
,  // measure 64
0010
0100
0001
1000
,  // measure 65
2002
0000
0000
0000
,  // measure 66
0000
0000
0000
3003
,  // measure 67
1001
0000
0000
0000
;

//---------------dance-single - Oni-91----------------
#NOTES:
     dance-single:
     :
     Beginner:
     2:
     0.155984,0.191081,0.081484,0.000000,0.000000,134.000000,124.000000,10.000000,0.000000,0.000000,0.000000,0.155984,0.191081,0.081484,0.000000,0.000000,134.000000,124.000000,10.000000,0.000000,0.000000,0.000000:
// measure 0
1001
0000
0000
0000
,  // measure 1
0010
0000
0000
0000
,  // measure 2
0100
0000
0010
0000
,  // measure 3
1000
0000
0001
0000
,  // measure 4
1001
0000
0000
0000
,  // measure 5
1000
0000
0001
0000
,  // measure 6
0010
0000
0100
0000
,  // measure 7
0010
0000
0001
0001
,  // measure 8
0001
0000
1000
0000
,  // measure 9
0001
0000
0100
0100
,  // measure 10
0100
0000
0010
0000
,  // measure 11
1000
0000
0001
0000
,  // measure 12
1001
0000
0000
0000
,  // measure 13
0000
0000
0000
0000
,  // measure 14
1000
0000
0001
0000
,  // measure 15
0100
0100
0100
0100
,  // measure 16
0000
0000
0000
0000
,  // measure 17
1001
0000
0000
0000
,  // measure 18
0001
0000
1000
0000
,  // measure 19
0100
0000
1000
0000
,  // measure 20
0001
0000
0100
0000
,  // measure 21
0001
0000
0000
0000
,  // measure 22
1000
0000
0000
0000
,  // measure 23
0001
0000
0010
0000
,  // measure 24
0100
0000
0010
0000
,  // measure 25
0001
0000
0000
0000
,  // measure 26
1000
0000
0000
0000
,  // measure 27
0010
0000
1000
0000
,  // measure 28
0001
0000
1000
0000
,  // measure 29
0100
0000
0100
0000
,  // measure 30
0010
0000
0010
0000
,  // measure 31
0100
0000
0010
0000
,  // measure 32
0001
0000
1000
0000
,  // measure 33
1001
0000
0000
0000
,  // measure 34
0001
0000
0100
0000
,  // measure 35
0001
0000
0000
0000
,  // measure 36
1000
0000
0010
0000
,  // measure 37
1000
0000
1000
0000
,  // measure 38
0100
0000
0100
0000
,  // measure 39
0010
0000
0001
0000
,  // measure 40
0010
0000
0001
0000
,  // measure 41
1001
0000
1000
0000
,  // measure 42
0010
0000
0100
0000
,  // measure 43
0010
0000
0100
0000
,  // measure 44
0001
0000
1000
1000
,  // measure 45
1000
0000
0001
0000
,  // measure 46
1000
0000
0100
0000
,  // measure 47
0010
0000
0001
0000
,  // measure 48
0100
0000
0010
0000
,  // measure 49
1001
0000
0001
0000
,  // measure 50
1000
0000
0100
0000
,  // measure 51
0110
0000
0010
0000
,  // measure 52
0001
0000
1000
0000
,  // measure 53
0001
0000
0100
0000
,  // measure 54
0001
0000
1000
0000
,  // measure 55
0100
0000
1000
0000
,  // measure 56
0100
0000
0010
0010
,  // measure 57
0010
0000
0100
0000
,  // measure 58
1000
0000
0100
0000
,  // measure 59
0010
0000
0001
0000
,  // measure 60
1000
0000
0001
0001
,  // measure 61
0001
0000
1000
0000
,  // measure 62
0001
0000
0100
0000
,  // measure 63
0010
0000
1000
0000
,  // measure 64
0100
0000
0010
0000
,  // measure 65
0110
0000
0000
0000
,  // measure 66
0000
0000
0000
0000
,  // measure 67
1001
0000
0000
0000
;
