#VERSION:0.83;
#TITLE:SA.YO.NA.RA. SUPER STAR;
#SUBTITLE:;
#ARTIST:SUPER STAR MITSURU;
#TITLETRANSLIT:;
#SUBTITLETRANSLIT:;
#ARTISTTRANSLIT:;
#GENRE:;
#ORIGIN:;
#CREDIT:;
#BANNER:SA.YO.NA.RA. SUPER STAR.png;
#BACKGROUND:SA.YO.NA.RA. SUPER STAR-bg.png;
#PREVIEWVID:;
#JACKET:;
#CDIMAGE:;
#DISCIMAGE:;
#LYRICSPATH:;
#CDTITLE:;
#MUSIC:SA.YO.NA.RA. SUPER STAR.mp3;
#OFFSET:-0.020000;
#SAMPLESTART:22.620001;
#SAMPLELENGTH:11.290000;
#SELECTABLE:YES;
#BPMS:0.000=170.000,
152.000=85.000,
180.000=170.000;
#STOPS:260.000=2.824;
#DELAYS:;
#WARPS:;
#TIMESIGNATURES:0.000=4=4;
#TICKCOUNTS:0.000=4;
#COMBOS:0.000=1;
#SPEEDS:0.000=1.000=0.000=0;
#SCROLLS:0.000=1.000;
#FAKES:;
#LABELS:0.000=Song Start;
#BGCHANGES:-1.500=sayonara.avi=1.000=0=0=1=====,
99999=-nosongbg-=1.000=0=0=0 // don't automatically add -songbackground-
;
#KEYSOUNDS:;
#ATTACKS:
;

//---------------dance-single - Oni-91----------------
#NOTEDATA:;
#CHARTNAME:;
#STEPSTYPE:dance-single;
#DESCRIPTION:Oni-91;
#CHARTSTYLE:;
#DIFFICULTY:Hard;
#METER:8;
#RADARVALUES:0.434466,0.579495,0.296283,0.313712,0.078428,349.000000,315.000000,34.000000,36.000000,0.000000,0.000000,0.000000,0.000000,0.000000,0.434466,0.579495,0.296283,0.313712,0.078428,349.000000,315.000000,34.000000,36.000000,0.000000,0.000000,0.000000,0.000000,0.000000;
#CREDIT:Oni-91;
#NOTES:
// measure 0
0000
0000
0000
0000
,  // measure 1
0000
0000
0000
0000
,  // measure 2
0000
0000
0000
0000
,  // measure 3
0000
0000
0000
0000
,  // measure 4
0000
0000
0000
0000
,  // measure 5
0000
0000
0000
0000
,  // measure 6
0000
0000
0000
0000
,  // measure 7
0000
0000
0000
0000
,  // measure 8
1000
0100
1000
0000
0001
0100
0001
0000
,  // measure 9
1000
0000
0010
0000
0100
0000
0001
1000
,  // measure 10
0000
1000
0100
0000
0010
0001
0100
0000
,  // measure 11
0010
0000
1000
0000
0001
0000
1000
0000
0100
0000
0000
0010
0001
0000
1000
0000
,  // measure 12
1001
0000
1000
0010
0100
0001
0010
0000
,  // measure 13
0110
0000
0100
0010
1000
0010
0001
0000
,  // measure 14
1000
0010
0100
0001
1000
0100
0001
0100
,  // measure 15
1000
1000
2002
0000
0000
0000
3003
0000
,  // measure 16
1000
0010
0100
0001
0000
0001
0010
0001
,  // measure 17
1000
0100
0010
0100
0000
0010
0001
1000
,  // measure 18
0002
0203
2300
3200
,  // measure 19
0301
0000
0100
0000
0010
0000
1000
0000
0000
0000
0000
1000
0100
0000
0010
0000
,  // measure 20
0110
0000
0100
1000
0000
1000
0001
0100
,  // measure 21
0020
0032
0023
2030
,  // measure 22
3001
1000
0100
0010
0000
0100
0010
0001
,  // measure 23
0011
0011
0000
1100
0000
1001
0000
0110
,  // measure 24
0110
0000
0010
1000
0000
1000
0100
0001
,  // measure 25
0100
0000
0010
0001
0000
0100
0001
0100
,  // measure 26
0010
1000
0100
0000
0010
0001
0100
0000
,  // measure 27
0010
0000
1000
0000
0001
0000
1000
0000
0000
0000
0000
0001
0100
0000
0001
0000
,  // measure 28
1000
0100
1000
0100
0010
0001
0010
0001
,  // measure 29
1000
0001
1000
0001
0100
0010
0100
0010
,  // measure 30
1000
0000
1001
1001
0000
0110
0000
2002
,  // measure 31
0000
0000
0000
3003
,  // measure 32
0220
0000
0000
0300
,  // measure 33
2000
0000
0000
0030
,  // measure 34
0002
0000
0000
0000
,  // measure 35
0000
3000
0200
0303
,  // measure 36
0220
0000
0000
0000
,  // measure 37
0000
0000
0000
0330
,  // measure 38
2002
3003
1000
0100
1000
0001
0200
0000
,  // measure 39
0010
0000
0301
0000
1000
0100
0010
0001
,  // measure 40
0100
0010
0200
0000
0010
0000
0301
0000
,  // measure 41
2002
3003
1000
0100
0010
0100
1000
0001
,  // measure 42
0101
0000
1010
0000
1001
0000
1000
0100
,  // measure 43
0010
0100
0220
0000
0000
0000
0000
0000
,  // measure 44
0000
0000
0330
0000
,  // measure 45
1001
0000
0000
0000
0000
0000
1000
0100
1000
0000
0100
0000
0010
0000
0001
0000
,  // measure 46
1000
0000
0000
0001
0000
0000
1002
0000
0000
0000
0010
0000
0013
0000
0000
0000
,  // measure 47
1000
0000
0100
0000
0010
0000
0100
0000
1000
0000
0001
0100
0000
0001
0000
0200
,  // measure 48
0000
0000
0000
0010
0310
0000
1001
0000
,  // measure 49
1100
0000
0000
0000
0001
0000
0010
0001
0010
0000
0001
0000
1000
0000
0010
0000
,  // measure 50
0110
0000
0000
1010
0000
0000
1002
0000
0000
0000
0100
0000
0103
0000
0010
0000
,  // measure 51
1000
0000
0001
1000
0000
0001
0000
2000
0000
0000
0010
0000
3010
0000
0000
0000
,  // measure 52
0001
0000
1000
0001
0000
1000
0000
0002
0000
0000
0010
0000
0013
0000
0000
0000
,  // measure 53
0001
0100
0010
1000
0100
0010
0100
1000
,  // measure 54
0100
0010
0001
1000
0100
0010
0001
0000
,  // measure 55
0001
0100
0001
0100
0010
1000
0010
0100
,  // measure 56
0001
0010
0100
0010
0001
1000
0100
0000
,  // measure 57
0010
0001
0100
0010
1000
0010
0100
0001
,  // measure 58
0010
0001
1000
0100
0010
0001
0100
0000
,  // measure 59
0001
0010
0001
1000
0100
1000
0001
0100
,  // measure 60
0010
0100
0001
0010
0100
0010
0001
1000
,  // measure 61
0100
1000
0100
0001
0100
1000
0100
0001
,  // measure 62
0100
1000
0100
0010
0100
1000
0010
0100
,  // measure 63
2002
0000
0000
0000
,  // measure 64
0000
0000
0000
0000
,  // measure 65
3003
0000
0000
0000
,  // measure 66
0000
0000
0000
0000
,  // measure 67
1001
0000
0000
0110
0000
0000
1001
0000
0000
1000
0100
0000
0010
0000
0001
0000
,  // measure 68
2002
0000
0000
0000
,  // measure 69
0000
0000
0000
0000
,  // measure 70
3003
0000
0000
0000
;

//---------------dance-single - Oni-91----------------
#NOTEDATA:;
#CHARTNAME:;
#STEPSTYPE:dance-single;
#DESCRIPTION:Oni-91;
#CHARTSTYLE:;
#DIFFICULTY:Medium;
#METER:5;
#RADARVALUES:0.319936,0.457496,0.287569,0.374711,0.013071,257.000000,224.000000,33.000000,43.000000,0.000000,0.000000,0.000000,0.000000,0.000000,0.319936,0.457496,0.287569,0.374711,0.013071,257.000000,224.000000,33.000000,43.000000,0.000000,0.000000,0.000000,0.000000,0.000000;
#CREDIT:Oni-91;
#NOTES:
// measure 0
0000
0000
0000
0000
,  // measure 1
0000
0000
0000
0000
,  // measure 2
0000
0000
0000
0000
,  // measure 3
0000
0000
0000
0000
,  // measure 4
0000
0000
0000
0000
,  // measure 5
0000
0000
0000
0000
,  // measure 6
0000
0000
0000
0000
,  // measure 7
0000
0000
0000
0000
,  // measure 8
1000
0100
0010
0001
,  // measure 9
1000
0000
0001
0000
0100
0000
0001
0100
,  // measure 10
0000
0100
0001
0000
1000
0000
0100
0000
,  // measure 11
0010
0000
0100
0000
1000
0000
0001
1000
,  // measure 12
0001
0000
1000
0020
0000
0000
0130
0000
,  // measure 13
0002
0010
0100
1003
,  // measure 14
1001
0000
1000
0100
0010
0000
0100
0000
,  // measure 15
0110
0220
0000
0330
,  // measure 16
0010
0000
0001
2000
0000
0000
3001
0000
,  // measure 17
1000
0000
0010
2000
0000
0000
3100
0000
,  // measure 18
0010
0001
0100
0010
,  // measure 19
0100
0000
0010
1000
0000
1000
0001
0000
,  // measure 20
1001
0000
1000
0200
0000
0000
1300
0000
,  // measure 21
0200
0010
1000
0310
,  // measure 22
0010
0000
0001
1000
0000
1000
0001
0000
,  // measure 23
0100
0010
0000
0110
0000
1001
0000
1000
,  // measure 24
0001
0000
1000
0100
0000
0010
0001
0000
,  // measure 25
1000
0000
0010
1000
0000
0001
0100
0000
,  // measure 26
0001
1000
0001
0000
1000
0100
1000
0000
,  // measure 27
0001
0000
0010
0000
0100
0010
0100
0010
,  // measure 28
0002
0000
0003
0000
1000
0100
1000
0000
,  // measure 29
0002
0010
1000
0103
,  // measure 30
0001
0000
0100
0001
0000
0001
1000
0000
,  // measure 31
1100
0000
0000
0011
0000
1001
1001
0000
,  // measure 32
2002
0000
0000
3000
,  // measure 33
0020
0000
0000
0030
,  // measure 34
2000
0000
0000
0000
,  // measure 35
0000
3000
0200
0303
,  // measure 36
2002
0000
0000
0000
,  // measure 37
0000
0000
0000
3003
,  // measure 38
2002
0000
3003
0000
1000
0100
2000
0000
,  // measure 39
0010
3001
2002
3003
,  // measure 40
0001
0010
0002
0000
0010
0000
1003
0000
,  // measure 41
2002
0000
3003
0000
1000
0010
0200
0000
,  // measure 42
0010
0301
2002
3003
,  // measure 43
0100
0010
0220
0000
0000
0000
0000
0000
,  // measure 44
0000
0000
0330
0000
,  // measure 45
1001
0000
0110
0000
,  // measure 46
1001
0000
0000
1001
0000
0000
2002
0000
0000
0000
0000
0000
3003
0000
0000
0000
,  // measure 47
1000
0000
0100
0000
0010
0000
0001
1000
,  // measure 48
0001
0000
1000
0010
1000
0000
0010
0000
,  // measure 49
0110
0000
1001
0000
,  // measure 50
1001
0000
0000
1001
0000
0000
2002
0000
0000
0000
0000
0000
3003
0000
0000
0000
,  // measure 51
1000
0000
0001
0100
0002
0000
1003
0000
,  // measure 52
0220
0000
0000
0000
0330
0010
1000
0000
,  // measure 53
0001
1000
0001
0000
1000
0100
1000
0000
,  // measure 54
0001
0000
0010
0000
0100
0010
0100
0000
,  // measure 55
0010
0001
0010
0000
0001
1000
0001
0000
,  // measure 56
1000
0000
0010
0000
0100
0010
0100
0000
,  // measure 57
0010
1000
0001
0000
0010
0001
1000
0000
,  // measure 58
0001
0000
1000
0000
0100
0010
0100
0000
,  // measure 59
0010
0001
0100
0000
0010
1000
0100
0000
,  // measure 60
0010
0001
0010
0000
0100
1000
0100
0000
,  // measure 61
1000
0010
1000
0000
0001
0100
0001
0000
,  // measure 62
1000
0001
0100
0000
0010
1000
0100
0000
,  // measure 63
0220
0000
0000
0000
,  // measure 64
0000
0000
0000
0000
,  // measure 65
0330
0000
0000
0000
,  // measure 66
0000
0000
0000
0000
,  // measure 67
1001
0000
0000
1001
0000
0000
2002
0000
0000
0000
0000
0000
3003
0000
0000
0000
,  // measure 68
0220
0000
0000
0000
,  // measure 69
0000
0000
0000
0000
,  // measure 70
0330
0000
0000
0000
;

//---------------dance-single - Oni-91----------------
#NOTEDATA:;
#CHARTNAME:;
#STEPSTYPE:dance-single;
#DESCRIPTION:Oni-91;
#CHARTSTYLE:;
#DIFFICULTY:Easy;
#METER:4;
#RADARVALUES:0.220345,0.304998,0.121999,0.156856,0.000000,177.000000,163.000000,14.000000,18.000000,0.000000,0.000000,0.000000,0.000000,0.000000,0.220345,0.304998,0.121999,0.156856,0.000000,177.000000,163.000000,14.000000,18.000000,0.000000,0.000000,0.000000,0.000000,0.000000;
#CREDIT:Oni-91;
#NOTES:
// measure 0
0000
0000
0000
0000
,  // measure 1
0000
0000
0000
0000
,  // measure 2
0000
0000
0000
0000
,  // measure 3
0000
0000
0000
0000
,  // measure 4
0000
0000
0000
0000
,  // measure 5
0000
0000
0000
0000
,  // measure 6
0000
0000
0000
0000
,  // measure 7
0000
0000
0000
0000
,  // measure 8
1000
0001
0100
0000
,  // measure 9
0010
0000
0100
0010
,  // measure 10
0100
0001
1000
0000
,  // measure 11
0001
1000
0100
0010
,  // measure 12
0001
0100
0001
0000
,  // measure 13
1000
0000
0001
1000
,  // measure 14
0010
0000
0100
0000
,  // measure 15
0110
0220
0000
0330
,  // measure 16
0010
0100
0010
1000
,  // measure 17
0001
0100
0001
0000
,  // measure 18
1000
0100
0010
0001
,  // measure 19
0100
0010
0100
0000
,  // measure 20
0010
1000
0010
0100
,  // measure 21
0001
0100
0001
0000
,  // measure 22
1000
0100
0010
0100
,  // measure 23
1000
0000
0001
0100
,  // measure 24
0001
1000
0100
0000
,  // measure 25
0010
0001
0100
0000
,  // measure 26
0010
0100
0001
1000
,  // measure 27
0100
0010
0100
1000
,  // measure 28
0001
0000
1000
0010
,  // measure 29
1000
0001
0100
0010
,  // measure 30
0100
0001
0010
0100
,  // measure 31
2002
0000
0000
3003
,  // measure 32
0220
0000
0000
0000
,  // measure 33
0000
0000
0330
0000
,  // measure 34
2002
0000
0000
0000
,  // measure 35
0000
0000
3003
0000
,  // measure 36
0220
0000
0000
0000
,  // measure 37
0000
0000
0330
0000
,  // measure 38
1001
0000
1000
0100
,  // measure 39
0010
0001
1000
0000
,  // measure 40
0001
0100
0010
0100
,  // measure 41
0001
0000
1000
0100
,  // measure 42
0010
0100
1000
0000
,  // measure 43
0001
2002
0000
0000
,  // measure 44
0000
0000
3003
0000
,  // measure 45
1001
0000
1001
0000
,  // measure 46
1000
0001
0100
0000
,  // measure 47
0010
0100
0001
0100
,  // measure 48
0010
0000
1000
0001
,  // measure 49
1000
0000
1001
0000
,  // measure 50
0001
0010
0001
0000
,  // measure 51
1000
0100
1000
0000
,  // measure 52
0001
0010
0001
0000
,  // measure 53
1000
0010
0100
0001
,  // measure 54
0100
0010
1000
0100
,  // measure 55
0010
0100
1000
0100
,  // measure 56
0010
0001
0100
0000
,  // measure 57
0001
0100
0010
1000
,  // measure 58
0010
1000
0100
0010
,  // measure 59
0100
1000
0001
0010
,  // measure 60
0100
0010
0001
1000
,  // measure 61
0001
1000
0001
1000
,  // measure 62
0010
0100
0010
0100
,  // measure 63
0220
0000
0000
0000
,  // measure 64
0000
0000
0000
0000
,  // measure 65
0330
0000
0000
0000
,  // measure 66
0000
0000
0000
0000
,  // measure 67
2002
0000
0000
3003
,  // measure 68
0220
0000
0000
0000
,  // measure 69
0000
0000
0000
0000
,  // measure 70
0330
0000
0000
0000
;

//---------------dance-single - Oni-91----------------
#NOTEDATA:;
#CHARTNAME:;
#STEPSTYPE:dance-single;
#DESCRIPTION:Oni-91;
#CHARTSTYLE:;
#DIFFICULTY:Beginner;
#METER:2;
#RADARVALUES:0.129468,0.243998,0.139427,0.052285,0.000000,104.000000,88.000000,16.000000,6.000000,0.000000,0.000000,0.000000,0.000000,0.000000,0.129468,0.243998,0.139427,0.052285,0.000000,104.000000,88.000000,16.000000,6.000000,0.000000,0.000000,0.000000,0.000000,0.000000;
#CREDIT:Oni-91;
#NOTES:
// measure 0
0000
0000
0000
0000
,  // measure 1
0000
0000
0000
0000
,  // measure 2
0000
0000
0000
0000
,  // measure 3
0000
0000
0000
0000
,  // measure 4
0000
0000
0000
0000
,  // measure 5
0000
0000
0000
0000
,  // measure 6
0000
0000
0000
0000
,  // measure 7
0000
0000
0000
0000
,  // measure 8
1001
0000
0000
0000
,  // measure 9
1000
0000
0000
0000
,  // measure 10
0100
0000
0000
0000
,  // measure 11
0010
0000
0100
0000
,  // measure 12
0110
0000
0000
0000
,  // measure 13
1001
0000
0000
0000
,  // measure 14
1000
0000
0001
0000
,  // measure 15
1001
0000
0000
0000
,  // measure 16
0001
0000
0100
0000
,  // measure 17
0001
0000
0100
0000
,  // measure 18
0001
0000
1000
0000
,  // measure 19
0100
0000
0000
0000
,  // measure 20
0010
0000
0100
0000
,  // measure 21
0010
0000
0100
0000
,  // measure 22
1000
0000
0100
0000
,  // measure 23
1000
0000
0000
0000
,  // measure 24
0001
0000
1000
0000
,  // measure 25
0001
0000
1000
0000
,  // measure 26
0010
0000
0100
0000
,  // measure 27
0001
0000
0000
0000
,  // measure 28
1000
0000
0100
0000
,  // measure 29
0010
0000
0001
0000
,  // measure 30
1000
0000
0010
0000
,  // measure 31
0100
0000
0000
0000
,  // measure 32
1001
0000
0000
0000
,  // measure 33
0000
0000
0000
0000
,  // measure 34
0000
0000
0000
0000
,  // measure 35
0000
0000
0000
0000
,  // measure 36
0000
0000
0000
0000
,  // measure 37
0000
0000
0000
0000
,  // measure 38
1001
0000
1000
1000
,  // measure 39
0000
0001
0001
0000
,  // measure 40
0100
0100
0000
0000
,  // measure 41
0110
0000
0010
0010
,  // measure 42
0000
0100
0100
0000
,  // measure 43
1001
2002
0000
0000
,  // measure 44
0000
0000
3003
0000
,  // measure 45
1000
0000
0001
0000
,  // measure 46
1001
0000
0000
0000
,  // measure 47
1000
0000
0100
0000
,  // measure 48
1000
0000
0001
0000
,  // measure 49
0100
0000
0010
0000
,  // measure 50
0110
0000
0000
0000
,  // measure 51
0110
0000
0000
0000
,  // measure 52
1001
0000
0000
0000
,  // measure 53
1000
0000
0100
0000
,  // measure 54
0010
0000
0001
0000
,  // measure 55
1000
0000
0010
0000
,  // measure 56
0100
0000
0001
0000
,  // measure 57
1000
0000
0001
0000
,  // measure 58
1000
0000
0001
0000
,  // measure 59
0100
0000
0010
0000
,  // measure 60
0100
0000
0010
0000
,  // measure 61
1000
0000
0010
0000
,  // measure 62
0100
0000
0001
0000
,  // measure 63
2002
0000
0000
0000
,  // measure 64
0000
0000
0000
0000
,  // measure 65
3003
0000
0000
0000
,  // measure 66
0000
0000
0000
0000
,  // measure 67
1001
0000
0000
0000
,  // measure 68
2002
0000
0000
0000
,  // measure 69
0000
0000
0000
0000
,  // measure 70
3003
0000
0000
0000
;
