#TITLE:Ryoushi no Umi no Lindworm;
#SUBTITLE:;
#ARTIST:Kuroneko Dungeon;
#TITLETRANSLIT:;
#SUBTITLETRANSLIT:;
#ARTISTTRANSLIT:;
#GENRE:;
#CREDIT:;
#BANNER:Ryoushi no Umi no Lindworm.png;
#BACKGROUND:Ryoushi no Umi no Lindworm-bg.PNG;
#LYRICSPATH:;
#CDTITLE:;
#MUSIC:Ryoushi no Umi no Lindworm.mp3;
#OFFSET:-4.520000;
#SAMPLESTART:71.140007;
#SAMPLELENGTH:13.710000;
#SELECTABLE:YES;
#DISPLAYBPM:140.000000:280.000000;
#BPMS:0.000000=280.000000
,56.000000=140.000000
,72.000000=186.667007
,88.000000=140.000000
,96.000000=280.000000
,369.000000=186.667007
,401.000000=110.000000
;
#STOPS:231.000000=1.500000,
368.000000=0.429000
;
#BGCHANGES:;
#KEYSOUNDS:;
#ATTACKS:;

//---------------dance-single - Oni-91----------------
#NOTES:
     dance-single:
     :
     Hard:
     10:
     0.877006,1.269288,0.119831,0.110613,0.447062,666.000000,653.000000,13.000000,12.000000,0.000000,0.000000,0.877006,1.269288,0.119831,0.110613,0.447062,666.000000,653.000000,13.000000,12.000000,0.000000,0.000000:
// measure 0
1000
0000
0001
1000
0000
0001
0000
1000
,  // measure 1
0100
0000
0010
0000
0001
0000
0100
0010
,  // measure 2
0000
0100
0000
0010
0000
1000
0100
0010
,  // measure 3
0001
1000
0001
0000
1001
0000
0100
0000
,  // measure 4
0010
0100
0001
0010
,  // measure 5
0100
0000
0010
0000
0100
0010
0000
0100
,  // measure 6
0000
1000
0000
0001
1000
0000
0001
0000
,  // measure 7
0100
0001
0000
1000
0000
0001
0000
0010
,  // measure 8
0001
0010
0001
0010
0100
0000
0010
0000
,  // measure 9
0100
0001
0100
1000
,  // measure 10
0010
0000
0100
0000
1001
0000
0000
0101
,  // measure 11
0000
0001
0000
0100
0010
0000
2002
0000
,  // measure 12
3003
0000
0001
0000
0010
0001
0000
1000
,  // measure 13
0100
0010
0100
0010
0001
1000
0010
1000
,  // measure 14
0001
0010
0100
1000
,  // measure 15
0100
0000
0000
0000
0010
0000
0000
0000
0001
0000
0000
0001
1000
0000
0001
0000
,  // measure 16
1000
0000
0100
1000
0100
0000
0010
0001
0010
0000
0001
0100
0001
0000
1000
0100
,  // measure 17
0010
0000
0100
0010
0100
1000
0001
0100
0010
0100
0010
1000
0001
1000
0001
0000
,  // measure 18
1000
0000
0001
0100
0000
0100
0010
0000
0010
1000
0000
0100
,  // measure 19
1000
0100
0010
0001
0000
0100
0001
0100
0010
1000
0000
0001
,  // measure 20
1000
0100
1000
0001
0010
0001
1000
0000
0010
0100
0001
0010
,  // measure 21
0100
0010
0001
1000
0100
0010
0001
0100
0010
1000
0001
0100
,  // measure 22
0020
0100
0000
0100
0000
0130
0000
0000
0010
0100
0010
1000
0001
1000
0000
0000
,  // measure 23
0200
0010
0000
0010
0000
0310
0000
0000
0001
0010
0001
1000
0100
1000
0001
0000
,  // measure 24
1001
0000
0001
0100
0001
0000
1000
0100
,  // measure 25
1000
0000
0001
1000
0001
1000
0001
0000
,  // measure 26
1000
0000
0100
0010
0100
0000
0010
0001
,  // measure 27
0100
0000
0010
0100
0010
1000
0001
0000
,  // measure 28
1000
0000
0001
0000
1000
0100
1000
0000
,  // measure 29
0001
0100
0001
0000
1000
0010
1000
0000
,  // measure 30
0001
0010
0001
0000
0010
0001
0100
0000
,  // measure 31
0010
0100
0001
1000
0100
0010
0100
0000
,  // measure 32
0010
0001
0010
0001
1000
0001
1000
0001
,  // measure 33
0100
0001
0100
0001
0100
0010
0100
0000
,  // measure 34
0010
1000
0010
1000
0001
1000
0001
1000
,  // measure 35
0001
0010
0001
1000
0000
1000
0001
0000
,  // measure 36
0010
0001
1000
0100
0010
0001
1000
0001
,  // measure 37
1000
0010
0100
0001
1000
0001
1000
0000
,  // measure 38
0001
0100
0010
0100
0001
1000
0001
1000
,  // measure 39
0100
0010
0100
1000
0000
1000
0001
0000
,  // measure 40
1000
0001
1000
0001
0100
0000
0010
0000
,  // measure 41
0100
0010
1000
0100
0000
0010
0001
0000
,  // measure 42
0001
0010
0100
0010
0001
0000
1000
0000
,  // measure 43
0010
1000
0001
1000
0000
0001
1000
0000
,  // measure 44
0001
1000
0001
0000
0001
1000
0000
1000
,  // measure 45
0001
0000
0001
1000
0000
0001
0000
1000
,  // measure 46
0000
0001
1000
0001
,  // measure 47
1000
0100
0010
0001
1000
0001
1000
0000
,  // measure 48
0001
0000
0100
0010
0000
0010
0100
0000
,  // measure 49
0001
0010
0001
1000
0010
0100
0001
0000
,  // measure 50
1000
0001
1000
0001
0000
0001
1000
0000
,  // measure 51
0001
0010
0100
0000
0010
0100
0000
0010
,  // measure 52
0100
0000
0010
0100
0000
0010
0000
0100
,  // measure 53
0000
0010
0001
1000
,  // measure 54
2002
0000
3003
0001
,  // measure 55
0100
0001
0000
0100
0010
0000
0100
1000
,  // measure 56
0000
0100
0010
1000
0100
0010
0001
1000
,  // measure 57
0001
1000
0100
0010
0001
0100
0010
0000
,  // measure 58
0001
0000
0000
1000
0100
0000
0010
0000
,  // measure 59
0001
1000
0001
0100
0000
0100
0010
0000
,  // measure 60
1000
0000
0001
1000
0001
0000
1000
0100
,  // measure 61
1000
0000
0001
0100
0001
0100
0010
0000
,  // measure 62
0100
0001
0100
0000
0001
1000
0100
0010
,  // measure 63
0100
0000
0000
0010
0001
0000
1000
0000
,  // measure 64
0010
0100
0001
1000
0000
0001
1000
0000
,  // measure 65
0100
0010
0100
1000
0001
0000
1000
0100
,  // measure 66
1000
0001
0000
0001
0000
0001
0010
0000
,  // measure 67
0100
0010
0001
1000
0100
0010
0001
0000
,  // measure 68
1000
0010
0100
0010
1000
0000
0001
0000
,  // measure 69
0010
0000
0001
1000
0000
1000
0100
0000
,  // measure 70
0010
0001
0100
0010
1000
0000
0001
0000
,  // measure 71
1000
0010
0100
0010
0000
0100
0001
0000
,  // measure 72
1000
0100
1000
0100
0000
0100
0010
0100
,  // measure 73
0010
0001
1000
0001
0000
0001
0100
0010
,  // measure 74
0100
0001
1000
0010
0100
0001
0010
0001
,  // measure 75
1000
0100
0010
0100
1000
0010
1000
0001
,  // measure 76
1000
0001
0010
0100
1000
0000
0001
0000
,  // measure 77
1000
0000
0001
0100
0000
0100
0001
1000
,  // measure 78
0010
0000
0010
0100
0000
0100
0001
0000
,  // measure 79
1000
0100
0010
0001
1000
0001
1000
0000
,  // measure 80
0010
1000
0100
0010
0000
0100
1000
0001
,  // measure 81
0100
0010
0100
0001
0000
1000
0100
0010
,  // measure 82
0001
0100
0010
1000
0010
0100
0001
1000
,  // measure 83
0001
1000
0100
0010
0001
0100
0010
0000
,  // measure 84
1010
0000
0000
0101
0000
0000
2002
0000
,  // measure 85
0000
0000
0000
3003
,  // measure 86
1000
0000
0001
0010
0000
0100
1000
0000
,  // measure 87
0001
0100
0000
0000
0010
1000
0001
1000
,  // measure 88
0001
0010
0100
0010
0100
2000
0002
0000
,  // measure 89
0000
0000
0000
3003
,  // measure 90
1000
0000
0010
0100
0000
0001
0100
0000
,  // measure 91
0010
1000
0000
0000
0001
1000
0001
1000
,  // measure 92
0001
0000
0000
0001
0100
0001
0100
0000
0000
0010
1000
0010
,  // measure 93
1000
0000
0000
0001
0010
0100
1000
0000
1000
0100
1000
0001
,  // measure 94
0100
0010
0100
0001
1000
0001
1000
0000
0000
0001
0010
0001
,  // measure 95
0010
0000
0000
0100
1000
0100
0010
0000
0100
0010
0100
1000
,  // measure 96
0001
0100
0001
1000
0010
0100
0001
0000
0100
0001
0100
0010
,  // measure 97
1000
0000
0001
0010
0100
0010
0001
0000
1000
0100
1000
0001
,  // measure 98
0100
0001
1000
0010
0100
0001
0100
0000
0001
0100
0010
1000
,  // measure 99
0100
0000
1000
0100
0010
0001
0100
0010
0100
0001
0010
0100
,  // measure 100
0010
0001
1000
1100
0000
0000
0011
0000
0000
0101
0000
0000
,  // measure 101
0220
0000
0000
0000
,  // measure 102
0330
0000
0000
0000
;

//---------------dance-single - Oni-91----------------
#NOTES:
     dance-single:
     :
     Medium:
     9:
     0.690017,0.893203,0.193573,0.248880,0.239662,524.000000,503.000000,21.000000,27.000000,0.000000,0.000000,0.690017,0.893203,0.193573,0.248880,0.239662,524.000000,503.000000,21.000000,27.000000,0.000000,0.000000:
// measure 0
1000
0000
0000
0001
0000
0100
0000
0001
,  // measure 1
0000
0000
1000
0000
0100
0000
0010
0001
,  // measure 2
0000
1000
0000
0001
0000
1000
0010
0000
,  // measure 3
0100
0001
1000
0000
,  // measure 4
0001
0000
0010
0100
,  // measure 5
0010
0000
0001
0000
0000
1000
0000
0001
,  // measure 6
0000
1000
0000
0000
0010
0000
1000
0000
,  // measure 7
0010
0100
0000
0010
0000
0100
0000
0001
,  // measure 8
1000
0000
0001
1000
0001
0000
1001
0000
,  // measure 9
0000
0001
0010
0100
,  // measure 10
1000
0000
0001
0000
1000
0000
0000
0001
,  // measure 11
0000
1000
0000
0001
0010
0000
0220
0000
,  // measure 12
0330
0000
0110
0000
0000
0001
0000
1000
,  // measure 13
0000
0001
0100
0000
0020
0000
0000
0000
,  // measure 14
1030
0100
1000
0010
,  // measure 15
0100
0000
0000
0000
0001
0000
0000
0000
0010
0000
0000
0010
0001
0000
1000
0000
,  // measure 16
0010
0100
0010
1000
0100
0010
0100
1000
,  // measure 17
0001
0100
1000
0100
0001
1000
0100
0010
,  // measure 18
0001
0000
0000
1000
0000
0001
0100
0000
0000
0001
0000
1000
,  // measure 19
0010
0000
0000
0100
0000
0010
1000
0000
1000
0100
0000
0100
,  // measure 20
0010
0000
0000
0001
0000
1000
0001
0000
0000
1000
0000
0100
,  // measure 21
1000
0000
1000
0100
0000
0100
0010
0000
0010
0001
0000
0001
,  // measure 22
2000
0001
0000
0001
0000
3001
0000
0000
1000
0000
0001
0000
1000
0001
0000
0000
,  // measure 23
0200
0010
0000
0010
0000
0310
0000
0000
0010
0000
0100
0000
0010
0100
0000
0000
,  // measure 24
0010
0000
1000
0001
0000
0001
1000
0000
,  // measure 25
0010
0000
0100
0000
0001
0000
0010
0001
,  // measure 26
0000
1000
0100
0000
0010
0001
1000
0000
,  // measure 27
0001
0000
1000
0001
0000
0001
1000
0000
,  // measure 28
0001
0000
0100
0010
0100
0000
0010
0000
,  // measure 29
1000
0100
1000
0000
0001
0000
1000
0100
,  // measure 30
0000
0010
0001
0000
1000
0000
0010
0000
,  // measure 31
0100
0010
0100
0000
0001
1000
0001
0000
,  // measure 32
1000
0000
1000
0010
0000
0010
0100
0000
,  // measure 33
0100
0001
0000
0001
1000
0001
1000
0000
,  // measure 34
0001
0000
0001
0010
0000
0010
0100
0010
,  // measure 35
0100
0010
0100
0020
0000
0000
0031
0000
,  // measure 36
1000
0000
0001
1000
0000
1000
0001
0000
,  // measure 37
0100
0010
0000
0010
0100
0001
1000
0000
,  // measure 38
0001
0000
1000
0100
0000
0100
1000
0100
,  // measure 39
0010
0100
0010
0200
0000
0000
1300
0000
,  // measure 40
0001
0100
0001
0000
1000
0000
0100
0000
,  // measure 41
0010
0001
0010
0002
0000
0000
0103
0000
,  // measure 42
0010
0100
0010
0000
1000
0000
0001
0000
,  // measure 43
1000
0100
1000
0200
0000
0000
0310
0000
,  // measure 44
0001
1000
0001
0000
1000
0001
0000
0001
,  // measure 45
1000
0000
1000
0001
0000
1000
0000
0001
,  // measure 46
0000
1000
0001
1000
,  // measure 47
0001
0100
0001
0000
1000
0100
1000
0000
,  // measure 48
0001
0000
0010
0100
0000
0100
0010
0000
,  // measure 49
0001
1000
0001
0000
0100
0010
0100
0000
,  // measure 50
0001
0010
0001
0020
0000
0000
0130
0000
,  // measure 51
0010
0100
0010
0000
0100
0010
0000
0010
,  // measure 52
0100
0000
0100
0010
0000
0100
0000
0010
,  // measure 53
0000
0100
1000
0001
,  // measure 54
2002
0000
3003
0101
,  // measure 55
0000
0110
0000
0000
1010
0000
0000
1100
,  // measure 56
0000
0000
0110
0000
0000
0011
0000
0000
,  // measure 57
1001
0000
0000
0110
0000
0000
1001
0000
,  // measure 58
1000
0000
0000
1000
0100
0000
0010
0000
,  // measure 59
0001
0000
0100
0010
0000
0010
0100
0000
,  // measure 60
0001
0000
1000
0000
0100
0000
0000
0100
,  // measure 61
0010
0001
1000
0001
,  // measure 62
1000
0010
1000
0000
0010
0000
0100
0000
,  // measure 63
0001
0000
0000
0001
1000
0000
0100
0000
,  // measure 64
0010
0000
0001
1000
0000
1000
0001
0000
,  // measure 65
0100
0000
0010
0000
1000
0100
0000
0010
,  // measure 66
0001
1000
0000
0001
1000
0000
0010
0100
,  // measure 67
0000
0100
0010
0000
1000
0001
1000
0000
,  // measure 68
0001
0000
0010
0001
0010
0000
0001
0000
,  // measure 69
0100
1000
0100
0001
,  // measure 70
1000
0000
0010
1000
0100
0000
0010
0000
,  // measure 71
0100
0010
0001
1000
0100
0010
0001
0000
,  // measure 72
1000
0000
0010
1000
0000
1000
0010
0000
,  // measure 73
0100
0000
0001
0100
0000
0100
0010
0000
,  // measure 74
1000
0000
0001
0000
1000
0100
0010
0000
,  // measure 75
0001
0010
0001
0010
0100
1000
0100
0000
,  // measure 76
0010
0000
0001
1000
0001
0000
1000
0000
,  // measure 77
0010
0000
0100
0001
0000
0001
0100
0000
,  // measure 78
0120
0000
0000
2030
0000
0000
3200
0000
,  // measure 79
0000
0020
0000
0000
0000
0330
0000
0000
,  // measure 80
0001
1000
0001
1000
0000
0001
0000
0010
,  // measure 81
0001
0010
0001
0010
0000
0100
0000
1000
,  // measure 82
0001
0100
0001
0000
1000
0010
1000
0000
,  // measure 83
0001
1000
0001
1000
0001
1000
0010
0000
,  // measure 84
1010
0000
0000
1100
0000
0000
2002
0000
,  // measure 85
0000
0000
0000
3003
,  // measure 86
1000
0000
0001
0100
0000
0010
1000
0000
,  // measure 87
0002
2000
0000
0000
0000
0000
3003
0000
,  // measure 88
0011
0000
0000
0101
0000
0000
0220
0000
,  // measure 89
0000
0000
0000
0330
,  // measure 90
0010
0000
1000
0001
0000
1000
0100
0000
,  // measure 91
0020
0002
0000
0000
0000
0000
0000
0000
,  // measure 92
0033
0000
0000
0001
0000
0010
0001
0000
0000
1000
0000
0100
,  // measure 93
1000
0000
0000
0001
0000
1000
0001
0000
0000
1000
0010
1000
,  // measure 94
0010
0000
0100
0001
0000
0001
0010
0000
0000
0100
0000
0010
,  // measure 95
0100
0000
0000
0010
0000
0001
1000
0000
1000
0010
0100
0010
,  // measure 96
0100
0000
0010
1000
0000
1000
0100
0000
0100
0010
0000
0010
,  // measure 97
0100
0000
0100
1000
0000
1000
0001
0000
0001
1000
0001
1000
,  // measure 98
0001
0000
0001
0100
0000
0100
0010
0000
0010
1000
0000
1000
,  // measure 99
0100
0000
0100
0010
0000
0010
0100
0000
0100
1000
0100
1000
,  // measure 100
0001
1000
0001
2000
0000
0000
0010
0000
0000
3001
0000
0000
,  // measure 101
0220
0000
0000
0000
,  // measure 102
0330
0000
0000
0000
;

//---------------dance-single - Oni-91----------------
#NOTES:
     dance-single:
     :
     Easy:
     7:
     0.476691,0.799181,0.387147,0.248880,0.000000,362.000000,320.000000,42.000000,27.000000,0.000000,0.000000,0.476691,0.799181,0.387147,0.248880,0.000000,362.000000,320.000000,42.000000,27.000000,0.000000,0.000000:
// measure 0
1000
0000
0001
0000
,  // measure 1
0100
0000
0010
0100
,  // measure 2
0010
0000
1000
0000
,  // measure 3
0001
1000
2002
0000
,  // measure 4
0000
0000
0000
0000
,  // measure 5
3003
1000
0000
0001
,  // measure 6
0000
0010
0000
0100
,  // measure 7
0010
0100
0010
0001
,  // measure 8
0000
1000
0001
2002
,  // measure 9
0000
0000
0000
0000
,  // measure 10
0000
0000
3003
0000
1001
0000
0000
1001
,  // measure 11
0000
0000
0000
0110
0000
0000
0220
0000
,  // measure 12
0330
0000
1001
0000
0000
1001
0000
0000
,  // measure 13
0000
0110
0000
0000
0220
0000
0330
0000
,  // measure 14
0010
1000
0100
1000
,  // measure 15
0001
0010
0100
0010
,  // measure 16
0011
0101
1010
1100
,  // measure 17
0110
1100
1001
0110
,  // measure 18
0010
1000
0100
0001
,  // measure 19
1000
0010
0001
0100
,  // measure 20
1000
0100
0010
1000
,  // measure 21
0001
0010
0100
0010
,  // measure 22
2002
0000
3003
0000
0001
1000
0001
0000
,  // measure 23
0220
0000
0330
0000
0100
0010
0100
0000
,  // measure 24
0010
1000
0100
0000
,  // measure 25
0010
0001
1000
0000
,  // measure 26
0001
1000
0001
0100
,  // measure 27
0010
0000
0000
0100
0000
0000
0010
0000
,  // measure 28
1000
0001
1000
0000
,  // measure 29
0001
0010
0100
0000
,  // measure 30
0010
0001
1000
0010
,  // measure 31
0100
0010
1000
0000
,  // measure 32
1001
0000
0000
1000
0000
0000
0001
0000
,  // measure 33
0000
0100
0000
0000
0010
0000
0100
0000
,  // measure 34
0010
0000
0000
0100
0000
0000
0001
0000
,  // measure 35
1000
0100
0010
0001
,  // measure 36
1000
0000
0000
0001
0000
0000
1000
0000
,  // measure 37
0000
0001
0000
0000
0100
0000
0001
0000
,  // measure 38
0100
0000
0000
0010
0000
0000
1000
0000
,  // measure 39
0001
0100
0001
1000
,  // measure 40
0001
0010
0100
0001
,  // measure 41
0100
1000
0001
0000
,  // measure 42
1000
0010
0001
0010
,  // measure 43
0100
0001
0020
0030
,  // measure 44
1001
0000
0000
0000
0001
0000
0000
1000
,  // measure 45
0000
0000
0001
0000
0000
1000
0000
0001
,  // measure 46
0000
0100
0010
0100
,  // measure 47
0010
1000
0001
0010
,  // measure 48
0100
0010
0001
0000
,  // measure 49
0001
0100
1000
0100
,  // measure 50
0010
1000
0001
1000
,  // measure 51
0001
0000
0000
0000
1000
0000
0000
0001
,  // measure 52
0000
0000
1000
0000
0000
0001
0000
1000
,  // measure 53
0000
0010
0100
0010
,  // measure 54
0220
0000
0330
0110
,  // measure 55
0000
0110
0000
0000
1001
0000
0000
1001
,  // measure 56
0000
0000
0110
0000
0000
0110
0000
0000
,  // measure 57
1001
0000
0000
0110
0000
0000
1001
0000
,  // measure 58
1001
0000
1000
0100
,  // measure 59
0010
0001
0000
0010
,  // measure 60
0001
0100
0010
0000
,  // measure 61
0100
0010
1000
0100
,  // measure 62
0001
0100
0010
0100
,  // measure 63
1000
0000
0001
0100
,  // measure 64
0010
1000
0000
0001
,  // measure 65
0010
0100
0010
0000
,  // measure 66
0001
1000
0010
0100
,  // measure 67
0001
0010
0100
0010
,  // measure 68
0001
0000
0000
1000
0000
0000
0001
0000
,  // measure 69
0100
1000
0100
0001
,  // measure 70
1000
0000
0000
0100
0000
0000
1000
0000
,  // measure 71
0001
0010
0100
0010
,  // measure 72
0001
0000
1000
0001
0000
0000
1000
0000
,  // measure 73
0010
0000
0100
0010
0000
0000
0100
0000
,  // measure 74
0010
1000
0100
0010
,  // measure 75
0100
1000
0001
0100
,  // measure 76
0010
0000
0000
0100
0000
0000
0010
0000
,  // measure 77
1000
0100
0010
0100
,  // measure 78
1000
0000
0000
0001
0000
0000
1000
0000
,  // measure 79
0100
0010
0001
1000
,  // measure 80
0001
0000
0100
0001
0000
0000
1000
0000
,  // measure 81
0100
0000
1000
0100
0000
0000
0010
0000
,  // measure 82
0001
0000
1000
0001
0000
0000
1000
0000
,  // measure 83
0010
0001
0010
1000
,  // measure 84
1001
0000
0000
0110
0000
0000
2002
0000
,  // measure 85
0000
0000
0000
3003
,  // measure 86
0001
0000
0000
1000
0000
0000
0100
0000
,  // measure 87
0000
0220
0000
0000
0000
0000
0330
0000
,  // measure 88
0110
0000
0000
1001
0000
0000
0220
0000
,  // measure 89
0000
0000
0000
0330
,  // measure 90
0010
0000
0000
0001
0000
0000
1000
0000
,  // measure 91
0000
2002
0000
0000
0000
0000
0000
0000
,  // measure 92
3003
1000
0100
0001
,  // measure 93
0100
1000
0001
0200
,  // measure 94
0300
0010
0100
0001
,  // measure 95
0010
0100
0010
0002
,  // measure 96
0003
1000
0010
0100
,  // measure 97
0001
0010
1000
0010
,  // measure 98
0001
0100
1000
0100
,  // measure 99
0010
1000
0100
0010
,  // measure 100
0100
0010
0100
0010
,  // measure 101
2002
0000
0000
0000
,  // measure 102
3003
0000
0000
0000
;

//---------------dance-single - Oni-91----------------
#NOTES:
     dance-single:
     :
     Beginner:
     4:
     0.196207,0.372398,0.221227,0.000000,0.000000,149.000000,125.000000,24.000000,0.000000,0.000000,0.000000,0.196207,0.372398,0.221227,0.000000,0.000000,149.000000,125.000000,24.000000,0.000000,0.000000,0.000000:
// measure 0
1000
0000
0000
0000
,  // measure 1
0001
0000
0000
0000
,  // measure 2
0100
0000
0010
0000
,  // measure 3
0100
0000
0010
0000
,  // measure 4
0000
0000
0000
0000
,  // measure 5
0000
1000
0000
0000
,  // measure 6
0000
0001
0000
0000
,  // measure 7
0000
1000
0000
0001
,  // measure 8
0000
1000
0000
0001
,  // measure 9
0000
0000
0000
0000
,  // measure 10
0000
0000
0110
0000
,  // measure 11
0000
0000
0000
0000
,  // measure 12
0000
1001
0000
0000
,  // measure 13
0000
0000
0000
0000
,  // measure 14
1001
0000
0000
0000
,  // measure 15
0000
0000
0000
0000
,  // measure 16
0001
0000
0100
0000
,  // measure 17
0001
0000
1000
0000
,  // measure 18
0001
0000
0000
0000
,  // measure 19
1000
0000
0100
0000
,  // measure 20
0010
0000
0100
0000
,  // measure 21
1000
0000
0001
0000
,  // measure 22
1001
0000
0000
0000
,  // measure 23
0110
0000
0000
0000
,  // measure 24
1001
0000
0000
0000
,  // measure 25
0001
0000
0000
0000
,  // measure 26
1000
0000
0000
0000
,  // measure 27
0100
0000
0000
0000
,  // measure 28
0010
0000
0000
0000
,  // measure 29
0100
0000
0000
0000
,  // measure 30
1000
0000
0000
0000
,  // measure 31
0001
0000
0001
0000
,  // measure 32
0001
0000
0000
0000
,  // measure 33
1000
0000
0000
0000
,  // measure 34
0010
0000
0000
0000
,  // measure 35
0100
0000
0100
0000
,  // measure 36
0100
0000
0000
0000
,  // measure 37
0001
0000
0000
0000
,  // measure 38
1000
0000
0000
0000
,  // measure 39
0100
0000
0000
0000
,  // measure 40
0110
0000
0000
0000
,  // measure 41
0010
0000
0010
0000
,  // measure 42
0010
0000
0000
0000
,  // measure 43
0100
0000
0100
0000
,  // measure 44
0100
0000
0000
0000
,  // measure 45
0000
0000
0000
0000
,  // measure 46
0000
0000
0000
0000
,  // measure 47
1001
0000
0000
0000
,  // measure 48
1000
0000
0001
0000
,  // measure 49
1000
0000
0000
0000
,  // measure 50
0001
0000
1000
0000
,  // measure 51
0001
0000
0000
0000
,  // measure 52
0000
0000
0000
0000
,  // measure 53
0000
0000
0000
0000
,  // measure 54
0110
0000
0000
1001
,  // measure 55
0000
0000
0110
0000
,  // measure 56
0000
1001
0000
0000
,  // measure 57
0110
0000
0000
1001
,  // measure 58
1000
0000
0000
0000
,  // measure 59
0000
0001
0000
0000
,  // measure 60
0000
0000
1000
0000
,  // measure 61
0000
0000
0000
0010
,  // measure 62
0000
0000
0000
0000
,  // measure 63
0110
0000
0000
0000
,  // measure 64
0000
0100
0000
0000
,  // measure 65
0000
0000
0001
0000
,  // measure 66
0000
0000
0000
1000
,  // measure 67
0000
0000
0000
0000
,  // measure 68
0001
0000
0000
0000
,  // measure 69
1000
0000
0000
0000
,  // measure 70
0001
0000
0100
0000
,  // measure 71
0010
0000
1000
0000
,  // measure 72
1001
0000
0000
0000
,  // measure 73
0110
0000
0000
0000
,  // measure 74
0001
0000
1000
0000
,  // measure 75
0001
0000
1000
0000
,  // measure 76
1001
0000
0000
0000
,  // measure 77
0001
0000
0000
0000
,  // measure 78
0100
0000
0010
0000
,  // measure 79
0100
0000
0010
0000
,  // measure 80
0110
0000
0000
0000
,  // measure 81
0001
0000
0000
0000
,  // measure 82
1000
0000
0001
0000
,  // measure 83
1000
0000
0001
0000
,  // measure 84
1001
0000
0000
0000
,  // measure 85
0000
0000
0000
0000
,  // measure 86
0110
0000
0000
0000
,  // measure 87
0000
0000
0000
0000
,  // measure 88
1001
0000
0000
0000
,  // measure 89
0000
0000
0000
0000
,  // measure 90
0110
0000
0000
0000
,  // measure 91
0000
0000
0000
0000
,  // measure 92
0000
0001
0000
1000
,  // measure 93
0000
0100
0000
0010
,  // measure 94
0000
0100
0000
1000
,  // measure 95
0000
0001
0001
0001
,  // measure 96
0000
1000
0000
0001
,  // measure 97
0000
0100
0100
0100
,  // measure 98
0000
0010
0000
1000
,  // measure 99
0000
0001
0001
0001
,  // measure 100
0000
1000
1000
1000
,  // measure 101
1001
0000
0000
0000
;

//---------------dance-single - Oni-91----------------
#NOTES:
     dance-single:
     :
     Challenge:
     12:
     1.023173,1.457331,0.359493,0.129049,0.566893,777.000000,738.000000,39.000000,14.000000,0.000000,0.000000,1.023173,1.457331,0.359493,0.129049,0.566893,777.000000,738.000000,39.000000,14.000000,0.000000,0.000000:
// measure 0
0001
0000
1000
0001
0000
1000
0000
0001
,  // measure 1
1000
0000
0001
0000
0010
0000
0100
0010
,  // measure 2
0000
0100
0000
0010
0000
0001
0010
0001
,  // measure 3
1000
0010
0100
0000
1001
0000
0001
0000
,  // measure 4
0010
0000
1000
0000
0001
0100
1000
0000
,  // measure 5
0001
0000
1000
0010
0100
0001
0000
0100
,  // measure 6
0000
0001
0000
1000
0100
0000
0010
0000
,  // measure 7
0100
1000
0000
0001
0000
0100
0000
0010
,  // measure 8
0100
0001
0010
0100
0010
0000
1001
0000
,  // measure 9
0001
0000
0100
0000
1000
0000
0100
0010
,  // measure 10
0000
0010
1000
0000
1001
0000
0000
0011
,  // measure 11
0000
0001
0000
0001
1000
0000
2002
0000
,  // measure 12
3003
0000
0110
0000
0000
1010
0000
1000
,  // measure 13
0100
0001
0100
0010
0001
1000
0001
1000
,  // measure 14
1001
0000
0001
0000
0100
0000
0010
0100
0001
0000
0100
0001
1000
0000
0001
0010
,  // measure 15
0100
0010
0100
1000
0001
0000
1000
0010
0100
0000
0010
0100
0001
1000
0001
0000
,  // measure 16
1000
0100
0001
0100
0010
0001
0100
0010
1000
0001
0010
0100
1000
0100
0001
1000
,  // measure 17
0000
1000
0010
0100
0010
0001
0100
1000
0100
0010
1000
0100
0010
0001
1000
0000
,  // measure 18
0001
0010
0001
0010
0000
0100
1000
0100
0010
0100
0000
0010
,  // measure 19
0100
1000
0001
0100
0000
0010
0100
0001
1000
0100
0000
0010
,  // measure 20
0001
0010
0100
0010
0001
0100
0010
1000
0100
0010
0000
0100
,  // measure 21
1000
0100
0001
1000
0010
0001
1000
0100
0001
1000
0010
0001
,  // measure 22
2000
0001
0000
0001
0000
3001
0000
0000
0001
0100
0010
1000
0001
1001
0000
0000
,  // measure 23
0002
1000
0000
1000
0000
1003
0000
0000
1000
0100
0010
0001
1000
0001
0100
0010
,  // measure 24
1000
0100
0010
0000
0001
0100
0010
0000
,  // measure 25
1000
0100
0010
0001
0100
1000
0100
0001
,  // measure 26
0000
0001
1000
0100
0010
0100
1000
0000
,  // measure 27
0001
0000
0010
0001
0000
0001
1000
0000
,  // measure 28
0001
0100
0010
0000
0100
0010
1000
0000
,  // measure 29
0001
0010
0100
0001
0100
1000
0010
0100
,  // measure 30
0000
0100
0010
0000
1000
0001
1000
0000
,  // measure 31
0001
0010
0100
1000
0100
0010
0001
0000
,  // measure 32
1000
0100
0001
1000
0010
0001
1000
0100
,  // measure 33
0001
1000
0010
0001
1000
0001
1000
0000
,  // measure 34
0001
0100
1000
0001
0010
1000
0001
0100
,  // measure 35
0010
1000
0100
0001
0100
1000
0001
0000
,  // measure 36
0010
1000
0100
0010
0001
0100
0010
1000
,  // measure 37
0100
0010
0001
0100
0001
0100
0010
0000
,  // measure 38
0001
0010
0001
1000
0100
1000
0001
0100
,  // measure 39
0001
1000
0010
0100
0001
0010
0100
0000
,  // measure 40
0001
0100
1000
0100
0001
0100
1000
0100
,  // measure 41
0010
1000
0001
1000
0000
1000
0100
0000
,  // measure 42
0001
0010
1000
0010
0001
0010
1000
0010
,  // measure 43
0001
0010
0100
1100
0000
1000
1001
0000
,  // measure 44
0002
0100
0100
0000
1000
1000
0000
0010
,  // measure 45
0010
0000
0100
0100
0000
1000
0000
0100
,  // measure 46
0000
0000
0010
0000
1000
1000
1003
0000
,  // measure 47
0001
0010
0100
0001
0100
1000
0010
0100
,  // measure 48
0001
1000
0001
1001
0000
1000
0100
0010
,  // measure 49
0100
0001
0100
1000
0010
0001
0010
0100
,  // measure 50
0001
0010
0100
0110
0000
0010
0011
0000
,  // measure 51
2000
0001
0001
0000
0010
0010
0000
0100
,  // measure 52
0100
0000
0010
0010
0000
0001
0000
0010
,  // measure 53
0000
0100
0001
3100
,  // measure 54
2002
0000
0000
0000
3003
0000
1000
0001
,  // measure 55
0001
0100
0001
0001
0010
0100
0100
1000
,  // measure 56
0010
0010
0100
0001
0010
1000
0001
0100
,  // measure 57
1000
0001
1000
0001
0100
0010
1001
0000
,  // measure 58
0001
0100
1000
0100
0001
0000
1000
0100
,  // measure 59
1000
0100
0010
0100
1000
0100
0010
0000
,  // measure 60
0001
0100
0001
0100
0110
0000
0010
0100
,  // measure 61
0010
1000
0100
0010
0100
0010
0110
0000
,  // measure 62
0010
0001
1000
0100
0001
0100
1000
0001
,  // measure 63
0100
0001
0100
1000
0100
0000
0010
1000
,  // measure 64
0100
0010
0100
0010
0001
1000
0001
0000
,  // measure 65
1000
0010
0100
0001
0100
1000
0100
0001
,  // measure 66
0100
0110
0000
1010
0000
0010
1000
0010
,  // measure 67
0100
0001
0010
0100
0010
0001
1000
0000
,  // measure 68
0001
0100
0001
0100
0010
1000
0010
1000
,  // measure 69
0001
0010
0100
1000
0000
1000
0100
0010
,  // measure 70
0001
1000
0010
1000
0001
0010
0100
0010
,  // measure 71
0001
0100
1000
0100
0001
0010
1000
0010
,  // measure 72
0001
0010
0100
0110
0000
0010
0100
1000
,  // measure 73
0010
0100
0010
0110
0000
0100
0001
0010
,  // measure 74
0100
1000
0100
0001
0100
1000
0100
0010
,  // measure 75
0001
0010
0100
0010
0001
0001
1000
0000
,  // measure 76
0001
0100
0001
1000
0010
0100
0001
0010
,  // measure 77
0100
0010
0001
1000
0100
0001
0100
0010
,  // measure 78
0011
0000
0001
0101
0000
0100
0110
0000
,  // measure 79
0010
1000
0100
1000
0001
1001
0000
0001
,  // measure 80
1000
0100
0010
0011
0000
0001
0001
0100
,  // measure 81
0010
1000
0010
1010
0000
1000
1000
0100
,  // measure 82
0001
0100
1000
0010
0100
0001
0010
0100
,  // measure 83
0001
0100
1000
0001
1000
0010
0100
0001
,  // measure 84
0011
0000
0001
1100
0000
0000
2002
0000
,  // measure 85
0000
0000
0000
3003
,  // measure 86
0001
0100
1000
0001
0010
0100
0001
1000
,  // measure 87
0001
1001
0000
0000
1000
0100
0010
0001
,  // measure 88
1000
0010
0001
0010
0100
0001
2002
0000
,  // measure 89
0000
0000
0000
3003
,  // measure 90
1000
0100
0100
0001
0100
0100
1000
0001
,  // measure 91
1000
1001
0000
1000
0001
0100
0010
1000
,  // measure 92
1001
0000
0000
0001
0010
0100
1000
0000
1000
0100
0010
0001
,  // measure 93
0100
0000
0010
0100
0001
0010
0100
0010
0001
1000
0010
1000
,  // measure 94
0001
0100
0001
1000
0100
0010
0001
0000
0010
0001
0100
1000
,  // measure 95
0100
0000
0010
0100
0001
0010
0100
0010
0001
1000
0100
1000
,  // measure 96
0001
0010
0001
1000
0010
0001
1000
0100
0001
1000
0010
0001
,  // measure 97
1000
0100
0001
1000
0010
0100
0001
0010
0100
0010
0001
0010
,  // measure 98
0100
1000
0100
0010
0001
0100
0010
0001
0100
0010
1000
0100
,  // measure 99
0010
1000
0100
0001
0100
1000
0100
0010
0001
0100
1000
0100
,  // measure 100
0010
1000
0001
0011
0000
0000
1100
0000
0000
0110
0000
0000
,  // measure 101
2002
0000
0000
0000
,  // measure 102
3003
0000
0000
0000
;
