#VERSION:0.83;
#TITLE:Running;
#SUBTITLE:;
#ARTIST:Kállay-Saunders;
#TITLETRANSLIT:;
#SUBTITLETRANSLIT:;
#ARTISTTRANSLIT:;
#GENRE:;
#ORIGIN:;
#CREDIT:;
#BANNER:Running.png;
#BACKGROUND:Running-bg.png;
#PREVIEWVID:;
#JACKET:;
#CDIMAGE:;
#DISCIMAGE:;
#LYRICSPATH:;
#CDTITLE:;
#MUSIC:Running.mp3;
#OFFSET:-8.690000;
#SAMPLESTART:63.620003;
#SAMPLELENGTH:10.660000;
#SELECTABLE:YES;
#BPMS:0.000=90.000,
82.000=135.000,
85.000=180.000;
#STOPS:;
#DELAYS:;
#WARPS:;
#TIMESIGNATURES:0.000=4=4;
#TICKCOUNTS:0.000=4;
#COMBOS:0.000=1;
#SPEEDS:0.000=1.000=0.000=0;
#SCROLLS:0.000=1.000;
#FAKES:;
#LABELS:0.000=Song Start;
#BGCHANGES:;
#KEYSOUNDS:;
#ATTACKS:
;

//---------------dance-single - Oni-91----------------
#NOTEDATA:;
#CHARTNAME:;
#STEPSTYPE:dance-single;
#DESCRIPTION:Oni-91;
#CHARTSTYLE:;
#DIFFICULTY:Hard;
#METER:8;
#RADARVALUES:0.437969,0.557095,0.191043,0.200140,0.100070,337.000000,316.000000,21.000000,22.000000,0.000000,0.000000,0.000000,0.000000,0.000000,0.437969,0.557095,0.191043,0.200140,0.100070,337.000000,316.000000,21.000000,22.000000,0.000000,0.000000,0.000000,0.000000,0.000000;
#CREDIT:Oni-91;
#NOTES:
// measure 0
0000
0000
0000
0000
0000
0000
0000
0000
0000
0000
0000
0000
0000
0000
0010
0010
,  // measure 1
0020
0000
0000
2000
0000
0000
3030
0000
,  // measure 2
2000
0000
0000
0002
0000
0000
3003
0000
,  // measure 3
0002
0000
0000
0020
0000
0000
0033
0000
,  // measure 4
0020
0000
0000
0200
0000
0000
0330
0010
,  // measure 5
0011
0000
0001
0100
1000
0000
0100
0000
,  // measure 6
0010
0000
1000
0000
0001
0000
1000
0200
0000
0000
0000
0000
0310
0000
0001
0000
,  // measure 7
0100
0000
0010
1000
0100
0000
0010
0000
,  // measure 8
0100
0000
1000
0000
0001
0000
1000
0002
0000
0000
0000
0000
0103
0000
0010
0000
,  // measure 9
1000
0000
0001
0010
0001
0000
1000
0000
0010
1000
0010
0000
0100
0000
0001
0000
,  // measure 10
1000
0000
0001
0010
0100
0000
1000
0000
0010
0100
0001
1000
0100
0000
0010
0002
,  // measure 11
0100
0000
0100
0000
0103
0000
0010
2000
0001
0000
0001
0000
3001
0000
1000
0100
,  // measure 12
0001
0000
0000
0101
0000
0000
1100
0000
0000
1001
0000
0000
0101
0000
0100
0000
,  // measure 13
0010
0000
0000
0010
0000
0000
0020
0000
0000
0000
0000
0000
1030
0000
0001
0000
,  // measure 14
0010
0000
0100
2000
0000
3001
0100
0010
,  // measure 15
1000
0000
0000
1000
0000
0000
2000
0000
0000
0000
0000
0000
3001
0000
0010
0000
,  // measure 16
0100
0000
0010
0001
0000
1000
0010
0100
,  // measure 17
0101
0001
0100
1000
0100
0001
0010
1000
,  // measure 18
0010
0000
0001
0000
1000
0000
0100
0000
0010
0000
0001
0100
0010
0000
0100
0000
,  // measure 19
0001
1000
0100
0000
0010
0000
0100
0010
0002
0000
1000
0000
1003
0000
0000
0000
,  // measure 20
0001
0100
0010
1000
0100
0010
0001
2000
0002
0000
0000
0000
0000
0000
0000
0000
,  // measure 21
0000
0000
3003
0000
0000
0000
1000
0000
0000
0010
0000
0000
0000
0000
0000
0100
0000
0000
0001
0000
0000
0000
0000
0000
,  // measure 22
1000
0100
0010
0000
0001
1000
0001
0000
,  // measure 23
1000
0020
0001
0100
,  // measure 24
1030
0000
0001
0000
1000
0001
1000
0000
,  // measure 25
0100
0000
1000
0100
0000
0010
0001
0000
,  // measure 26
1000
0001
1000
0000
0010
0100
0010
0000
,  // measure 27
1000
0200
0001
0010
,  // measure 28
1300
0000
0001
0010
0100
1000
0100
0000
,  // measure 29
1001
0000
0001
0100
0010
1000
0001
0000
,  // measure 30
1001
0000
1000
0100
0010
0001
0100
0000
,  // measure 31
0110
0000
0010
0000
1000
0100
0010
0001
,  // measure 32
0100
0001
0100
1000
0100
0010
0110
0000
,  // measure 33
1001
0000
0011
0000
0001
0100
0010
0100
,  // measure 34
0001
1000
0100
0000
1000
0001
1000
0001
,  // measure 35
0010
0100
1000
0000
1000
0100
0000
0100
,  // measure 36
0001
0000
0001
0010
0000
0010
0110
0000
,  // measure 37
1001
0000
0001
0100
0010
0100
0001
0000
,  // measure 38
1000
0100
0010
0100
1000
0000
0001
0000
,  // measure 39
1000
0000
0001
0000
0010
0001
0000
1000
,  // measure 40
0100
0000
0010
0100
1000
0001
0100
0000
,  // measure 41
0110
0000
0010
1000
0001
1000
0100
0000
,  // measure 42
0010
0001
1000
0001
0100
0100
0001
1000
,  // measure 43
0001
0000
1000
0000
0001
0010
0000
0100
,  // measure 44
0010
0000
0001
0100
0010
1000
0100
0010
,  // measure 45
0001
0000
1000
0010
1000
0001
0100
0001
,  // measure 46
1000
0001
1000
0000
0001
0010
0100
0000
,  // measure 47
0110
0000
1001
0000
0001
0100
1000
0000
,  // measure 48
0100
0000
0010
1000
0100
0000
0110
0000
,  // measure 49
1001
0000
0001
0010
0001
1000
0010
1000
,  // measure 50
0001
0100
0010
1000
0100
0010
0001
0000
,  // measure 51
1001
0000
0001
0100
1000
0100
0001
1000
,  // measure 52
0100
2000
0002
0000
0000
0000
0000
0000
,  // measure 53
3003
0110
0000
0000
;

//---------------dance-single - Oni-91----------------
#NOTEDATA:;
#CHARTNAME:;
#STEPSTYPE:dance-single;
#DESCRIPTION:Oni-91;
#CHARTSTYLE:;
#DIFFICULTY:Medium;
#METER:7;
#RADARVALUES:0.372988,0.387544,0.227432,0.263821,0.054584,287.000000,262.000000,25.000000,29.000000,0.000000,0.000000,0.000000,0.000000,0.000000,0.372988,0.387544,0.227432,0.263821,0.054584,287.000000,262.000000,25.000000,29.000000,0.000000,0.000000,0.000000,0.000000,0.000000;
#CREDIT:Oni-91;
#NOTES:
// measure 0
0000
0000
0000
0000
0000
0000
0000
0000
0000
0000
0000
0000
0000
0000
1000
0001
,  // measure 1
2000
0000
0000
0002
0000
0000
3003
0000
,  // measure 2
0020
0000
0000
0200
0000
0000
0330
0000
,  // measure 3
2000
0000
0000
0200
0000
0000
3300
0000
,  // measure 4
0020
0000
0000
0002
0000
0000
0033
0000
,  // measure 5
1001
0000
0001
0100
0002
0000
1003
0000
,  // measure 6
0100
0010
0001
1000
0002
0000
0103
0010
,  // measure 7
1000
0000
0010
0100
0002
0000
1003
0000
,  // measure 8
0001
0010
0100
1000
0100
0010
0001
1000
,  // measure 9
2001
0000
0000
0001
0000
0000
0001
0000
0000
0001
0000
0000
3001
0000
0000
0000
,  // measure 10
0120
0000
0000
0100
0000
0000
0100
0000
0000
0100
0000
0000
0130
0000
0010
0000
,  // measure 11
1002
0000
0000
1000
0000
0000
0100
0000
0000
0100
0000
0000
0103
0000
0000
0000
,  // measure 12
2100
0000
0000
0100
0000
0000
0001
0000
0000
0001
0000
0000
3001
0000
1000
0000
,  // measure 13
0100
0000
0000
0100
0000
0000
0200
0000
0000
0000
0000
0000
0301
0000
0100
0000
,  // measure 14
1000
0000
0001
2000
0000
0000
3100
0000
,  // measure 15
0010
0000
0000
0010
0000
0000
0020
0000
0000
0000
0000
0000
0031
0000
0100
0000
,  // measure 16
1000
0000
2000
0002
0000
0000
3003
0000
,  // measure 17
0001
0100
0001
0100
0001
0000
1000
0000
,  // measure 18
0100
0000
0000
0010
0000
0000
0100
0000
0000
0000
1000
0000
0001
0000
0100
0000
,  // measure 19
0002
0000
0000
2000
0000
0000
3003
0000
,  // measure 20
1000
0100
0010
0001
2002
0000
0000
0000
,  // measure 21
0000
0000
3003
0000
0000
0000
1000
0000
0000
0001
0000
0000
0000
0000
0000
0001
0000
0000
0100
0000
0000
0000
0000
0000
,  // measure 22
0100
0200
0000
0000
0301
0100
1000
0000
,  // measure 23
0100
0000
0020
0000
1030
0000
0100
0010
,  // measure 24
0001
0000
1000
0000
0100
0010
0100
0000
,  // measure 25
0110
0000
0001
1000
0000
1000
0001
0000
,  // measure 26
0001
0002
0000
0000
1003
0100
0001
0000
,  // measure 27
0110
0000
0010
0000
0001
1000
0001
0000
,  // measure 28
0100
0000
0010
0000
1000
0100
0010
0000
,  // measure 29
0011
0000
1000
0100
0010
0000
0001
0100
,  // measure 30
0010
0000
1000
0001
1000
0001
1000
0000
,  // measure 31
0001
0000
0100
0000
0010
1000
0001
0000
,  // measure 32
0100
0000
0010
0000
1000
0001
1000
0000
,  // measure 33
0110
0000
0001
1000
0001
1000
0001
0000
,  // measure 34
1000
0100
0010
0000
0001
0010
0001
0000
,  // measure 35
1100
0000
1001
0000
0001
0100
0000
0010
,  // measure 36
1000
0000
1000
0001
0000
0001
1000
0000
,  // measure 37
0110
0000
1001
0000
1000
0100
0010
0000
,  // measure 38
1001
0000
0001
0100
0010
0000
1001
0000
,  // measure 39
0100
0000
0110
0000
0010
1000
0000
0001
,  // measure 40
0100
0000
0001
0010
0100
0000
0011
0000
,  // measure 41
1100
0000
0001
0100
0001
0100
0010
0000
,  // measure 42
1000
0100
1000
0100
0010
0000
0011
0000
,  // measure 43
1100
0000
1001
0000
1000
0010
1000
0000
,  // measure 44
0001
0100
0010
1000
0002
0000
0010
0000
,  // measure 45
1003
0000
0100
0010
0000
1000
0001
0000
,  // measure 46
0010
0100
0010
0000
0001
0000
1000
0010
,  // measure 47
0100
0000
0001
0000
0100
0010
1000
0100
,  // measure 48
0010
0100
0010
0011
,  // measure 49
1001
0000
0001
0100
0000
0010
1000
0000
,  // measure 50
0001
0010
0100
0000
0010
0000
0001
1000
,  // measure 51
0001
0000
1000
0001
1000
0001
0100
0010
,  // measure 52
0100
0010
0200
0000
0000
0000
0000
0000
,  // measure 53
0300
1001
0000
0000
;

//---------------dance-single - Oni-91----------------
#NOTEDATA:;
#CHARTNAME:;
#STEPSTYPE:dance-single;
#DESCRIPTION:Oni-91;
#CHARTSTYLE:;
#DIFFICULTY:Easy;
#METER:4;
#RADARVALUES:0.219634,0.242215,0.090973,0.181946,0.000000,169.000000,159.000000,10.000000,20.000000,0.000000,0.000000,0.000000,0.000000,0.000000,0.219634,0.242215,0.090973,0.181946,0.000000,169.000000,159.000000,10.000000,20.000000,0.000000,0.000000,0.000000,0.000000,0.000000;
#CREDIT:Oni-91;
#NOTES:
// measure 0
0000
0000
0000
0000
,  // measure 1
0100
0000
0000
0200
0000
0000
0300
0000
,  // measure 2
0010
0000
0000
0020
0000
0000
0030
0000
,  // measure 3
1000
0000
0000
2000
0000
0000
3000
0000
,  // measure 4
0001
0000
0000
0002
0000
0000
0003
0000
,  // measure 5
1000
0100
0010
0001
,  // measure 6
0100
0010
0100
0000
,  // measure 7
0001
0100
0010
1000
,  // measure 8
0001
1000
0001
0000
,  // measure 9
1000
1000
0001
0001
,  // measure 10
0100
0010
0100
0000
,  // measure 11
0001
0001
1000
1000
,  // measure 12
0100
0010
0100
0010
,  // measure 13
2002
0000
0000
3003
0000
0000
0001
0000
,  // measure 14
0200
0000
0000
0300
0000
0000
0010
0000
,  // measure 15
0220
0000
0000
0330
0000
0000
0100
0000
,  // measure 16
2002
0000
0000
3003
0000
0000
0000
0000
,  // measure 17
0001
0001
1000
1000
,  // measure 18
0010
0100
0010
0000
,  // measure 19
2002
0000
0000
3003
,  // measure 20
0220
0000
0330
0000
,  // measure 21
0000
1001
0000
0001
,  // measure 22
1000
0100
0000
0010
,  // measure 23
0001
1000
0001
0100
,  // measure 24
0010
0100
0000
0010
,  // measure 25
1000
0100
1000
0001
,  // measure 26
0010
0100
0000
0010
,  // measure 27
0001
1000
0000
0001
,  // measure 28
0100
0010
0000
0110
,  // measure 29
0000
1000
0100
0100
,  // measure 30
0010
0001
0001
1000
,  // measure 31
0001
0100
0000
0010
,  // measure 32
0100
0001
1000
0010
,  // measure 33
1000
1002
0000
0100
,  // measure 34
0000
0010
0000
1000
,  // measure 35
1000
2003
0000
0010
,  // measure 36
0000
0002
3003
1000
,  // measure 37
0001
0100
0000
0100
,  // measure 38
0001
1000
0100
0010
,  // measure 39
0100
1000
0000
0001
,  // measure 40
0010
0100
0010
0001
,  // measure 41
1000
0001
0000
1000
,  // measure 42
0010
0100
0001
0100
,  // measure 43
0010
1000
0000
0001
,  // measure 44
1000
0001
0100
0010
,  // measure 45
0100
0010
0010
1000
,  // measure 46
0100
1000
0000
0001
,  // measure 47
0010
0100
0010
0001
,  // measure 48
1000
0100
0010
0100
,  // measure 49
1000
0001
1000
0001
,  // measure 50
0100
0010
0000
0100
,  // measure 51
0010
1000
0100
1000
,  // measure 52
0001
2002
0000
0000
,  // measure 53
3003
1001
0000
0000
;

//---------------dance-single - Oni-91----------------
#NOTEDATA:;
#CHARTNAME:;
#STEPSTYPE:dance-single;
#DESCRIPTION:Oni-91;
#CHARTSTYLE:;
#DIFFICULTY:Beginner;
#METER:2;
#RADARVALUES:0.126062,0.169551,0.100070,0.018195,0.000000,97.000000,86.000000,11.000000,2.000000,0.000000,0.000000,0.000000,0.000000,0.000000,0.126062,0.169551,0.100070,0.018195,0.000000,97.000000,86.000000,11.000000,2.000000,0.000000,0.000000,0.000000,0.000000,0.000000;
#CREDIT:Oni-91;
#NOTES:
// measure 0
0000
0000
0000
0000
,  // measure 1
1001
0000
0000
0000
,  // measure 2
1000
0000
0000
0000
,  // measure 3
0001
0000
0000
0000
,  // measure 4
0100
0000
0000
0000
,  // measure 5
0010
0000
0010
0000
,  // measure 6
0100
0100
0100
0000
,  // measure 7
0001
0000
0001
0000
,  // measure 8
1000
1000
1000
0000
,  // measure 9
0100
0000
1000
0000
,  // measure 10
0001
0000
0010
0000
,  // measure 11
0100
0000
0010
0000
,  // measure 12
0001
0000
1000
0000
,  // measure 13
0010
0000
0100
0000
,  // measure 14
1001
0000
0000
0000
,  // measure 15
0110
0000
0000
0000
,  // measure 16
1001
0000
0000
0000
,  // measure 17
1000
0000
0001
0001
,  // measure 18
0001
0000
0100
0000
,  // measure 19
0110
0000
0000
0000
,  // measure 20
2002
0000
3003
0000
,  // measure 21
0000
1001
0000
0000
,  // measure 22
0000
0001
0000
0000
,  // measure 23
0000
0100
0000
0001
,  // measure 24
0000
0100
0000
0010
,  // measure 25
0000
1000
0000
0000
,  // measure 26
0000
0001
0000
0000
,  // measure 27
0000
1000
0000
0100
,  // measure 28
0000
0010
0000
0001
,  // measure 29
0000
1000
0000
1000
,  // measure 30
0000
0001
0000
0001
,  // measure 31
0000
0100
0000
0100
,  // measure 32
0000
0010
0000
0010
,  // measure 33
0000
0100
0000
0000
,  // measure 34
0000
0001
0000
0000
,  // measure 35
0000
1001
0000
0000
,  // measure 36
0000
0110
0000
0000
,  // measure 37
0000
1000
0000
0100
,  // measure 38
0000
1000
0000
0100
,  // measure 39
0000
0010
0000
0000
,  // measure 40
0000
0001
0000
0100
,  // measure 41
0000
0001
0000
0100
,  // measure 42
0000
0010
0000
1000
,  // measure 43
0000
0001
0000
0000
,  // measure 44
0000
1000
0000
0100
,  // measure 45
0000
0010
0000
0001
,  // measure 46
0000
0100
0000
0000
,  // measure 47
0000
0001
0000
0100
,  // measure 48
0000
0010
0000
0000
,  // measure 49
0000
1000
0000
0010
,  // measure 50
0000
1000
0000
0001
,  // measure 51
0000
0100
0000
0001
,  // measure 52
0000
1001
0000
0000
,  // measure 53
0000
1001
0000
0000
;
