#TITLE:Rocket to the Moon;
#SUBTITLE:;
#ARTIST:Mamas Gun;
#TITLETRANSLIT:;
#SUBTITLETRANSLIT:;
#ARTISTTRANSLIT:;
#GENRE:;
#CREDIT:;
#BANNER:Rocket to the Moon.png;
#BACKGROUND:Rocket to the Moon-bg.png;
#LYRICSPATH:;
#CDTITLE:;
#MUSIC:Rocket to the Moon.mp3;
#OFFSET:-8.959999;
#SAMPLESTART:26.170000;
#SAMPLELENGTH:17.910000;
#SELECTABLE:YES;
#DISPLAYBPM:107.000000;
#BPMS:0.000000=107.163002
;
#STOPS:92.000000=1.680000
;
#BGCHANGES:;
#KEYSOUNDS:;
#ATTACKS:;

//---------------dance-single - Oni-91----------------
#NOTES:
     dance-single:
     :
     Hard:
     7:
     0.395517,0.440913,0.264465,0.223142,0.214878,335.000000,303.000000,32.000000,27.000000,0.000000,0.000000,0.395517,0.440913,0.264465,0.223142,0.214878,335.000000,303.000000,32.000000,27.000000,0.000000,0.000000:
// measure 0
1001
0000
0001
0000
1000
0000
0100
0010
,  // measure 1
0001
0000
1000
0000
0001
0100
0001
0000
,  // measure 2
1000
0010
0100
0001
0010
0000
0110
0000
,  // measure 3
2100
0000
0001
0000
3020
0000
0100
0130
,  // measure 4
1001
0000
0000
0000
0001
0000
0010
0000
0100
0000
1000
0000
0001
1000
0000
0000
,  // measure 5
0001
0000
0000
1000
0000
0000
2002
0000
0000
0000
3003
0000
0001
0000
0100
0000
,  // measure 6
0110
0000
0000
0000
1010
0000
0000
2002
0000
0000
0000
0000
3003
0000
0000
0000
,  // measure 7
0001
0010
0001
0000
0000
1000
0100
1000
0000
0000
0000
0001
1000
0001
0000
0000
,  // measure 8
0010
0000
1001
0000
1000
0010
0001
0010
,  // measure 9
0100
0000
0010
0100
0000
0000
0001
0000
1000
0000
0100
0000
0010
0000
0000
0000
,  // measure 10
0100
0000
1000
0000
0010
0000
0100
0001
0000
0100
0001
0000
1000
0000
0100
0000
,  // measure 11
0010
0000
0000
0000
0100
0000
0010
0200
0000
0000
0000
0000
0300
0000
0000
0000
,  // measure 12
1001
0000
0000
0000
0001
0000
0100
0010
0000
0000
0100
0000
0001
0000
1000
0000
,  // measure 13
0100
0000
0000
0010
0000
0000
0001
0000
1000
0000
0001
0000
0100
0000
0000
0000
,  // measure 14
0110
0000
0000
0000
1010
0000
0000
2002
0000
0000
0000
0000
3003
0000
0000
0000
,  // measure 15
1000
0010
1000
0000
0000
0001
0100
0001
0000
0000
0000
1000
0100
1000
0000
0000
,  // measure 16
2002
0000
3003
0000
0001
0100
1000
0000
,  // measure 17
0100
0000
0010
1000
0100
0010
0100
0000
,  // measure 18
0220
0000
0330
0000
0010
0001
0100
0000
,  // measure 19
0010
1000
0001
0010
0200
1000
1300
0000
,  // measure 20
1001
0000
0000
0001
0000
0000
0100
0000
0000
0001
0000
0000
1000
0000
0100
0000
,  // measure 21
1000
0100
0001
0100
1000
0000
1001
0000
,  // measure 22
0001
0000
0010
0000
0001
0000
1000
0010
0000
1000
0000
0010
0000
0000
0100
0000
,  // measure 23
0220
0330
0000
0000
0000
0000
0000
0000
0000
0000
0000
0000
0000
0000
0000
0000
1001
0000
0000
0000
0000
0000
0000
0000
0000
0000
0000
0000
0000
0000
0000
0000
0001
0000
0000
0000
0000
0000
0000
0000
1000
0000
0000
0000
0000
0000
0000
0000
0000
0000
0000
0000
0000
0000
0000
0000
0001
0000
0000
0000
0000
0000
0000
0000
,  // measure 24
0010
0100
1000
0000
0001
1000
0000
1000
,  // measure 25
0010
0100
0001
0000
1000
0100
0001
0100
,  // measure 26
1000
0001
0100
1000
0100
0001
1000
0000
,  // measure 27
1001
0000
0120
0000
1030
0100
0010
0100
,  // measure 28
1000
0000
0000
0000
0001
0000
0000
0010
0000
0000
0001
0000
0100
0000
0010
0000
,  // measure 29
1000
0000
0000
0000
1000
0001
1000
0000
0000
0001
0010
0001
0000
0000
0000
1000
,  // measure 30
0100
1000
0000
0000
0001
0100
0010
0000
0000
0100
0010
1000
0000
0001
1000
0001
,  // measure 31
0000
1000
0001
0000
1001
0000
0000
0000
1000
0000
0100
0000
0001
0000
0100
0000
,  // measure 32
1000
0000
0000
0000
0001
0000
0000
0100
0001
0000
1000
0000
0100
0000
0010
0000
,  // measure 33
0001
0000
0000
0000
1000
0000
0000
0000
0010
0000
1000
0000
0100
0000
0020
0100
,  // measure 34
0000
0000
0100
0000
0000
0100
0000
0000
0100
0000
0000
0100
0000
0000
0130
0000
,  // measure 35
0010
0001
1001
0000
1000
0010
0100
0000
,  // measure 36
0001
0000
1000
0000
0001
0010
0100
0000
,  // measure 37
0010
0000
0002
0000
1003
0010
0100
0000
,  // measure 38
1001
0000
0000
0000
0001
0000
0010
0000
0100
0000
1000
0002
0000
0000
0000
0000
,  // measure 39
0013
0000
1001
0000
1000
0010
0100
0000
,  // measure 40
0010
1000
1002
0000
0013
0000
0220
0000
,  // measure 41
0330
0000
0000
0000
1001
0000
0000
1000
0100
0000
0010
0000
0001
0000
0000
0001
,  // measure 42
0100
0000
0010
0000
1000
0000
0000
1000
0001
0000
1000
0000
0010
0000
0100
0000
,  // measure 43
0001
0000
0010
0000
0100
0000
0000
0100
0010
0000
0001
0000
1000
0000
0000
1000
,  // measure 44
0001
0100
0020
0000
2030
0000
3200
0000
,  // measure 45
0320
0000
0000
0000
0031
0000
0000
0010
0001
0000
1000
0000
0010
0000
0000
0100
,  // measure 46
0001
0000
1000
0000
0001
0000
0000
1000
0100
0000
0010
0000
0001
0000
1000
0000
,  // measure 47
0010
0100
0000
0000
0110
0000
0000
0010
1000
0000
0001
0000
1000
0000
0000
0000
,  // measure 48
0110
1001
0110
0000
;

//---------------dance-single - Oni-91----------------
#NOTES:
     dance-single:
     :
     Medium:
     4:
     0.268007,0.280581,0.256200,0.214878,0.024794,227.000000,196.000000,31.000000,26.000000,0.000000,0.000000,0.268007,0.280581,0.256200,0.214878,0.024794,227.000000,196.000000,31.000000,26.000000,0.000000,0.000000:
// measure 0
1002
0000
0000
0000
0013
0000
0100
0010
,  // measure 1
0200
0000
0310
0001
,  // measure 2
1000
0010
0100
0000
0010
0000
1000
0000
,  // measure 3
2002
0000
3003
0000
,  // measure 4
0110
0000
0100
0000
0010
0000
1000
0001
,  // measure 5
1000
0001
0010
0100
,  // measure 6
1001
0000
0001
0100
0000
0100
0010
0000
,  // measure 7
0110
0000
0000
0000
0000
0110
0000
0000
0000
0000
0000
1001
0000
0000
0000
0000
,  // measure 8
1001
0000
0000
0001
0000
1000
0100
0000
,  // measure 9
1000
0001
0100
0010
,  // measure 10
0100
0001
2000
3000
,  // measure 11
0001
1000
0200
0300
,  // measure 12
0010
0000
0001
1000
0001
0000
0100
0000
,  // measure 13
0010
1000
0200
0300
,  // measure 14
1001
0000
0001
1000
0001
0000
1000
0000
,  // measure 15
0110
0000
0000
0000
0000
0110
0000
0000
0000
0000
0000
1001
0000
0000
0000
0000
,  // measure 16
2002
0000
3003
0000
0001
1000
0001
0000
,  // measure 17
1000
0100
0010
0000
,  // measure 18
2002
0000
3003
0000
0001
0100
0001
0000
,  // measure 19
0100
0000
0010
0100
0010
0000
0000
0000
,  // measure 20
2002
0000
3003
0000
0001
1000
0001
0000
,  // measure 21
1000
0100
0010
0100
,  // measure 22
1000
0010
1000
0000
0001
0100
0001
0000
,  // measure 23
0220
0330
0000
0000
0000
0000
0000
0000
0000
0000
0000
0000
0000
0000
0000
0000
1001
0000
0000
0000
0000
0000
0000
0000
0000
0000
0000
0000
0000
0000
0000
0000
0000
0000
0000
0000
0000
0000
0000
0000
1000
0000
0000
0000
0000
0000
0000
0000
0000
0000
0000
0000
0000
0000
0000
0000
0000
0000
0000
0000
0000
0000
0000
0000
,  // measure 24
0001
0000
1000
0000
0000
0100
0000
0000
,  // measure 25
0010
0000
0001
0000
0000
0010
0000
0001
,  // measure 26
0010
0100
1000
0001
,  // measure 27
0100
0000
0110
0000
0000
0010
0000
1000
,  // measure 28
0001
0000
1000
0000
0000
0001
0000
0010
,  // measure 29
0001
0000
0000
0000
1001
0000
0000
0000
0000
1001
0000
0000
0000
0000
0000
1001
,  // measure 30
0000
0220
0000
0000
,  // measure 31
0330
0000
1001
0000
0001
0010
0000
0001
,  // measure 32
0010
0100
0001
0100
,  // measure 33
1000
0000
0001
0000
1000
0010
0000
1000
,  // measure 34
0010
0000
0100
0010
1000
0000
0001
1000
,  // measure 35
0100
0110
0010
0001
,  // measure 36
0010
0100
1000
0001
,  // measure 37
0100
1000
0100
0010
,  // measure 38
0100
0000
0001
1000
0100
1000
0200
0000
,  // measure 39
0300
0110
0010
0001
,  // measure 40
1000
0220
0330
2002
,  // measure 41
3003
0000
1001
0000
0001
0100
0001
0000
,  // measure 42
1000
0010
1000
0000
0001
0000
0010
0000
,  // measure 43
0100
0000
1000
0000
0001
0010
0001
0000
,  // measure 44
1000
0100
2000
0000
3200
0000
0320
0000
,  // measure 45
0032
0000
1003
0000
0001
0100
0001
0000
,  // measure 46
1000
0010
1000
0000
0010
0000
0100
0000
,  // measure 47
0001
0000
1000
0000
0001
0010
0001
0000
,  // measure 48
1001
0110
1001
0000
;

//---------------dance-single - Oni-91----------------
#NOTES:
     dance-single:
     :
     Easy:
     2:
     0.165291,0.220456,0.107439,0.049587,0.000000,140.000000,127.000000,13.000000,6.000000,0.000000,0.000000,0.165291,0.220456,0.107439,0.049587,0.000000,140.000000,127.000000,13.000000,6.000000,0.000000,0.000000:
// measure 0
1001
0000
0000
1000
,  // measure 1
0001
0000
0000
0001
,  // measure 2
0100
0000
0010
0100
,  // measure 3
0010
0000
0000
1000
,  // measure 4
1001
0000
0000
0001
,  // measure 5
1000
0000
0001
1000
,  // measure 6
0001
0000
1000
0000
,  // measure 7
0100
0100
0100
0000
,  // measure 8
1001
0000
0000
1000
,  // measure 9
0001
0000
0100
0000
,  // measure 10
0010
0100
0010
0000
,  // measure 11
1000
0001
1000
0000
,  // measure 12
0001
0000
0000
1000
,  // measure 13
0100
0000
0010
0100
,  // measure 14
0010
0100
0010
0000
,  // measure 15
0001
0001
0001
0000
,  // measure 16
2001
0000
0001
0000
,  // measure 17
0001
0001
3001
0000
,  // measure 18
1002
0000
1000
0000
,  // measure 19
1000
1000
1003
0000
,  // measure 20
1000
0000
0010
0000
,  // measure 21
0100
0001
0100
0000
,  // measure 22
0001
0000
0010
0000
,  // measure 23
2002
3003
0000
0000
0000
0000
0000
0000
0000
0000
0000
0000
0000
0000
0000
0000
1001
0000
0000
0000
0000
0000
0000
0000
0000
0000
0000
0000
0000
0000
0000
0000
0000
0000
0000
0000
0000
0000
0000
0000
0000
0000
0000
0000
0000
0000
0000
0000
0000
0000
0000
0000
0000
0000
0000
0000
0000
0000
0000
0000
0000
0000
0000
0000
,  // measure 24
0001
0100
0000
0000
,  // measure 25
0100
0010
0000
0000
,  // measure 26
0010
1000
0000
0001
,  // measure 27
1000
0001
0000
1000
,  // measure 28
0000
0001
0000
0010
,  // measure 29
0001
0010
0010
0010
,  // measure 30
0000
0100
0100
0100
,  // measure 31
0000
1001
0000
0001
,  // measure 32
0000
1000
0001
1000
,  // measure 33
0000
0010
0000
0100
,  // measure 34
0000
0010
0100
0001
,  // measure 35
0000
1000
0000
0100
,  // measure 36
0000
0010
0001
0010
,  // measure 37
0000
0001
0000
0100
,  // measure 38
0000
0010
1000
0010
,  // measure 39
1000
0001
0000
1000
,  // measure 40
0000
2002
0000
0000
,  // measure 41
3003
1001
0000
0001
,  // measure 42
0100
0001
0000
1000
,  // measure 43
0010
1000
0000
0001
,  // measure 44
1000
0001
0001
1000
,  // measure 45
1000
0001
0000
0010
,  // measure 46
0001
0100
0000
0010
,  // measure 47
1000
0100
1000
0001
,  // measure 48
1001
1001
1001
0000
;

//---------------dance-single - Oni-91----------------
#NOTES:
     dance-single:
     :
     Beginner:
     1:
     0.106258,0.140290,0.107439,0.016529,0.000000,90.000000,77.000000,13.000000,2.000000,0.000000,0.000000,0.106258,0.140290,0.107439,0.016529,0.000000,90.000000,77.000000,13.000000,2.000000,0.000000,0.000000:
// measure 0
1001
0000
0000
0000
,  // measure 1
0001
0000
0000
0000
,  // measure 2
1000
0000
0000
0000
,  // measure 3
0100
0000
0000
0010
,  // measure 4
0010
0000
0000
0000
,  // measure 5
0100
0000
0010
0000
,  // measure 6
0100
0000
1000
0000
,  // measure 7
1001
0000
0000
0000
,  // measure 8
0001
0000
0000
0000
,  // measure 9
0100
0000
0000
0000
,  // measure 10
0010
0000
0000
0000
,  // measure 11
1000
0000
0000
0001
,  // measure 12
0001
0000
0000
0000
,  // measure 13
1000
0000
0000
0000
,  // measure 14
0100
0000
0010
0000
,  // measure 15
0110
0000
0000
0000
,  // measure 16
1001
0000
0000
0000
,  // measure 17
0001
0000
0100
0000
,  // measure 18
0001
0000
0000
0000
,  // measure 19
1000
0000
0100
0000
,  // measure 20
1000
0000
0000
0000
,  // measure 21
0001
0000
0010
0000
,  // measure 22
0001
0000
0000
0000
,  // measure 23
2002
3003
0000
0000
0000
0000
0000
0000
0000
0000
0000
0000
0000
0000
0000
0000
1001
0000
0000
0000
0000
0000
0000
0000
0000
0000
0000
0000
0000
0000
0000
0000
0000
0000
0000
0000
0000
0000
0000
0000
0000
0000
0000
0000
0000
0000
0000
0000
0000
0000
0000
0000
0000
0000
0000
0000
0000
0000
0000
0000
0000
0000
0000
0000
,  // measure 24
0000
1000
0000
0000
,  // measure 25
0000
0001
0000
0000
,  // measure 26
0000
0100
0000
0000
,  // measure 27
0000
0010
0000
1000
,  // measure 28
0000
0010
0000
1000
,  // measure 29
0000
1001
0000
0000
,  // measure 30
0000
0110
0000
0000
,  // measure 31
0000
1001
0000
0000
,  // measure 32
0000
0001
0000
1000
,  // measure 33
0000
0100
0000
0000
,  // measure 34
0000
0010
0000
0100
,  // measure 35
0000
0010
0000
0010
,  // measure 36
0000
0100
0000
0100
,  // measure 37
0000
1000
0000
1000
,  // measure 38
0000
0001
0000
0001
,  // measure 39
0000
1000
0000
0001
,  // measure 40
0000
1001
0000
0000
,  // measure 41
0000
0110
0000
0010
,  // measure 42
0000
0001
0000
1000
,  // measure 43
1000
1000
0000
0001
,  // measure 44
0000
1001
0000
0000
,  // measure 45
0000
0110
0000
0100
,  // measure 46
0000
0001
0000
1000
,  // measure 47
1000
1000
0000
0001
,  // measure 48
0001
0001
0001
0000
;
