#TITLE:Ride On Time;
#SUBTITLE:;
#ARTIST:Black Box;
#TITLETRANSLIT:;
#SUBTITLETRANSLIT:;
#ARTISTTRANSLIT:;
#GENRE:;
#CREDIT:;
#BANNER:Ride On Time.png;
#BACKGROUND:Ride On Time-bg.png;
#LYRICSPATH:;
#CDTITLE:;
#MUSIC:Ride On Time.mp3;
#OFFSET:-8.080000;
#SAMPLESTART:60.579998;
#SAMPLELENGTH:16.150000;
#SELECTABLE:YES;
#DISPLAYBPM:119.000000;
#BPMS:0.000000=118.851997
;
#STOPS:
;
#BGCHANGES:;
#KEYSOUNDS:;
#ATTACKS:;

//---------------dance-single - Oni-91----------------
#NOTES:
     dance-single:
     :
     Hard:
     7:
     0.315676,0.350021,0.079550,0.291684,0.269587,250.000000,241.000000,9.000000,33.000000,0.000000,0.000000,0.315676,0.350021,0.079550,0.291684,0.269587,250.000000,241.000000,9.000000,33.000000,0.000000,0.000000:
// measure 0
2000
0001
3200
0001
,  // measure 1
0320
0100
0032
0100
,  // measure 2
2003
0010
0001
0100
,  // measure 3
3002
0000
0010
0000
1000
0000
0100
0100
,  // measure 4
0200
0000
0000
0000
,  // measure 5
0000
0000
0000
0303
,  // measure 6
0001
0000
0000
0000
1000
0000
0000
0000
0001
0000
0000
1000
0000
0000
1001
0000
,  // measure 7
0000
0000
0001
0000
0010
0000
0100
0000
1000
0000
0100
0000
0000
0010
0000
0000
,  // measure 8
0100
0000
0000
0000
0010
0000
0000
0000
0100
0000
0000
0010
0000
0000
0110
0000
,  // measure 9
0000
0000
0001
0000
0001
0000
1000
0000
1000
0000
0010
0000
0100
0010
0000
0000
,  // measure 10
1000
0000
0000
0000
0001
0000
0000
1000
0100
0000
0000
0010
0000
0000
0001
0000
,  // measure 11
1000
0000
0010
0000
0100
0000
0001
0000
1000
0000
0100
0000
0000
0010
0000
0001
,  // measure 12
0010
0000
0000
0000
0100
0000
0000
1000
0001
0000
0000
0100
0000
0000
0010
0000
,  // measure 13
1000
0000
0100
0000
0001
0000
0100
0000
1000
0000
0000
0001
1000
0000
0001
1000
,  // measure 14
0200
0000
0010
0000
1300
0000
0001
0100
,  // measure 15
0020
0000
0001
0000
1030
0001
1000
0100
,  // measure 16
2000
0000
0010
0000
3002
0023
0230
2300
,  // measure 17
3002
0000
0000
0000
1000
0000
0000
1000
0003
0000
1000
0000
0100
0000
1000
0000
,  // measure 18
0001
0000
0010
0001
0000
0000
1000
0000
0100
1000
0000
0000
0001
0000
0100
0002
,  // measure 19
0000
0000
1000
0000
0000
1000
0000
0000
2000
0000
0000
0000
3003
0000
0000
0000
,  // measure 20
1000
0000
1000
0100
0000
0000
0100
0000
0100
0010
0000
0000
0010
0000
0010
0200
,  // measure 21
0000
2000
0000
0000
0000
0000
3300
0000
,  // measure 22
0001
0000
1000
0001
0000
0000
0100
0000
0010
0100
0000
0000
0001
0000
1000
0002
,  // measure 23
0000
0000
0010
0000
0000
0010
0000
0000
0020
0000
0000
0000
0033
0000
0000
0000
,  // measure 24
0001
1000
0001
1000
0000
0000
0010
1000
0010
1000
0000
0000
0100
1000
0100
1000
,  // measure 25
0200
0001
2000
3300
,  // measure 26
1001
0000
0000
0000
0101
0000
0000
0000
0010
0000
0000
1000
0000
0000
0001
0000
,  // measure 27
0000
0000
1000
0000
0100
0000
0010
0000
0100
0000
0010
0000
0001
1000
0000
0000
,  // measure 28
0110
0000
0000
0000
1001
0000
0000
0000
1000
0000
0000
0001
0000
0000
0100
0000
,  // measure 29
0010
0000
0100
0000
0000
0001
0000
0000
1000
0000
0100
0000
0010
0000
0100
0000
,  // measure 30
1100
0000
0000
0000
0011
0000
0000
0000
0001
0000
0000
1000
0000
0000
0001
0000
,  // measure 31
1000
0000
0100
0000
0010
0000
0001
0000
0100
0000
0010
0000
1000
0001
0000
0000
,  // measure 32
0100
0000
0000
0001
0000
0000
0100
0000
0010
0000
0000
1000
0000
0000
0010
0000
,  // measure 33
1000
0000
0100
0000
0000
0010
0000
0000
0100
0000
0010
0000
0001
1000
0000
0001
,  // measure 34
1000
0000
0000
0100
0000
0000
0001
0000
0000
0100
0000
0000
1000
0000
0000
0002
,  // measure 35
0000
0000
1000
0000
0000
1000
0000
0000
2000
0000
0000
0000
3003
0000
0000
0000
,  // measure 36
1000
0000
0000
0010
0000
0000
0001
0000
0000
0010
0000
0000
0100
0000
0000
0020
,  // measure 37
0000
0200
0000
0330
,  // measure 38
0010
1000
0010
1000
0000
0000
0001
0100
0001
0100
0000
0000
0001
1000
0001
2000
,  // measure 39
0000
0000
0001
0000
0000
0001
0000
0000
0002
0000
0000
0000
3003
0000
0000
0000
,  // measure 40
1000
0100
1000
0100
0000
0000
0010
0001
0010
0001
0000
0000
1000
0001
1000
0002
,  // measure 41
0000
0010
0000
1000
0000
0200
0303
0100
,  // measure 42
0220
0000
0000
0000
,  // measure 43
0000
0000
0000
0000
,  // measure 44
0330
0000
0000
0000
;

//---------------dance-single - Oni-91----------------
#NOTES:
     dance-single:
     :
     Medium:
     5:
     0.255066,0.291684,0.088389,0.203295,0.048614,202.000000,192.000000,10.000000,23.000000,0.000000,0.000000,0.255066,0.291684,0.088389,0.203295,0.048614,202.000000,192.000000,10.000000,23.000000,0.000000,0.000000:
// measure 0
0002
0000
2003
0000
,  // measure 1
3200
0000
2300
0000
,  // measure 2
3002
0000
0000
0000
,  // measure 3
0203
0000
0000
0000
0000
0000
0000
0010
,  // measure 4
0020
0000
0000
0000
,  // measure 5
0000
0000
0000
0330
,  // measure 6
1000
0000
0000
0000
0001
0000
0000
0000
0100
0000
0000
0010
0000
0000
0100
0000
,  // measure 7
0010
1000
0100
0010
,  // measure 8
0100
0000
0000
0000
1000
0000
0000
0000
0001
0000
0000
0010
0000
0000
0001
0000
,  // measure 9
1000
0000
0001
0000
0100
0000
0010
1000
,  // measure 10
0100
0000
0000
0000
0001
0000
0000
0000
0100
0000
0000
1000
0000
0000
0100
0000
,  // measure 11
1000
0000
0001
0000
0100
0001
0100
0000
,  // measure 12
0010
0000
0000
0000
0100
0000
0000
0000
0001
0000
0000
1000
0000
0000
0100
0000
,  // measure 13
0001
0000
0100
0000
1000
0100
0010
0100
,  // measure 14
2000
0000
0010
0000
3001
0010
0100
0000
,  // measure 15
0020
0000
0001
0000
0130
1000
0001
0000
,  // measure 16
0200
0000
0010
0000
0301
1000
0100
0010
,  // measure 17
0002
0000
0010
0000
1003
0001
1000
0000
,  // measure 18
0001
0100
0000
0100
0010
0000
0010
1000
,  // measure 19
0002
0000
1000
0000
0000
1000
0000
0000
2000
0000
0000
0000
3003
0000
0000
0000
,  // measure 20
1000
0100
0000
0010
0001
0000
1000
0001
,  // measure 21
0200
1000
0010
0301
,  // measure 22
0100
0001
0000
1000
0100
0000
0010
0001
,  // measure 23
2000
0000
0001
0000
0000
0001
0000
0000
0002
0000
0000
0000
3003
0000
0000
0000
,  // measure 24
1000
0100
0000
0001
0100
0000
1000
0001
,  // measure 25
0100
1010
0202
0303
,  // measure 26
1001
0000
0000
0000
0101
0000
0000
0000
0100
0000
0000
0100
0000
0000
0100
0000
,  // measure 27
0010
0000
1000
0000
0001
1000
0100
0000
,  // measure 28
0010
0000
0000
0000
0100
0000
0000
0000
1000
0000
0000
1000
0000
0000
1000
0000
,  // measure 29
0001
0100
0001
0000
1000
0100
0010
0000
,  // measure 30
0100
0000
0000
0000
1000
0000
0000
0000
0010
0000
0000
0010
0000
0000
0010
0000
,  // measure 31
0100
0000
0001
0000
1000
0001
1000
0000
,  // measure 32
0001
0000
0000
0000
0010
0000
0000
0000
0001
0000
0000
1000
0000
0000
0001
0000
,  // measure 33
0100
0010
0000
0100
0010
0000
1001
0000
,  // measure 34
0001
1000
0000
0010
0100
0000
0001
1000
,  // measure 35
0200
0000
0010
0000
0000
0010
0000
0000
0310
0000
0000
0000
1001
0000
0000
0000
,  // measure 36
0001
0100
0000
0010
1000
0000
0001
1000
,  // measure 37
0200
0001
2000
3300
,  // measure 38
1000
0100
0000
1000
0010
0000
0100
0001
,  // measure 39
0100
0000
1100
0000
1000
0100
0001
0000
,  // measure 40
1000
0001
0000
0010
0100
0000
0010
0001
,  // measure 41
1000
0001
0000
0101
0000
0110
0000
0100
,  // measure 42
0220
0000
0000
0000
,  // measure 43
0000
0000
0000
0000
,  // measure 44
0330
0000
0000
0000
;

//---------------dance-single - Oni-91----------------
#NOTES:
     dance-single:
     :
     Easy:
     1:
     0.103542,0.136119,0.079550,0.017678,0.000000,82.000000,73.000000,9.000000,2.000000,0.000000,0.000000,0.103542,0.136119,0.079550,0.017678,0.000000,82.000000,73.000000,9.000000,2.000000,0.000000,0.000000:
// measure 0
1000
0000
0001
0000
,  // measure 1
1000
0000
0100
0000
,  // measure 2
0010
0000
0000
0000
,  // measure 3
0100
0000
0000
0000
,  // measure 4
2002
0000
0000
0000
,  // measure 5
3003
0000
0000
0000
,  // measure 6
1001
0000
0000
0000
,  // measure 7
0001
0000
0100
0000
,  // measure 8
0010
0000
0000
0000
,  // measure 9
0100
0000
0010
0010
,  // measure 10
0010
0000
0000
0000
,  // measure 11
1000
0000
0001
0000
,  // measure 12
0010
0000
0000
0000
,  // measure 13
0100
0000
1000
1000
,  // measure 14
1000
0000
1000
0000
,  // measure 15
0001
0000
0001
0000
,  // measure 16
0100
0000
0010
0000
,  // measure 17
0100
0000
0010
0000
,  // measure 18
1001
0000
0000
0000
,  // measure 19
1000
0000
0001
0000
,  // measure 20
0100
0000
0000
0000
,  // measure 21
0010
0000
0100
0000
,  // measure 22
0001
0000
0000
0000
,  // measure 23
1000
0000
0100
0000
,  // measure 24
0010
0000
0000
0000
,  // measure 25
0100
0000
0010
0000
,  // measure 26
0001
0001
0001
0000
,  // measure 27
1000
1000
1000
0000
,  // measure 28
0010
0000
0100
0000
,  // measure 29
0010
0000
0000
0000
,  // measure 30
0100
0100
0100
0000
,  // measure 31
0010
0010
0010
0000
,  // measure 32
1000
0000
0001
0000
,  // measure 33
1000
0000
0000
0000
,  // measure 34
1001
0000
0000
0000
,  // measure 35
0001
0000
0010
0000
,  // measure 36
0110
0000
0000
0000
,  // measure 37
0100
0000
1000
0000
,  // measure 38
1001
0000
0000
0000
,  // measure 39
0001
0000
0100
0000
,  // measure 40
0110
0000
0000
0000
,  // measure 41
0010
0000
1000
0000
,  // measure 42
1001
0000
0000
0000
,  // measure 43
0000
0000
0000
0000
,  // measure 44
1001
0000
0000
0000
;

//---------------dance-single - Oni-91----------------
#NOTES:
     dance-single:
     :
     Beginner:
     1:
     0.097228,0.116674,0.097228,0.000000,0.000000,77.000000,66.000000,11.000000,0.000000,0.000000,0.000000,0.097228,0.116674,0.097228,0.000000,0.000000,77.000000,66.000000,11.000000,0.000000,0.000000,0.000000:
// measure 0
1000
0000
0000
0000
,  // measure 1
0001
0000
0000
0000
,  // measure 2
0100
0000
0000
0000
,  // measure 3
0010
0000
0000
0000
,  // measure 4
1001
0000
0000
0000
,  // measure 5
0000
0000
0000
0000
,  // measure 6
1001
0000
0000
0000
,  // measure 7
1000
0000
0001
0000
,  // measure 8
1000
0000
0000
0000
,  // measure 9
0010
0000
0100
0000
,  // measure 10
0010
0000
0000
0000
,  // measure 11
1000
0000
0001
0000
,  // measure 12
1000
0000
0000
0000
,  // measure 13
0100
0000
1000
0000
,  // measure 14
1001
0000
0000
0000
,  // measure 15
0110
0000
0000
0000
,  // measure 16
0001
0000
1000
0000
,  // measure 17
0001
0000
1000
0000
,  // measure 18
1001
0000
0000
0000
,  // measure 19
1000
0000
0100
0000
,  // measure 20
0110
0000
0000
0000
,  // measure 21
0010
0000
0001
0000
,  // measure 22
1001
0000
0000
0000
,  // measure 23
1000
0000
0010
0000
,  // measure 24
0110
0000
0000
0000
,  // measure 25
0100
0000
0001
0000
,  // measure 26
1000
0000
1000
0000
,  // measure 27
0001
0000
0001
0000
,  // measure 28
0100
0000
0010
0000
,  // measure 29
0100
0000
0000
0000
,  // measure 30
0010
0000
0010
0000
,  // measure 31
0100
0000
0100
0000
,  // measure 32
0001
0000
1000
0000
,  // measure 33
0001
0000
0000
0000
,  // measure 34
1001
0000
0001
0000
,  // measure 35
1000
0000
0100
0000
,  // measure 36
0010
0000
0100
0000
,  // measure 37
0010
0000
0000
0000
,  // measure 38
0001
0000
1000
0000
,  // measure 39
0001
0000
0100
0000
,  // measure 40
0010
0000
1000
0000
,  // measure 41
0100
0000
0010
0000
,  // measure 42
1001
0000
0000
0000
,  // measure 43
0000
0000
0000
0000
,  // measure 44
1001
0000
0000
0000
;
