#TITLE:Probka;
#SUBTITLE:;
#ARTIST:Intars Busulis;
#TITLETRANSLIT:;
#SUBTITLETRANSLIT:;
#ARTISTTRANSLIT:;
#GENRE:;
#CREDIT:;
#BANNER:Probka.png;
#BACKGROUND:Probka-bg.png;
#LYRICSPATH:;
#CDTITLE:;
#MUSIC:Probka.mp3;
#OFFSET:-6.310000;
#SAMPLESTART:41.563000;
#SAMPLELENGTH:13.420000;
#SELECTABLE:YES;
#BPMS:0.000000=143.000000
;
#STOPS:
;
#BGCHANGES:;
#KEYSOUNDS:;
#ATTACKS:;

//---------------dance-single - Oni-91----------------
#NOTES:
     dance-single:
     :
     Hard:
     7:
     0.452757,0.515491,0.307326,0.307326,0.019208,330.000000,298.000000,32.000000,32.000000,0.000000,0.000000,0.452757,0.515491,0.307326,0.307326,0.019208,330.000000,298.000000,32.000000,32.000000,0.000000,0.000000:
// measure 0
1001
0000
1001
0000
0001
0010
0100
2000
,  // measure 1
0000
0010
0000
3001
0000
1000
0001
0000
,  // measure 2
1001
0000
1000
0100
0010
0002
0000
0010
,  // measure 3
0000
1003
0000
0100
0110
0000
1001
0000
,  // measure 4
1000
0010
1000
0200
0000
0001
0000
1300
,  // measure 5
0000
0001
0100
0000
1010
0000
0010
1000
,  // measure 6
0001
0020
0000
0001
0000
1030
0000
0010
,  // measure 7
0110
0000
0011
0000
0001
0100
0010
1000
,  // measure 8
0000
1010
0000
0101
0000
0001
0011
0000
,  // measure 9
1100
0000
0001
0010
0100
1000
0000
1100
,  // measure 10
0000
0011
0000
0001
1001
0000
0110
0000
,  // measure 11
0010
1000
0001
0002
0000
0010
0000
1003
,  // measure 12
0000
1000
1100
0000
0011
0000
0010
0001
,  // measure 13
0100
1000
0000
0100
0000
0001
0010
0001
,  // measure 14
1000
0000
0001
0010
0100
0010
0001
0100
,  // measure 15
0000
0010
1000
0100
0010
0100
1000
0000
,  // measure 16
1000
0001
0100
0010
1000
0001
0000
0001
,  // measure 17
0100
0010
1000
0100
1100
0000
0010
0001
,  // measure 18
0100
0010
1000
0001
0000
1000
0001
0100
,  // measure 19
1000
0100
0001
1000
0001
0000
0010
0001
,  // measure 20
2000
0002
0000
0000
0000
0000
3003
0000
,  // measure 21
1001
0000
0110
0000
0010
1000
0100
0010
,  // measure 22
0100
0000
0010
0000
0001
1000
0001
0000
,  // measure 23
1010
0000
0000
0000
0101
0000
0000
0100
0001
0000
1000
0000
0100
0000
0010
0000
,  // measure 24
0001
0000
1000
0000
0001
1000
0010
0000
,  // measure 25
0110
0000
1001
0000
0001
0010
1000
0010
,  // measure 26
0001
0000
1000
0000
0001
1000
0100
0000
,  // measure 27
0011
0000
0000
0000
1100
0000
0000
1000
0001
0000
0010
0000
0100
0000
1000
0000
,  // measure 28
1010
0000
0101
0000
0001
1000
1001
0000
,  // measure 29
2001
0010
3200
0010
,  // measure 30
2300
0010
3002
0023
,  // measure 31
0230
0010
2300
0001
,  // measure 32
3020
0100
2030
0010
,  // measure 33
3002
0100
0023
0100
,  // measure 34
0032
0100
2003
3200
,  // measure 35
0320
0001
0230
0001
,  // measure 36
2300
3020
0230
0302
,  // measure 37
1003
1000
1000
1000
,  // measure 38
0001
0000
0001
0000
0001
0001
0001
0000
,  // measure 39
0100
0010
0100
0010
,  // measure 40
1000
0000
0001
0000
1000
1000
1000
0000
,  // measure 41
0001
0010
0100
1000
,  // measure 42
0100
0000
0010
0000
0001
0001
0001
0000
,  // measure 43
1000
0010
0001
0010
,  // measure 44
1000
0001
1000
0001
0100
0100
0100
0000
,  // measure 45
0001
1000
0100
0010
0100
1000
0001
0100
,  // measure 46
0010
1000
0001
1000
0100
0100
0100
0000
,  // measure 47
0010
0000
0001
0000
1000
0000
0000
0001
0100
0000
0010
0000
1000
0000
0100
0000
,  // measure 48
0001
0100
0010
0001
0100
0010
1000
0000
,  // measure 49
0001
0100
1000
0100
0010
1000
0100
0010
,  // measure 50
0001
0010
0100
0001
0100
0100
0100
0000
,  // measure 51
0001
0000
0100
0000
1000
0000
0000
0001
0100
0000
0010
0000
1000
0000
0100
0000
,  // measure 52
0010
0001
0100
1000
0001
0010
1000
0000
,  // measure 53
2002
0003
0020
0030
,  // measure 54
0002
0003
0010
0100
,  // measure 55
0002
0000
0000
0000
,  // measure 56
0000
0000
3003
0000
;

//---------------dance-single - Oni-91----------------
#NOTES:
     dance-single:
     :
     Beginner:
     1:
     0.141315,0.178153,0.057624,0.000000,0.000000,103.000000,97.000000,6.000000,0.000000,0.000000,0.000000,0.141315,0.178153,0.057624,0.000000,0.000000,103.000000,97.000000,6.000000,0.000000,0.000000,0.000000:
// measure 0
0001
0001
0000
0000
,  // measure 1
1000
0000
0001
0001
,  // measure 2
0001
0000
0000
0100
,  // measure 3
0000
0010
0010
0010
,  // measure 4
0000
0000
0001
0000
,  // measure 5
1000
1000
1000
0000
,  // measure 6
0000
0001
0000
0100
,  // measure 7
0100
0100
0000
0000
,  // measure 8
0010
0000
1000
1000
,  // measure 9
1000
0000
0000
0001
,  // measure 10
0000
0010
0010
0010
,  // measure 11
0000
0000
0100
0000
,  // measure 12
1000
1000
1000
0000
,  // measure 13
0001
0000
1000
0000
,  // measure 14
1001
0000
0001
0000
,  // measure 15
0100
0000
0000
0010
,  // measure 16
0000
1000
0000
0001
,  // measure 17
0000
0000
1000
0000
,  // measure 18
0100
0000
0010
0000
,  // measure 19
0000
0100
0000
1000
,  // measure 20
1000
0000
0000
0000
,  // measure 21
1001
0000
1000
0000
,  // measure 22
0100
0000
1000
0000
,  // measure 23
0001
0000
0001
0000
,  // measure 24
0100
0000
0001
0000
,  // measure 25
0100
0000
0010
0000
,  // measure 26
1000
0000
0001
0000
,  // measure 27
1000
0000
1000
0000
,  // measure 28
0001
0000
1000
0000
,  // measure 29
1001
0000
0000
0000
,  // measure 30
0001
0000
0000
0000
,  // measure 31
0100
0000
0000
0000
,  // measure 32
0010
0000
0000
0000
,  // measure 33
1000
0000
0000
0000
,  // measure 34
0100
0000
0000
0000
,  // measure 35
0010
0000
0000
0000
,  // measure 36
0100
0000
0000
0000
,  // measure 37
1000
0000
0000
0000
,  // measure 38
1000
0000
0001
0000
,  // measure 39
0100
0000
0000
0000
,  // measure 40
0100
0000
0001
0000
,  // measure 41
0010
0000
0000
0000
,  // measure 42
0010
0000
0001
0000
,  // measure 43
1000
0000
0010
0000
,  // measure 44
0110
0000
0000
0000
,  // measure 45
1001
0000
0001
0000
,  // measure 46
1000
0000
0001
0000
,  // measure 47
0010
0000
0100
0000
,  // measure 48
1000
0000
0100
0000
,  // measure 49
0010
0000
0100
0000
,  // measure 50
0010
0000
0100
0000
,  // measure 51
1000
0000
0001
0000
,  // measure 52
1000
0000
0001
0000
,  // measure 53
1001
0000
0000
0000
;

//---------------dance-single - Oni-91----------------
#NOTES:
     dance-single:
     :
     Easy:
     3:
     0.252446,0.290519,0.144059,0.096039,0.000000,184.000000,169.000000,15.000000,10.000000,0.000000,0.000000,0.252446,0.290519,0.144059,0.096039,0.000000,184.000000,169.000000,15.000000,10.000000,0.000000,0.000000:
// measure 0
1001
1001
0000
0000
,  // measure 1
0001
1000
0001
1000
,  // measure 2
1000
0000
0000
0001
,  // measure 3
0010
0100
0110
0110
,  // measure 4
0000
0000
0010
0001
,  // measure 5
1000
0001
0001
0000
,  // measure 6
0000
1000
0010
0100
,  // measure 7
0010
0010
0000
0000
,  // measure 8
0100
0001
1000
0100
,  // measure 9
0100
0000
0000
0010
,  // measure 10
0001
1000
1001
1001
,  // measure 11
0000
0000
0001
0100
,  // measure 12
0010
0110
0110
0000
,  // measure 13
0001
1000
0001
1000
,  // measure 14
1001
0000
0001
0100
,  // measure 15
1000
0100
0001
1000
,  // measure 16
1000
0000
0001
0010
,  // measure 17
1000
0010
0001
0100
,  // measure 18
0010
1000
0001
1000
,  // measure 19
0100
0010
0010
0000
,  // measure 20
0220
0000
0000
0330
,  // measure 21
1001
0001
0001
0001
,  // measure 22
1000
1000
1000
1000
,  // measure 23
0010
0100
0010
0100
,  // measure 24
0001
1000
0001
1000
,  // measure 25
0100
0100
0100
0100
,  // measure 26
0010
0010
0010
0010
,  // measure 27
0001
1000
0001
1000
,  // measure 28
0010
0100
0001
1000
,  // measure 29
1002
0000
0100
0000
,  // measure 30
1000
0000
0010
0010
,  // measure 31
0020
0000
0000
0000
,  // measure 32
0033
0000
0000
0000
,  // measure 33
2001
0000
0010
0000
,  // measure 34
0001
0000
0100
0100
,  // measure 35
0200
0000
0000
0000
,  // measure 36
3300
0000
0000
0000
,  // measure 37
0001
0001
0010
0010
,  // measure 38
0001
0010
0001
0010
,  // measure 39
0100
0100
1000
1000
,  // measure 40
0100
1000
0100
1000
,  // measure 41
0001
0001
1000
1000
,  // measure 42
0001
1000
0001
1000
,  // measure 43
0010
0100
0001
0010
,  // measure 44
2002
0000
0000
3003
,  // measure 45
0001
1000
0001
1000
,  // measure 46
0010
0100
0010
0100
,  // measure 47
0010
1000
0100
0010
,  // measure 48
0001
0100
0010
1000
,  // measure 49
0001
0010
0001
0010
,  // measure 50
0100
1000
0100
1000
,  // measure 51
0001
0010
1000
0010
,  // measure 52
0001
1000
0001
0100
,  // measure 53
0220
0000
0000
0000
,  // measure 54
0000
0000
0000
0000
,  // measure 55
0330
0000
0000
0000
;

//---------------dance-single - Oni-91----------------
#NOTES:
     dance-single:
     :
     Medium:
     5:
     0.360833,0.461229,0.297722,0.288118,0.000000,263.000000,232.000000,31.000000,30.000000,0.000000,0.000000,0.360833,0.461229,0.297722,0.288118,0.000000,263.000000,232.000000,31.000000,30.000000,0.000000,0.000000:
// measure 0
1001
0000
1001
0000
0001
0000
0100
0002
,  // measure 1
0000
1000
0000
1000
0000
1003
0001
0000
,  // measure 2
1000
0000
0100
0000
0010
0200
0000
0010
,  // measure 3
0000
0010
0000
0310
0110
0000
0110
0000
,  // measure 4
0010
0000
0001
2000
0000
0001
0000
0001
,  // measure 5
0000
3001
1000
0000
0001
0000
0100
0000
,  // measure 6
0010
2000
0000
0010
0000
0010
0000
3010
,  // measure 7
1010
0000
1010
0000
0001
0000
1000
0100
,  // measure 8
0000
0001
0000
0100
0000
1000
0001
0000
,  // measure 9
0100
0000
1000
0000
0100
0001
0000
1000
,  // measure 10
0000
0001
0000
1000
1001
0000
1001
0000
,  // measure 11
0001
0000
0010
0001
0000
1000
0000
0100
,  // measure 12
0000
1000
1100
0000
1100
0000
0100
0000
,  // measure 13
0010
0001
0000
0010
0000
0001
0000
1000
,  // measure 14
1001
0000
0001
0000
0100
0000
0001
2000
,  // measure 15
0000
0000
3100
0000
0010
0001
0100
0000
,  // measure 16
0010
0000
1000
0000
0001
0020
0000
0000
,  // measure 17
0031
0000
1000
0001
0100
0000
0010
0000
,  // measure 18
1000
0000
0010
0200
0000
0000
0301
0000
,  // measure 19
1000
0001
1000
0001
1000
0000
0001
0000
,  // measure 20
0020
0200
0000
0000
0000
0000
0330
0000
,  // measure 21
1001
0000
1001
0000
0001
1000
0001
0000
,  // measure 22
0110
0000
0110
0000
0100
0010
0100
0000
,  // measure 23
1001
1001
0001
0010
,  // measure 24
0110
0000
0110
0000
0010
0001
1000
0000
,  // measure 25
1001
0000
1001
0000
0001
0100
0001
0000
,  // measure 26
0101
0000
0101
0000
0100
0010
1000
0000
,  // measure 27
1010
0000
1010
0000
0010
1000
0100
0000
,  // measure 28
0110
0011
0101
0110
,  // measure 29
2002
3000
0203
0000
,  // measure 30
0320
0000
2030
3020
,  // measure 31
0230
0000
0302
0000
,  // measure 32
2003
0000
3200
0000
,  // measure 33
0320
0000
0032
0000
,  // measure 34
0203
0000
2300
3200
,  // measure 35
0302
0000
2003
0000
,  // measure 36
3200
0000
0320
0000
,  // measure 37
0130
0100
0100
0100
,  // measure 38
0100
0000
0100
0000
0100
0100
0100
0000
,  // measure 39
0010
0010
0010
0010
,  // measure 40
0010
0000
0010
0000
0010
0010
0010
0000
,  // measure 41
0001
0001
0001
0001
,  // measure 42
0001
0000
0001
0000
0001
0001
0001
0000
,  // measure 43
1000
1000
1000
1000
,  // measure 44
1000
0000
1000
0000
1000
1000
1000
0000
,  // measure 45
0001
0000
0100
0000
0001
0100
0010
0000
,  // measure 46
1000
0000
0100
0000
0010
0010
0010
0000
,  // measure 47
0001
0000
0100
0000
0010
1000
0001
0000
,  // measure 48
1000
0000
0001
0000
1000
1000
1000
0000
,  // measure 49
0001
0000
0100
0000
1000
0100
0001
0000
,  // measure 50
1000
0000
0001
0000
1000
1000
1000
0000
,  // measure 51
0001
0000
0010
0000
1000
0010
0001
0000
,  // measure 52
1000
0000
0010
0000
0100
0100
0100
0000
,  // measure 53
0210
0000
0010
0000
,  // measure 54
0010
0000
0010
0010
,  // measure 55
0020
0000
0000
0000
,  // measure 56
0000
0000
0330
0000
;
