#TITLE:PentaCube Gt.;
#SUBTITLE:(RX-Ver.S.P.L.);
#ARTIST:Masafumi Takada;
#TITLETRANSLIT:;
#SUBTITLETRANSLIT:;
#ARTISTTRANSLIT:;
#GENRE:;
#CREDIT:;
#BANNER:PentaCube Gt (RX-Ver SPL).png;
#BACKGROUND:PentaCube Gt (RX-Ver SPL)-bg.png;
#LYRICSPATH:;
#CDTITLE:;
#MUSIC:PentaCube Gt (RX-Ver SPL).mp3;
#OFFSET:-3.290000;
#SAMPLESTART:16.400000;
#SAMPLELENGTH:13.110000;
#SELECTABLE:YES;
#BPMS:0.000000=183.000000
;
#STOPS:
;
#BGCHANGES:;
#KEYSOUNDS:;
#ATTACKS:;

//---------------dance-single - Oni-91----------------
#NOTES:
     dance-single:
     :
     Hard:
     9:
     0.629470,0.630721,0.376681,0.262801,0.008760,503.000000,460.000000,43.000000,30.000000,0.000000,0.000000,0.629470,0.630721,0.376681,0.262801,0.008760,503.000000,460.000000,43.000000,30.000000,0.000000,0.000000:
// measure 0
0110
0000
0010
1000
0000
0001
0100
0001
,  // measure 1
1000
0000
0001
0000
0100
0010
0000
0100
,  // measure 2
0010
1000
0100
0000
0020
0000
0001
0000
,  // measure 3
0100
0000
0001
0001
0031
0000
2000
0000
,  // measure 4
0010
0000
0001
0000
0100
0100
3100
0000
,  // measure 5
1001
0000
0101
0000
0001
0100
1000
0100
,  // measure 6
0001
1000
0100
0000
0010
0001
0000
1000
,  // measure 7
0100
0010
0100
0000
1002
0000
0000
0100
,  // measure 8
0000
1000
1003
0000
0110
0000
2001
0000
,  // measure 9
0000
0010
0000
0001
3001
0000
0110
0000
,  // measure 10
0010
0001
1000
0100
0010
0100
1000
0000
,  // measure 11
0001
0100
0001
0000
1000
0010
0000
0100
,  // measure 12
0001
0010
0100
0000
0010
0000
0001
1000
,  // measure 13
0000
0001
1000
0000
0010
0000
0100
0000
,  // measure 14
0001
0010
0000
0100
1000
0000
0001
0000
,  // measure 15
0020
0000
1000
1000
0000
0001
0031
0010
,  // measure 16
0100
1000
0020
0000
0001
0001
0000
1000
,  // measure 17
1030
0010
1000
0001
1000
0000
0001
0010
,  // measure 18
0000
0100
1000
0100
0010
0001
1000
0001
,  // measure 19
1000
0000
0010
0000
0100
0000
0010
0000
1000
0000
0001
0000
1000
0001
1000
0001
,  // measure 20
2000
0000
0000
0010
0000
0000
0001
0000
,  // measure 21
3001
0000
1000
0010
0100
0001
0000
1000
,  // measure 22
0000
0001
0010
0000
0100
0000
0010
0001
,  // measure 23
0000
1000
1010
0000
0101
0000
0001
0000
,  // measure 24
1000
0100
0000
0010
0011
0000
1001
0000
,  // measure 25
1000
0010
0100
0001
0010
0001
1000
0000
,  // measure 26
0110
0000
0001
1000
0001
0100
0010
1000
,  // measure 27
0010
0000
0101
0000
1000
0100
0001
1000
,  // measure 28
0010
0001
1000
0001
0100
0000
0001
0100
,  // measure 29
1000
0001
0010
1000
0001
0010
0100
0010
,  // measure 30
0001
0000
1000
0010
0000
0100
0001
1000
,  // measure 31
0100
0010
0100
0000
0010
0100
0000
0010
,  // measure 32
0001
1000
0001
0100
0020
0000
0000
1000
,  // measure 33
0000
0130
1001
0210
,  // measure 34
0000
1000
0000
0000
0310
0000
1001
0000
,  // measure 35
0001
0000
0100
0010
0000
1000
0001
0000
,  // measure 36
1000
0000
0011
0000
0100
0010
0000
0001
,  // measure 37
1000
0000
0101
0000
0010
1000
0001
1000
,  // measure 38
0000
0001
0010
0000
1100
0000
0010
0001
,  // measure 39
0100
0010
0000
1000
0001
0000
0110
0000
,  // measure 40
0001
0100
0001
0100
0010
1000
0010
1000
,  // measure 41
0100
0000
0010
0001
0100
0001
1000
0010
,  // measure 42
0100
0001
1000
0000
0010
0100
0001
0010
,  // measure 43
0100
0010
0001
1000
0100
0000
0010
0100
,  // measure 44
1000
0100
1000
0010
0100
0001
1000
0100
,  // measure 45
0010
0001
1000
0100
0001
0100
1000
0010
,  // measure 46
0100
0000
0001
0100
1000
0100
0010
1000
,  // measure 47
0100
0010
0100
0000
1001
0000
1000
1010
,  // measure 48
0000
0001
0101
0000
0110
0000
1001
0000
,  // measure 49
1000
1100
0000
0010
0011
0000
1001
0000
,  // measure 50
0120
0000
0000
2030
0000
0000
3002
0000
,  // measure 51
0023
0000
0230
0000
0000
0320
0000
0000
,  // measure 52
0032
0000
2003
0000
3200
0000
0000
2300
,  // measure 53
0000
3020
0230
0302
,  // measure 54
0000
2003
0000
0000
0001
0001
3001
0000
,  // measure 55
1001
0000
1000
0100
0000
0010
0001
0000
,  // measure 56
0100
0000
0001
0000
1000
0010
0000
0100
,  // measure 57
0001
0000
1000
0000
0001
0010
0001
0100
,  // measure 58
0000
0010
1000
0100
1000
0000
0001
1000
,  // measure 59
0100
0010
0000
0100
1000
0001
0100
0100
,  // measure 60
0110
0000
0010
1000
0100
0010
0100
1000
,  // measure 61
0002
0000
0010
0000
1000
1000
0000
0100
,  // measure 62
0103
0000
0101
0000
2010
0000
0001
0001
,  // measure 63
0000
0100
3100
0000
1100
0000
1001
0000
,  // measure 64
0001
0100
0000
0010
1000
0100
0010
0000
,  // measure 65
1001
0000
0101
0000
0010
1000
0100
0010
,  // measure 66
0100
0010
0001
0000
1000
0010
0000
0100
,  // measure 67
0001
1000
0100
0000
0011
0000
0001
0100
,  // measure 68
0000
0010
1000
0000
1100
0000
1001
0000
,  // measure 69
0001
0010
0000
0100
1000
0000
1001
0000
,  // measure 70
1000
0100
0001
1000
0010
0100
1000
0001
,  // measure 71
0200
0000
1000
0000
0010
0010
0000
0001
,  // measure 72
0301
1000
0001
0010
0002
0000
0010
0010
,  // measure 73
0000
1000
1003
0001
1000
0100
0020
0000
,  // measure 74
1000
1000
0000
0001
0031
0000
1001
0000
,  // measure 75
1000
0010
0100
0010
1000
0100
0010
0100
,  // measure 76
0010
0001
1000
0001
0100
0010
1000
0100
,  // measure 77
0010
0001
0010
0001
1000
0010
0010
0100
,  // measure 78
0001
0001
1000
0100
1000
0001
0010
1000
,  // measure 79
1000
0010
0001
0001
0100
0010
2002
0000
,  // measure 80
3003
0000
0000
0000
;

//---------------dance-single - Oni-91----------------
#NOTES:
     dance-single:
     :
     Medium:
     6:
     0.473041,0.525601,0.262801,0.078840,0.000000,378.000000,348.000000,30.000000,9.000000,0.000000,0.000000,0.473041,0.525601,0.262801,0.078840,0.000000,378.000000,348.000000,30.000000,9.000000,0.000000,0.000000:
// measure 0
1001
0000
0000
0100
0000
0000
0010
0000
,  // measure 1
0100
0000
1000
0000
0000
0001
0000
0100
,  // measure 2
0001
0000
0100
0000
0010
0000
0000
1000
,  // measure 3
0000
0001
1000
0100
,  // measure 4
0000
0010
0000
0010
0100
0000
0010
0001
,  // measure 5
1000
0000
0001
0000
1000
0000
0001
0100
,  // measure 6
0001
1000
0010
1000
,  // measure 7
0100
1000
0100
0000
0010
0000
0000
0010
,  // measure 8
0000
0000
0010
0001
1000
0000
0001
0000
,  // measure 9
0000
0001
0000
0000
0001
1000
0010
0100
,  // measure 10
0001
0000
1000
0100
0000
0100
1000
0000
,  // measure 11
0001
0000
0010
0000
0100
0010
0000
0010
,  // measure 12
0100
0000
1000
0001
0100
0000
0000
0001
,  // measure 13
0000
0100
0001
0000
1000
0000
0100
0000
,  // measure 14
0000
1000
0000
0100
1000
0100
0010
0000
,  // measure 15
0001
0000
1000
0001
0000
1000
0001
0000
,  // measure 16
0100
0000
0010
0000
0100
0001
0000
0100
,  // measure 17
0001
1000
0100
0010
,  // measure 18
0100
1000
0001
0100
,  // measure 19
1000
0000
0100
0000
0001
0000
1000
0100
,  // measure 20
0001
0000
0000
0100
0000
0000
1000
0000
,  // measure 21
0001
0000
0100
0000
0000
0010
0000
0000
,  // measure 22
0100
0000
0001
0000
1000
0000
0001
0010
,  // measure 23
0000
0010
0001
0000
1000
0000
0100
0000
,  // measure 24
0010
0100
0000
0100
1000
0000
0001
0000
,  // measure 25
1000
0010
0100
0000
0001
0000
0100
0000
,  // measure 26
0001
0000
1000
0100
0010
0000
0100
0000
,  // measure 27
1000
0000
0001
0000
1000
0010
0100
0002
,  // measure 28
0000
0000
1000
0000
1003
0000
0001
0010
,  // measure 29
0100
2000
0000
0000
0001
0000
3001
0000
,  // measure 30
1000
0000
0001
0100
0000
0100
0001
0000
,  // measure 31
1000
0100
1000
0000
0001
0020
0000
0000
,  // measure 32
0130
0010
0100
0000
0010
0000
0001
1000
,  // measure 33
0000
1010
0101
1000
,  // measure 34
0001
0010
0000
0000
1100
0000
1001
0000
,  // measure 35
1000
0000
0000
0001
0000
0000
1010
0000
,  // measure 36
1001
0000
0011
0000
0000
0100
0000
0000
,  // measure 37
0110
0000
1001
0000
1000
0010
0100
0001
,  // measure 38
0000
0100
0001
0000
0101
0000
0001
0010
,  // measure 39
0100
1000
0000
0100
1000
0000
1100
0000
,  // measure 40
1001
0001
0010
0001
,  // measure 41
1000
0100
1000
0000
0100
0000
0010
0000
,  // measure 42
0100
0000
0010
0001
1000
0000
0001
0000
,  // measure 43
1000
0000
0010
0000
1000
0010
0100
0000
,  // measure 44
0001
0000
1000
0000
0100
0000
0010
0010
,  // measure 45
0010
0000
0001
1000
0001
0000
1000
0000
,  // measure 46
0010
1000
0100
0000
0010
0001
0010
0000
,  // measure 47
0100
0000
0010
0001
1000
0000
0000
1001
,  // measure 48
0000
0101
0101
0110
,  // measure 49
0000
1001
0000
0000
1100
0000
1010
0000
,  // measure 50
1002
0000
0000
1000
0000
0000
1000
0000
,  // measure 51
1000
0000
2003
0000
0000
0100
0000
0000
,  // measure 52
0100
0000
0100
0000
3200
0000
0000
0010
,  // measure 53
0000
0010
0010
0320
,  // measure 54
0000
0001
0000
0000
0001
0000
0001
0000
,  // measure 55
0031
0000
0000
1000
0000
0000
0001
0000
,  // measure 56
0100
0000
0010
0000
0000
0100
0000
0000
,  // measure 57
0010
0000
1000
0000
0100
0000
0000
0100
,  // measure 58
0000
0100
0010
0000
0001
0000
1000
0000
,  // measure 59
0000
0001
0000
0001
0100
0000
0010
0000
,  // measure 60
1000
0000
0001
0010
0100
0000
0001
0100
,  // measure 61
1000
0000
0001
0000
0000
1000
0000
0001
,  // measure 62
0100
0000
0001
0000
1000
0000
0000
0100
,  // measure 63
0000
0001
0100
0000
1000
0000
0001
0000
,  // measure 64
0000
1000
0000
0010
0100
0000
0001
0000
,  // measure 65
1000
0000
0010
0000
0100
0010
0100
0000
,  // measure 66
0001
1000
0001
0010
,  // measure 67
0100
0010
0001
0000
1000
0000
0001
0100
,  // measure 68
0000
0001
0100
0000
0010
0000
1000
0000
,  // measure 69
0100
1000
0000
0100
0010
0000
0001
0000
,  // measure 70
1000
0100
1000
0000
0001
0000
0100
0000
,  // measure 71
0001
0100
0001
0000
1000
0010
0000
0100
,  // measure 72
0001
0000
0100
0000
0010
0000
1000
0100
,  // measure 73
0000
0010
0001
0000
1000
0000
0001
0000
,  // measure 74
1000
0010
0000
0100
0010
0000
0100
0000
,  // measure 75
1001
0000
0000
0001
0000
1000
0100
0000
,  // measure 76
0010
0001
1000
0000
0000
0001
0000
1000
,  // measure 77
0010
0000
0100
0000
1010
0000
0000
0101
,  // measure 78
0000
0011
1100
1001
,  // measure 79
0000
0110
0000
0000
1001
0000
2002
0000
,  // measure 80
3003
0000
0000
0000
;

//---------------dance-single - Oni-91----------------
#NOTES:
     dance-single:
     :
     Easy:
     5:
     0.352904,0.490561,0.210240,0.122640,0.000000,282.000000,258.000000,24.000000,14.000000,0.000000,0.000000,0.352904,0.490561,0.210240,0.122640,0.000000,282.000000,258.000000,24.000000,14.000000,0.000000,0.000000:
// measure 0
1000
0100
0001
0100
,  // measure 1
1000
0000
0001
0000
0000
1000
0000
0000
,  // measure 2
0001
0000
0100
0000
0010
0000
0000
0010
,  // measure 3
0000
0010
1000
0100
,  // measure 4
0000
0100
0000
0000
0100
0000
0010
0000
,  // measure 5
0001
0010
0100
0010
,  // measure 6
0001
1000
0010
0100
,  // measure 7
0001
0000
1000
0000
0001
0000
0000
1000
,  // measure 8
0000
0001
1000
0100
,  // measure 9
0000
0100
0000
0000
0100
0000
0010
0000
,  // measure 10
1001
0100
0010
1000
,  // measure 11
0100
0000
1000
0000
0000
0100
0000
0000
,  // measure 12
1000
0000
0001
0000
0100
0000
0000
0001
,  // measure 13
0000
0100
0001
0010
,  // measure 14
0000
0001
0000
0000
0010
0000
0001
0000
,  // measure 15
1000
0100
0001
0100
,  // measure 16
1000
0001
0100
1000
,  // measure 17
0100
0001
1000
0100
,  // measure 18
0010
0001
0100
0010
,  // measure 19
1000
0100
1000
0001
,  // measure 20
2002
0000
0000
0000
,  // measure 21
3003
0001
0010
0100
,  // measure 22
0010
0000
0001
0000
1000
0000
0000
0001
,  // measure 23
0000
0100
0010
1000
,  // measure 24
0000
0100
0000
0000
0010
0000
0001
0000
,  // measure 25
1000
0010
0001
0010
,  // measure 26
0100
0001
0010
1000
,  // measure 27
0010
0000
0100
0000
0010
0000
0001
2000
,  // measure 28
0000
0001
3001
0010
,  // measure 29
1000
0002
0000
0000
1000
0000
1003
0000
,  // measure 30
0001
0000
0000
0100
0000
0000
1000
0000
,  // measure 31
0100
0000
0001
0000
0000
0010
0000
0000
,  // measure 32
1000
0000
0010
0000
0001
0000
0000
1000
,  // measure 33
0000
0100
0010
0001
,  // measure 34
0000
0100
0000
0000
0001
0000
1000
0000
,  // measure 35
1001
0000
0000
0001
0000
0000
1000
0000
,  // measure 36
0000
0000
0001
0000
0000
0100
0000
0000
,  // measure 37
0001
0000
1000
0000
0100
0000
0000
0100
,  // measure 38
0000
0100
0100
0010
,  // measure 39
0000
0010
0000
0000
0010
0000
0010
0000
,  // measure 40
0110
0100
1000
0100
,  // measure 41
0010
0001
0010
0001
,  // measure 42
1000
0001
0100
0010
,  // measure 43
1000
0100
1000
0001
,  // measure 44
0100
0010
0100
0001
,  // measure 45
1000
0100
0001
0100
,  // measure 46
1000
0001
0100
1000
,  // measure 47
0100
0000
0001
0000
1001
0000
0000
1001
,  // measure 48
0000
1001
1001
0110
,  // measure 49
0000
0110
0000
0000
0110
0000
0110
0000
,  // measure 50
2000
0000
0000
0001
0000
0000
0001
0000
,  // measure 51
0001
0000
3002
0000
0000
1000
0000
0000
,  // measure 52
1000
0000
1000
0000
2003
0000
0000
0001
,  // measure 53
0000
0001
0001
3002
,  // measure 54
0000
1000
0000
0000
1000
0000
1000
0000
,  // measure 55
2003
0000
0000
0000
,  // measure 56
0000
3020
0000
0000
,  // measure 57
0000
0000
0230
0000
,  // measure 58
0000
0000
0000
0302
,  // measure 59
0000
0000
0000
0000
,  // measure 60
1003
0100
1000
0001
,  // measure 61
0010
0100
0000
0000
,  // measure 62
0010
0000
0001
0000
1000
0000
0000
0001
,  // measure 63
0000
1000
0001
0100
,  // measure 64
0000
0010
0000
0000
0100
0000
0010
0000
,  // measure 65
1000
0100
1000
0001
,  // measure 66
0010
0001
0000
0000
,  // measure 67
1000
0000
0001
0000
0100
0000
0000
0110
,  // measure 68
0000
0010
1000
0001
,  // measure 69
0000
1001
0000
0000
1000
0000
0001
0000
,  // measure 70
0010
0100
0010
0001
,  // measure 71
1000
0000
0001
0000
0000
0001
0000
0000
,  // measure 72
0001
0000
1000
0000
0010
0000
0000
0010
,  // measure 73
0000
0010
1000
0100
,  // measure 74
0000
0100
0000
0000
0100
0000
0010
0000
,  // measure 75
1001
0000
0000
1000
,  // measure 76
0001
1001
0000
0000
,  // measure 77
0001
0000
0100
0000
0110
0000
0000
0110
,  // measure 78
0000
0110
0110
1001
,  // measure 79
0000
1001
0000
0000
1001
0000
2002
0000
,  // measure 80
3003
0000
0000
0000
;

//---------------dance-single - Oni-91----------------
#NOTES:
     dance-single:
     :
     Beginner:
     2:
     0.138909,0.278569,0.219000,0.000000,0.000000,111.000000,86.000000,25.000000,0.000000,0.000000,0.000000,0.138909,0.278569,0.219000,0.000000,0.000000,111.000000,86.000000,25.000000,0.000000,0.000000,0.000000:
// measure 0
1000
0000
0000
0000
,  // measure 1
0000
0100
0000
0000
,  // measure 2
0000
0000
0010
0000
,  // measure 3
0000
0000
0000
0001
,  // measure 4
0000
0000
0000
0000
,  // measure 5
1000
0000
0000
0001
,  // measure 6
0000
0001
0000
0000
,  // measure 7
1000
0000
1000
0000
,  // measure 8
0000
0010
0000
0010
,  // measure 9
0000
0000
0100
0000
,  // measure 10
0110
0000
0000
0000
,  // measure 11
0000
0010
0000
0000
,  // measure 12
0000
0000
1000
0000
,  // measure 13
0000
0000
0000
0001
,  // measure 14
0000
0000
0000
0000
,  // measure 15
1001
0000
0000
0001
,  // measure 16
0000
0001
0000
0000
,  // measure 17
1000
0000
1000
0000
,  // measure 18
0000
0100
0000
0100
,  // measure 19
0000
0000
0010
0010
,  // measure 20
0010
0000
0000
0000
,  // measure 21
0000
0001
0000
0000
,  // measure 22
1000
0000
0001
0000
,  // measure 23
0000
0000
0000
0100
,  // measure 24
0000
0000
0010
0000
,  // measure 25
1000
0000
0000
0000
,  // measure 26
0000
0001
0000
0000
,  // measure 27
1000
0000
0001
0000
,  // measure 28
0000
0000
0000
0010
,  // measure 29
0000
0000
0000
0000
,  // measure 30
1001
0000
0000
0000
,  // measure 31
0000
0001
0000
0000
,  // measure 32
0000
0000
1000
0000
,  // measure 33
0000
0000
0000
0010
,  // measure 34
0000
0000
0000
0000
,  // measure 35
0110
0000
0010
0000
,  // measure 36
0000
1000
0000
1000
,  // measure 37
0000
0000
0001
0000
,  // measure 38
0001
0000
0000
0100
,  // measure 39
0000
0100
0000
0100
,  // measure 40
0110
0000
0000
0000
,  // measure 41
0000
1001
0000
0000
,  // measure 42
0000
0000
0110
0000
,  // measure 43
0000
0000
0000
1001
,  // measure 44
0000
0000
0000
0000
,  // measure 45
1001
0000
0000
0000
,  // measure 46
0000
0110
0000
0000
,  // measure 47
0000
0000
1001
0000
,  // measure 48
0000
1001
0000
0110
,  // measure 49
0000
0000
0110
0000
,  // measure 50
1001
0000
0000
0000
,  // measure 51
0000
0000
0000
0000
,  // measure 52
0000
0000
0000
0000
,  // measure 53
0000
0000
0000
0000
,  // measure 54
0000
0000
0000
0000
,  // measure 55
0110
0000
0000
0000
,  // measure 56
0000
0000
0000
0000
,  // measure 57
0000
0000
0000
0000
,  // measure 58
0000
0000
0000
0000
,  // measure 59
0000
0000
0000
0000
,  // measure 60
1001
0000
0000
0000
,  // measure 61
0000
1000
0000
0000
,  // measure 62
0001
0000
0001
0000
,  // measure 63
0000
1000
0000
1000
,  // measure 64
0000
0000
0000
0000
,  // measure 65
0110
0000
0000
0000
,  // measure 66
0000
0001
0000
0000
,  // measure 67
0000
0000
1000
0000
,  // measure 68
0000
0001
0000
0001
,  // measure 69
0000
0000
1000
0000
,  // measure 70
1001
0000
0000
0000
,  // measure 71
0000
0001
0000
0000
,  // measure 72
0000
0100
0100
0000
,  // measure 73
0000
0010
0000
0010
,  // measure 74
0000
0000
1000
0000
,  // measure 75
1001
0000
0000
0000
,  // measure 76
0000
0110
0000
0000
,  // measure 77
0000
0000
1001
0000
,  // measure 78
0000
1001
0000
0110
,  // measure 79
0000
0000
0110
0000
;
