#TITLE:Parousia;
#SUBTITLE:;
#ARTIST:Xi;
#TITLETRANSLIT:;
#SUBTITLETRANSLIT:;
#ARTISTTRANSLIT:;
#GENRE:;
#CREDIT:;
#BANNER:Parousia.png;
#BACKGROUND:Parousia-bg.png;
#LYRICSPATH:;
#CDTITLE:;
#MUSIC:Parousia.mp3;
#OFFSET:-3.050000;
#SAMPLESTART:82.079994;
#SAMPLELENGTH:12.150000;
#SELECTABLE:YES;
#DISPLAYBPM:79.000000:158.000000;
#BPMS:0.000000=79.000000
,24.000000=158.000000
,40.000000=316.000000
,56.000000=158.000000
,120.000000=79.000000
,136.000000=158.000000
,168.000000=316.000000
,176.000000=158.000000
;
#STOPS:
;
#BGCHANGES:;
#KEYSOUNDS:;
#ATTACKS:;

//---------------dance-single - Oni-91----------------
#NOTES:
     dance-single:
     :
     Hard:
     9:
     0.527967,0.654459,0.489708,0.336675,0.221899,483.000000,419.000000,64.000000,44.000000,0.000000,0.000000,0.527967,0.654459,0.489708,0.336675,0.221899,483.000000,419.000000,64.000000,44.000000,0.000000,0.000000:
1002
0203
2300
3020
,
0032
0000
2000
0000
3003
0000
1000
0010
,
0210
0000
0000
0001
0302
0000
1003
0000
,
2002
0000
0000
3003
0110
0000
1010
0000
,
0001
0100
0001
0000
2000
0000
0000
0000
0010
0000
0000
0000
3001
0000
0000
0000
,
0010
0001
0100
0000
0020
0000
0000
0000
0100
0000
0000
0000
1000
0000
0130
0000
,
1001
0000
0001
0010
0100
1000
0010
0100
,
1001
0000
0000
0000
1000
0000
0010
0000
0100
0000
0001
0010
0001
0000
1000
0000
,
0001
0000
0100
0000
0010
0000
1000
0010
1000
0000
0001
0100
0002
0000
0003
0000
,
2002
0000
0000
3003
,
0220
0000
0000
0000
,
0000
0000
0000
0000
,
0000
0000
0000
0000
,
0330
0000
1001
1001
,
1001
0001
0202
0303
,
0001
0000
1000
0100
0000
0010
0001
0000
1000
0000
0001
0000
0100
0000
1000
0000
,
0100
0010
0100
0010
0100
0000
0001
0000
2000
0000
0000
0000
3001
0000
0010
0000
,
0100
0110
0000
0100
0010
0001
0100
0010
,
1001
0000
0000
0000
0000
0000
1000
0000
0000
0010
0000
0000
0101
0000
0000
0000
0000
0000
0001
0000
0010
0000
0001
0000
,
1000
0000
0001
0100
0000
0001
1000
0000
0001
0000
0010
0000
0100
0000
1000
0000
,
0100
0010
0100
1000
0100
0000
0010
0000
0002
0000
0000
0000
1003
0000
0000
0000
,
0010
1000
0100
0010
0100
0000
0010
0001
,
1001
0000
0000
0000
1000
0000
0010
0000
0100
0000
0001
0000
1000
0001
1000
0001
,
0100
0000
0010
0100
0001
0010
0100
1000
,
1100
1001
0000
0001
0101
0000
0100
0010
,
1000
0100
0001
1000
0010
0100
0010
0001
,
1001
0000
1000
0010
0110
0000
0010
1000
,
0100
0000
0000
0000
0000
0000
0010
0000
0000
0001
0000
0000
0000
0000
0000
0010
0000
0000
0001
0000
0000
0000
0000
0000
1000
0000
0000
0000
0000
0000
0000
0000
0010
0000
0000
0000
0000
0000
0000
0000
0100
0000
0000
0000
0000
0000
0000
0000
,
2002
0000
0000
0000
0000
0000
0000
0000
3003
0000
0000
0000
0010
0100
0010
0100
,
0020
0000
2000
3030
,
2002
0000
0003
0100
3200
0000
0301
0100
,
2000
0000
0000
3010
1000
0010
0100
0001
,
0020
0000
0000
0000
0000
0000
0000
0000
0000
0031
0000
0000
0002
0000
0000
0000
0000
0000
1003
0000
0001
0000
1000
0000
,
0002
0000
0000
1000
2003
0000
3001
0000
,
1000
0010
0001
0010
,
1000
0000
0100
0000
0010
0000
0001
0010
,
0100
0010
0001
1000
,
0010
0100
0001
1000
,
1001
1001
0000
1000
0100
0000
0110
0000
,
1001
1001
0000
0001
0100
0000
0110
0000
,
1001
0000
1001
0000
0000
0000
0000
0000
1001
0000
0000
0000
0001
1000
0001
0000
,
0220
0000
0000
0330
,
2002
0000
0000
0000
,
0000
0000
0000
0000
,
3003
1001
1010
0101
,
0110
0000
0000
0000
0010
0000
1000
0000
0001
0000
0010
0000
0001
1000
0001
1000
,
0001
0010
1000
0010
0001
0100
0110
0000
,
1001
0000
0010
1000
0001
0010
0100
1000
,
0200
0000
0010
0000
1300
0010
0100
0001
,
0101
0000
0001
0100
1000
0100
0001
1000
,
1100
0000
0000
0000
0000
0000
0100
0000
0000
0010
0000
0000
0011
0000
0000
0000
0101
0000
0000
0000
0110
0000
0000
0000
,
1001
0000
0000
0000
0001
0000
1000
0001
1000
0000
0000
0000
0010
0000
0100
0010
,
0100
0000
0010
0000
1000
0000
0100
0000
0010
0001
0000
0001
0200
0000
0000
0000
,
0310
0100
0010
0100
0010
0000
0000
0000
1010
0000
0000
0000
1000
0000
0001
0000
,
0010
0001
0010
0001
0010
0000
0000
0000
1001
0000
0000
0000
1000
0000
0010
0000
,
0100
0001
0100
0000
0000
0000
0010
1000
0001
1000
0001
0000
0000
0000
1000
0100
,
1000
0000
0100
0000
0010
0000
0011
0000
0101
0000
1010
0000
,
1100
0100
0010
0100
1000
0010
0100
0001
,
0010
0001
1000
0000
0001
0000
0100
0000
1000
0000
0100
0000
0010
0000
1000
0000
,
0001
0010
0001
0000
0100
0000
0010
0000
1000
0100
0010
0000
0001
0000
0100
0000
,
2002
0000
0000
0000
3003
0000
1000
0001
,
1001
0000
0001
0100
0020
0000
0130
0001
,
1000
0000
0100
1000
0000
0001
0010
0000
0001
1000
0001
0000
1000
0000
0010
0000
,
0100
0101
0000
0001
1000
0100
0010
0001
,
0101
1100
0101
1001
,
1000
0000
1000
0000
0001
0010
0001
0010
0100
0000
0100
0000
0010
0001
0010
0001
,
1000
0000
1000
0000
0010
1000
0010
1000
0001
0000
1000
0000
0100
0000
0010
0000
,
1000
0010
0001
0100
1000
0001
0010
1000
,
0100
0010
0011
0001
0101
0100
0110
0010
,
1000
0100
0010
0001
0100
0010
1000
0001
,
2002
0000
0000
0000
,
0000
0000
0000
0000
,
0000
0000
0000
0000
,
0000
0000
0000
0000
,
0000
0000
0000
3003
0000
0000
0000
0000
;

//---------------dance-single - Oni-91----------------
#NOTES:
     dance-single:
     :
     Medium:
     7:
     0.386957,0.483731,0.351978,0.390236,0.057388,354.000000,308.000000,46.000000,51.000000,0.000000,0.000000,0.386957,0.483731,0.351978,0.390236,0.057388,354.000000,308.000000,46.000000,51.000000,0.000000,0.000000:
1001
0001
0010
0100
,
0010
0000
0020
0000
0030
0000
0001
1000
,
0002
0003
2000
3010
,
0220
0330
0110
1001
,
1000
0100
0010
0000
0001
0000
1000
0000
,
0010
1000
0200
0000
0310
0000
0010
0001
,
2001
0001
0001
3001
,
0102
0100
0100
0103
,
0001
0100
0010
1000
0001
0010
0100
2000
,
0002
0000
0000
3003
,
0220
0000
0000
0000
,
0000
0000
0000
0000
,
0000
0000
0000
0000
,
0330
0000
0000
0000
,
2002
3003
0220
0330
,
0010
0000
0000
1000
0000
0000
0001
0000
1000
0000
0000
0000
0001
0000
0000
0000
,
1000
0100
0010
0000
0011
0000
1000
0000
,
0001
0100
0000
0010
1000
0001
1000
0100
,
0010
0000
2002
3003
,
0001
0000
0000
0100
0000
0000
0001
0000
1000
0000
0100
0000
0010
0000
0100
0000
,
1000
1000
2000
0000
0002
0000
3003
0000
,
0001
0100
0000
0010
1000
0000
0001
1000
,
2002
0000
3003
0000
0011
0000
0010
0001
,
0100
0000
0000
0100
0000
0000
0100
0000
0010
0000
0100
0000
0010
0000
1000
0000
,
0000
1001
0000
0000
0101
0000
0001
1000
,
0100
0000
0010
0000
0110
0000
0010
0001
,
1001
0000
1000
0010
0100
0000
0001
0010
,
0100
0000
0000
0000
0000
0000
0000
0000
0000
0010
0000
0000
0000
0000
0000
0000
0000
0000
0001
0000
0000
0000
0000
0000
1000
0000
0000
0000
0000
0000
0000
0000
0010
0000
0000
0000
0000
0000
0000
0000
0100
0000
0000
0000
0000
0000
0000
0000
,
2002
0000
0000
0000
0003
0000
0010
0010
,
0020
0000
3030
0000
,
2002
0000
3003
1000
0100
0000
0010
0001
,
0200
0000
0000
0310
0010
0100
0001
1000
,
0200
0000
0000
0000
0000
0000
0000
0000
0000
0010
0000
0000
0310
0000
0000
0000
0000
0000
0010
0000
0100
0000
0010
0000
,
0200
0000
0000
0010
0310
0000
1001
0000
,
2001
0001
0001
0001
,
0100
0100
0100
3100
,
1002
1000
1000
1000
,
0010
0010
0010
0013
,
2001
3001
0000
0001
0100
0000
0110
0000
,
1002
1003
0000
1000
0100
0000
0110
0000
,
0210
0310
0000
0000
1001
0000
0001
1000
,
2002
0000
0000
3003
,
0220
0000
0000
0000
,
0000
0000
0000
0000
,
0000
0000
0000
0330
,
2002
0000
3003
0000
0001
0100
0001
1000
,
0200
0001
0010
1000
,
0310
0000
0100
1000
0001
0000
1000
0001
,
0100
0000
0010
0000
0100
0001
0100
0001
,
1000
0000
1001
0000
0001
0010
0100
0010
,
0001
0000
0000
0000
0000
0000
1000
0000
0000
0010
0000
0000
0100
0000
0000
0000
0001
0000
0000
0000
1000
0000
0000
0000
,
1001
0000
0001
0100
1000
0000
1000
0100
,
0002
0000
0010
0000
1000
0000
0103
0001
,
1000
1000
1000
0000
0001
0010
0100
0010
,
0001
0001
0001
0000
1000
0001
1000
0100
,
0010
0010
0000
0100
1000
1000
0000
0010
,
0100
0000
0010
0000
0100
0000
0001
0000
1000
0000
0001
0000
,
1001
0101
1100
0101
,
1001
0001
0011
0010
,
0001
0010
0001
1000
0010
0000
0100
0010
,
2002
0000
0000
3003
,
2002
0000
3003
0000
1100
0000
1000
0100
,
0010
0000
0000
0001
0000
0000
0010
0000
0001
0000
1000
0000
0010
0000
0100
0000
,
0001
1000
0000
1000
0001
0000
1000
0010
,
0100
1100
0101
1001
,
0001
0010
0001
0010
0100
1000
0100
1000
,
0001
0100
0001
0100
0010
1000
0010
1000
,
0001
1000
0100
0010
0001
0100
0010
1000
,
0002
0010
1000
0100
,
2000
0000
0000
3003
,
0220
0000
0000
0000
,
0000
0000
0000
0000
,
0000
0000
0000
0000
,
0000
0000
0000
0000
,
0000
0000
0000
0330
0000
0000
0000
0000
;

//---------------dance-single - Oni-91----------------
#NOTES:
     dance-single:
     :
     Easy:
     5:
     0.267809,0.398366,0.359630,0.482057,0.000000,245.000000,198.000000,47.000000,63.000000,0.000000,0.000000,0.267809,0.398366,0.359630,0.482057,0.000000,245.000000,198.000000,47.000000,63.000000,0.000000,0.000000:
1000
0001
1000
0001
,
0100
0200
0300
0010
,
1000
0000
1000
0001
,
2002
0000
3003
0000
,
0001
0010
0100
1000
,
0100
0010
0001
1000
,
1001
0000
0001
0100
,
0110
0000
0010
1000
,
0001
1000
0100
0010
,
0220
0000
0000
0330
,
2002
0000
0000
0000
,
0000
0000
0000
0000
,
0000
0000
0000
0000
,
3003
0000
0000
0000
,
2002
3003
0220
0330
,
0010
1000
0100
0010
,
0100
0100
0200
0000
0020
0000
0330
0000
,
0001
0002
0000
0000
1000
2000
3003
0000
,
2002
3003
0220
0330
,
1000
1000
2000
0000
0002
0000
3003
0000
,
0001
2000
0002
0000
3003
0000
1000
0000
,
0001
0001
0000
0000
1001
0000
0110
0000
,
1001
0000
0101
0100
,
0010
1000
0100
0001
,
0100
0100
0000
0000
0110
0000
0000
0000
,
1001
0001
1000
0001
,
1001
0000
0001
0100
,
1000
0001
0010
1000
,
2002
0000
0000
3003
,
0220
0000
0000
0330
,
2002
3003
0001
1000
,
0200
0000
0300
0000
0010
0000
0001
0001
,
0002
0003
1000
0010
,
0100
0000
0010
1000
,
2002
0000
3003
0001
,
1000
0100
0010
0001
,
0200
0000
0300
0010
,
0100
0010
1000
0001
,
2002
3003
0001
0100
,
0220
0330
0010
1000
,
2002
3003
0220
0330
,
2002
0000
0000
3003
,
2002
0000
0000
0000
,
0000
0000
0000
0000
,
0000
0000
3003
0000
,
1001
0001
0010
0100
,
0010
0001
0100
0010
,
2000
0000
3020
0000
,
0230
0000
0301
0100
,
1001
0001
0010
0100
,
0110
0010
0001
1000
,
2002
3003
0220
0330
,
2002
0000
0000
3003
,
1000
1000
0001
0100
,
0010
0010
0100
0001
,
0010
0010
0000
0000
0100
0100
0000
0000
,
2002
0000
0000
3003
,
0110
0010
1000
0001
,
1000
0100
0001
0100
,
0110
0110
1001
1001
,
0220
0000
0000
0330
,
1001
0000
0110
0000
,
0001
1000
0100
0010
,
0100
0100
0000
0000
0010
0000
0100
0000
,
0010
0001
1000
0001
,
1001
0001
0101
0100
,
0110
0010
1010
1000
,
1001
0001
0010
0100
,
2000
0010
0001
0020
,
0000
0000
0000
3030
,
2002
0000
0000
0000
,
0000
0000
0000
0000
,
0000
0000
0000
0000
,
0000
0000
0000
0000
,
0000
0000
0000
3003
0000
0000
0000
0000
;

//---------------dance-single - Oni-91----------------
#NOTES:
     dance-single:
     :
     Beginner:
     3:
     0.151941,0.214247,0.175989,0.000000,0.000000,139.000000,116.000000,23.000000,0.000000,0.000000,0.000000,0.151941,0.214247,0.175989,0.000000,0.000000,139.000000,116.000000,23.000000,0.000000,0.000000,0.000000:
1000
0000
0001
0000
,
0100
0000
0000
0000
,
0010
0000
0100
0000
,
0001
0000
0000
0000
,
1000
0000
0001
0001
,
0001
0000
0000
0000
,
1001
0000
0000
0000
,
1001
0000
0000
0000
,
0110
0000
0000
0000
,
0110
0000
0000
0000
,
1001
0000
0000
0000
,
0000
0000
0000
0000
,
0000
0000
0000
0000
,
0000
0000
0000
0000
,
1001
0000
0000
0000
,
1000
0000
0100
0000
,
1000
0000
1000
0000
,
0001
0000
0100
0000
,
0110
0000
0000
0000
,
0010
0000
0100
0000
,
0001
0000
0001
0000
,
1000
0000
0100
0000
,
1001
0000
0000
0000
,
0001
0000
1000
0000
,
0001
0000
0000
0000
,
1000
0000
0100
0000
,
0110
0000
0000
0000
,
1000
0000
0001
0000
,
1001
0000
0000
0000
,
0110
0000
0000
0000
,
1001
0000
0001
0000
,
1000
0000
0100
0000
,
0010
0000
0001
0001
,
0001
0000
1000
0000
,
0001
0000
0001
0000
,
1000
0000
1000
0000
,
0100
0000
0100
0000
,
0010
0000
0010
0000
,
0110
0000
0000
0000
,
1001
0000
0000
0000
,
1001
0000
0110
0000
,
1001
0000
0000
0000
,
1001
0000
0000
0000
,
0000
0000
0000
0000
,
0000
0000
0000
0000
,
1001
0000
0000
0000
,
0001
0001
0001
0001
,
0001
0000
0100
0000
,
0010
0000
1000
0000
,
1001
0000
0001
0000
,
1000
0000
0010
0000
,
0010
0000
0100
0000
,
0010
0010
0010
0010
,
0010
0000
1000
1000
,
1000
0000
0001
0001
,
0001
0000
1000
0000
,
1001
0000
0000
0000
,
1000
0000
0001
0000
,
0010
0000
0100
0000
,
0010
0000
0100
0100
,
0100
0000
0000
0000
,
1001
0000
0000
0000
,
1000
0000
0001
0000
,
0100
0000
0000
0000
,
0010
0000
0100
0000
,
0001
0000
0001
0000
,
1000
0000
1000
0000
,
0001
0000
1000
0000
,
0001
0001
0001
0001
,
0000
0000
0000
0000
,
1001
0000
0000
0000
;

//---------------dance-single - Oni-91----------------
#NOTES:
     dance-single:
     :
     Challenge:
     10:
     0.773914,1.195099,0.650394,0.206596,0.784299,708.000000,623.000000,85.000000,27.000000,0.000000,0.000000,0.773914,1.195099,0.650394,0.206596,0.784299,708.000000,623.000000,85.000000,27.000000,0.000000,0.000000:
// measure 0
1002
0023
2030
3200
,  // measure 1
0320
0000
2000
0000
3030
0000
1000
0001
,  // measure 2
2002
0000
3003
0010
0210
0000
0301
0000
,  // measure 3
2002
0000
0000
0000
0000
0000
0000
0000
3003
0000
0000
0000
0000
0000
0000
0000
1100
0000
0000
0000
0000
0000
0000
0000
0010
0000
0001
0010
0001
0000
1000
0000
,  // measure 4
0001
0000
0100
0000
0010
0000
1000
0000
0100
0000
0000
0000
0010
0001
0100
0001
0100
0010
1000
0000
0001
0000
1000
0000
0100
0000
0010
0000
0100
0010
0100
0000
,  // measure 5
1000
0000
0100
0000
0010
0000
0001
0010
0001
0000
1000
0010
1000
0010
0100
0000
0001
0100
0010
0000
1000
0000
0100
0000
0010
0000
0100
0000
1000
0100
0010
0001
,  // measure 6
1000
0001
0010
0100
1000
0100
0010
0001
,  // measure 7
1001
0000
1000
0000
0010
0000
0100
0000
0001
0010
0001
0010
0100
1000
0100
1000
,  // measure 8
0001
0000
1000
0000
0001
0000
0100
0010
0100
0000
0010
1000
0001
1000
0100
0010
,  // measure 9
0001
0000
1000
0000
0010
0000
0100
0010
0000
0100
0010
1000
0100
0000
0010
0001
,  // measure 10
2002
0000
0000
0000
,  // measure 11
0000
0000
0000
0000
,  // measure 12
0000
0000
0000
0000
,  // measure 13
3003
0000
1010
0101
,  // measure 14
1001
0000
0000
0000
0000
0000
1000
0000
0000
0100
0000
0000
0010
0000
0001
0000
0100
0000
0010
0000
0100
0000
0001
0000
,  // measure 15
1000
0000
0010
1000
0000
0001
0100
0000
0001
0010
1000
0010
0001
0000
1000
0000
,  // measure 16
0010
0100
0010
0100
0001
0000
1000
0000
0200
0000
0000
0000
0300
0000
0000
0000
,  // measure 17
0011
1100
0000
1010
0101
1001
1000
0100
,  // measure 18
0110
0000
0000
0000
0000
0000
0000
0000
0000
0010
0000
0000
0001
0000
0000
0000
0000
0000
1000
0000
0000
0000
0000
0000
1001
0000
0000
0000
0000
0000
0000
0000
0000
0000
0000
0000
0001
0000
0000
0000
0100
0000
0000
0000
0010
0000
0000
0000
,  // measure 19
1000
0000
0000
1000
0100
0000
0010
0000
0001
0010
0100
0010
0001
0000
1000
0000
,  // measure 20
0010
1000
0100
0010
0001
0000
1000
0001
0100
0010
1000
0000
0001
0000
1000
0100
,  // measure 21
1000
0110
0001
0100
1010
0000
1001
0011
,  // measure 22
0110
0000
0000
0000
0100
0000
1000
0100
0010
0000
0100
0010
0001
0010
0100
1000
,  // measure 23
0100
0000
0010
0001
0100
0000
0010
1000
0001
0000
1000
0001
0100
0000
0010
0100
,  // measure 24
0001
1001
1000
0100
1002
0000
1003
0100
,  // measure 25
0011
0100
1000
0010
0101
0000
0110
1010
,  // measure 26
1001
0000
0000
0000
0000
0000
0001
0000
0000
0000
0000
0000
0010
0000
0000
0000
0000
0000
0100
0000
0000
0000
0000
0000
1000
0000
0000
0000
0000
0000
0100
0000
0000
0010
0000
0000
0100
0000
0000
0000
0010
0000
0000
0000
0001
0000
0000
0000
,  // measure 27
1000
0000
0000
0000
0000
0000
0010
0000
0000
0100
0000
0000
0000
0000
0000
0100
0000
0000
0001
0000
0000
0000
0000
0000
1000
0000
0000
0000
0100
0000
0000
0000
0010
0000
0000
0000
0001
0000
0000
0000
0000
0000
1000
0000
0000
0000
0000
0000
,  // measure 28
2002
0000
0000
0000
0000
0000
0000
0000
3003
0000
0000
0000
0001
0100
0010
1000
,  // measure 29
0002
0000
2000
3003
,  // measure 30
2002
0000
3000
0100
0203
0000
0310
1000
,  // measure 31
1001
0001
0010
1100
1001
0101
0110
1001
,  // measure 32
0001
0010
0100
1000
0100
0010
0001
0100
0010
1000
0010
0100
0001
0000
0000
0100
0000
0000
0010
0000
1000
0000
0001
0000
,  // measure 33
0010
0001
1000
0100
0010
0100
1000
0001
0100
0010
0100
0001
1000
0000
0000
0001
0000
0000
0101
0000
0000
1010
0000
0000
,  // measure 34
1001
0100
1000
0010
,  // measure 35
0001
0010
1000
0100
,  // measure 36
0001
0010
1000
0010
,  // measure 37
0001
0100
0010
1000
,  // measure 38
1001
1001
0100
0001
0011
0000
1100
0000
,  // measure 39
1001
1001
0010
1000
1100
0000
0011
0000
,  // measure 40
1001
0000
1001
0000
0001
0000
0100
0010
0100
0001
1000
0100
0010
0001
0100
0010
,  // measure 41
2000
0000
0000
3000
,  // measure 42
2002
0000
0000
0000
,  // measure 43
0000
0000
0000
0000
,  // measure 44
3003
0011
0101
1010
,  // measure 45
1100
0000
0100
0000
0010
0000
0001
1000
0010
0000
0100
0000
0001
1000
0100
0010
,  // measure 46
0100
0010
0100
0010
0001
0010
0001
0010
0001
0000
1000
0000
1001
0000
0001
0000
,  // measure 47
0101
0000
0100
0000
0010
0000
1000
0100
0010
0000
0100
0000
1000
0100
1000
0001
,  // measure 48
0100
0000
0010
0000
1000
0000
0001
0100
0001
0000
0010
0000
0001
0010
0100
0010
,  // measure 49
0001
0000
1000
0000
0010
0000
0100
0010
0100
0000
0001
0000
1000
0010
0100
0001
,  // measure 50
1000
0000
0000
0000
0000
0000
0100
0000
0000
0000
0000
0000
0010
0000
0000
0001
0000
0000
1000
0000
0000
0001
0000
0000
1100
0000
0000
0000
0000
0000
0000
0000
0011
0000
0000
0000
0000
0000
0000
0000
0101
0000
0000
0000
0000
0000
0000
0000
,  // measure 51
1001
0000
0001
0000
0100
0000
0010
1000
1010
0000
0010
0000
1000
0000
0001
0010
,  // measure 52
0011
0000
0100
0000
1010
0000
0100
0000
0010
0100
0001
0100
0010
1000
0001
1000
,  // measure 53
0001
0010
0100
1000
0100
0000
0010
0001
0010
0000
0001
0000
0100
0000
0010
0000
,  // measure 54
1000
0010
0100
0001
0100
0000
0001
0010
0100
0000
0010
0000
0001
0000
1000
0000
,  // measure 55
0010
0100
0001
0000
0010
0001
0100
0010
1000
0100
0010
0000
0001
0010
0100
0010
,  // measure 56
0011
0000
0110
0000
1100
0000
1001
0000
0101
0000
0110
0000
,  // measure 57
1001
0000
0001
0000
0010
0000
0100
0010
0001
0000
0100
0000
0010
1000
0100
0000
,  // measure 58
1000
0010
0100
0001
0010
0000
0001
0000
0010
0001
0100
0010
1000
0100
1000
0001
,  // measure 59
0100
0001
0100
0010
1000
0010
0100
0001
0010
0100
0010
0001
1000
0100
0010
0100
,  // measure 60
1000
0000
0001
0100
0000
0100
0001
1000
0100
0010
0001
0100
0010
0000
1010
0000
,  // measure 61
1001
0000
0001
0000
0100
0000
0010
0000
1001
0000
1000
0000
0010
0100
1000
0100
,  // measure 62
0010
0000
0100
0001
0000
0001
1000
0000
0001
0010
0100
1000
0001
0100
0010
1000
,  // measure 63
0001
0000
0110
0000
1000
0000
0100
0000
0010
0001
0000
0010
0100
1000
0010
0100
,  // measure 64
0001
1010
0101
0110
,  // measure 65
1001
0000
1001
0000
0001
0100
0010
1000
1010
0000
1010
0000
0001
0010
0100
1000
,  // measure 66
1100
0000
1100
0000
0100
0010
0001
0010
0100
1000
0010
0100
0001
0010
0100
0010
,  // measure 67
0001
0000
1000
0000
0001
0000
1000
0010
1000
0000
0001
0010
0001
0000
1000
0010
,  // measure 68
0100
0001
0010
1000
0010
0001
0100
0010
1000
0001
0010
0100
0010
0001
1000
0010
,  // measure 69
0100
0010
1000
0010
0100
0010
1000
0010
0100
0010
1000
0010
0100
0010
1000
0001
,  // measure 70
2002
0000
0000
0000
,  // measure 71
0000
0000
0000
0000
,  // measure 72
0000
0000
0000
0000
,  // measure 73
0000
0000
0000
0000
,  // measure 74
0000
0000
0000
3003
0000
0000
0000
0000
;
