#TITLE:Parousia;
#SUBTITLE:-LAST JUDGEMENT-;
#ARTIST:Xi;
#TITLETRANSLIT:;
#SUBTITLETRANSLIT:;
#ARTISTTRANSLIT:;
#CREDIT:;
#BANNER:Parousia -LAST JUDGEMENT-.png;
#BACKGROUND:Parousia -LAST JUDGEMENT--bg.png;
#LYRICSPATH:;
#CDTITLE:;
#MUSIC:Parousia -LAST JUDGEMENT-.mp3;
#OFFSET:-10.220;
#SAMPLESTART:76.600;
#SAMPLELENGTH:15.310;
#SELECTABLE:YES;
#BPMS:0.000=94.000,12.000=188.000,28.000=376.000,92.000=94.000,108.000=188.000,212.000=376.000,404.000=752.000,420.000=188.000,452.000=141.000,458.000=131.000,463.000=122.000,464.000=94.000;
#STOPS:;
#BGCHANGES:;

//---------------dance-single - ----------------
#NOTES:
     dance-single:
     :
     Hard:
     12:
     0.944,1.000,0.677,0.228,0.464: // measure 1
1000
0000
0010
0000
0110
0000
0100
0001
0010
0100
1000
0100
1100
0000
1000
0001
,  // measure 2
0100
0000
0010
0000
0101
0000
0001
0100
1000
0100
0001
1000
0010
0001
1000
0100
,  // measure 3
0010
0000
0100
0000
1001
0000
1000
0100
0001
0001
0100
1000
1001
0000
1000
0001
,  // measure 4
0101
0100
1000
0100
0001
0100
1000
0100
,  // measure 5
0010
1000
0100
0010
0100
1000
0100
0010
,  // measure 6
0001
0000
0010
0000
0100
0000
1000
0000
0100
0000
0010
0000
0001
0000
1000
0001
,  // measure 7
0100
0010
1000
0001
0010
0100
1000
0100
0020
0000
0000
0000
0031
0000
1000
0000
,  // measure 8
0001
0000
1000
0100
1000
0000
0010
0000
,  // measure 9
0100
0001
0100
0000
0010
0000
1000
0001
,  // measure 10
1000
0100
0010
0100
,  // measure 11
1000
0100
1000
0000
0001
0010
0001
0000
,  // measure 12
1000
0000
0001
1000
0100
0000
1000
0000
,  // measure 13
0001
0010
0100
0000
0010
0000
0001
1000
,  // measure 14
0100
0000
0010
0000
0001
1000
0010
0000
,  // measure 15
0100
0010
0100
0000
0001
1000
0001
0000
,  // measure 16
1000
0100
0010
0100
,  // measure 17
1000
0000
0010
0000
0100
0001
0100
0000
,  // measure 18
0001
1001
0000
1000
,  // measure 19
0100
1000
0100
0010
0001
0010
0001
1000
,  // measure 20
0001
1001
0000
1000
,  // measure 21
0010
1000
0010
0000
0100
0001
0100
0000
,  // measure 22
0010
0100
0001
0010
,  // measure 23
0110
0000
1001
1010
,  // measure 24
0101
0000
0000
0000
0001
0000
1000
0000
1100
0000
0000
0000
0100
1000
0010
1000
0001
0000
0100
0001
0000
0100
0001
0000
1000
0000
0100
0000
0010
0000
0010
0000
,  // measure 25
0001
0000
0000
0000
0000
0000
0000
0000
0000
0000
0000
0000
1001
0000
0000
0000
0000
0000
0000
0000
0000
0000
0000
0000
0000
0000
0000
0000
0000
0000
0000
0000
0000
0000
0000
0000
1000
0000
0000
0000
0000
0000
0000
0000
0000
0000
0000
0000
1100
0000
0000
0000
0000
0000
0000
0000
0010
0000
0000
0000
0000
0000
0000
0000
0001
0000
0000
0000
0000
0000
0000
0000
0010
0000
0000
0000
0000
0000
0000
0000
0100
0000
0000
0000
0000
0000
0000
0000
1000
0000
0000
0000
0000
0000
0000
0000
0001
0000
0000
0000
0000
0000
0000
0000
0000
0000
0000
0000
0100
0000
0000
0000
0000
0000
0010
0000
0000
0000
0000
0000
0000
0000
0000
0000
0000
0000
0100
0000
0000
0000
0000
0000
0001
0000
0000
0000
0000
0000
0000
0000
0000
0000
0000
0000
1000
0000
0000
0000
0000
0000
0000
0000
0000
0000
0000
0000
0001
0000
0000
0000
0000
0000
0000
0000
0000
0000
0000
0000
0011
0000
0000
0000
0000
0000
0000
0000
0000
0000
0000
0000
1100
0000
0000
0000
0000
0000
0000
0000
0000
0000
0000
0000
,  // measure 26
1001
0000
0000
0000
1000
0000
0010
0000
0110
0000
0000
0000
0010
1000
0010
1000
0001
0000
1000
0100
0000
0010
0001
0000
1000
0000
0010
0100
0000
0100
0001
0010
,  // measure 27
0100
0000
0110
0000
0010
0000
0001
0000
1001
0000
0000
0000
1000
0000
0010
0000
1000
0010
1000
0010
0100
0001
0100
0001
1000
0100
1000
0100
0010
0000
0011
0000
,  // measure 28
1001
0000
1000
0000
0010
0000
0100
0001
1000
0000
0100
0000
0010
0000
0110
0000
,  // measure 29
0000
0000
0100
0000
1000
0000
0001
0000
0100
0001
0100
0010
1000
0010
0100
0001
,  // measure 30
1000
0000
1100
0000
0000
0000
0100
0000
0110
0000
0010
0001
1000
0000
0001
0000
,  // measure 31
1000
0010
0100
0010
1000
0000
0001
0000
0010
0001
0100
0001
0010
0000
0100
0000
,  // measure 32
1000
0000
0100
0000
0010
0000
0001
0100
0010
0100
0001
0000
1000
0000
0100
0000
,  // measure 33
1000
0000
0001
0000
0100
0000
0001
0100
0010
1000
0010
1000
0100
0000
0011
0000
,  // measure 34
0000
0000
0001
0000
1000
0000
0010
0100
0010
0000
1000
0000
1001
0000
0001
0010
,  // measure 35
0001
0010
0100
1000
0010
0100
0010
1000
0100
0010
0001
0100
0001
0010
0100
0010
,  // measure 36
0001
0000
1000
0001
1000
0000
0000
0000
0001
0000
0100
0000
0010
0000
1001
0000
,  // measure 37
0000
0000
1000
0000
0100
0000
0010
0100
1000
0000
0100
0000
0010
0000
0001
0000
,  // measure 38
1000
0001
0110
0000
0010
1000
0100
1100
,  // measure 39
0000
0000
0110
0000
0110
0000
0010
0001
1000
0000
0010
0000
0100
0000
0010
0000
,  // measure 40
1000
0000
0100
1000
0001
0000
0000
0000
1000
0000
0100
0000
0010
0000
1001
0000
,  // measure 41
0000
0000
0000
0001
0000
0000
0100
0000
0000
0010
0000
0000
0100
0000
0000
0000
0001
0000
0000
0000
1000
0000
0000
0000
,  // measure 42
0100
0010
0110
0000
0100
0010
0001
1000
,  // measure 43
0000
0000
0000
0000
0000
0000
1000
0000
0000
0000
0000
0000
0100
0000
0000
0000
0000
0000
0010
0000
0000
0001
0000
0000
0010
0000
0000
0000
0001
0000
0000
0000
0010
0000
0000
0000
0100
0000
0000
0000
1000
0000
0000
0000
0100
0000
0000
0000
,  // measure 44
0110
0000
1001
0000
1010
0010
0100
0101
,  // measure 45
0000
0000
0001
0000
0100
0000
0010
0000
1000
0100
1000
0000
0001
0100
0001
0000
,  // measure 46
1001
0000
1100
0000
0110
0010
0001
1001
,  // measure 47
1000
0000
0010
0000
0100
0000
0001
0100
0001
0000
1000
0010
1000
0010
0100
0001
,  // measure 48
1001
2002
3003
0101
0202
0303
0110
0220
,  // measure 49
0330
0000
1010
0000
2020
0000
3030
0000
1000
0000
0100
0010
0001
0000
0100
0010
,  // measure 50
1000
0000
0000
0100
0000
0000
0010
0000
0000
0001
0000
0000
0101
0000
0000
0000
1001
0000
0000
0000
1010
0000
0000
0000
,  // measure 51
0220
0000
0000
0330
,  // measure 52
2002
3003
0220
0330
,  // measure 53
0001
0000
1000
0000
0001
0000
1000
0000
0001
1000
0001
1000
0002
0000
0000
0000
,  // measure 54
1003
0001
0100
0001
1000
0000
0010
0000
,  // measure 55
0100
0000
0010
1000
0010
1000
0100
0010
,  // measure 56
0100
0010
0001
1000
0001
0100
0010
0000
,  // measure 57
0000
0110
0000
1001
,  // measure 58
0000
0000
1000
0000
0100
0000
0010
0001
,  // measure 59
0100
0010
0100
0101
,  // measure 60
0000
0000
0001
0000
0100
0000
0010
1000
,  // measure 61
0010
0000
1000
0100
1000
0010
0100
0001
,  // measure 62
1000
0000
0001
1000
0100
0000
0000
0000
,  // measure 63
0010
0001
0100
0000
0010
0000
0100
0000
,  // measure 64
0010
0000
1000
0000
0001
1000
0100
0010
,  // measure 65
0001
0000
0000
0000
1100
0000
0000
0000
1001
0000
0000
0000
,  // measure 66
1001
0000
0001
0000
0100
0000
0010
1000
,  // measure 67
0100
0000
0010
0001
0100
0000
0001
0100
,  // measure 68
0001
0100
0001
0100
0010
1000
0010
0100
,  // measure 69
0010
1000
0100
0010
0100
1000
0010
0100
,  // measure 70
0001
1000
0001
1000
0100
0000
0010
0000
,  // measure 71
0001
0010
0100
0000
0010
0001
1000
0000
,  // measure 72
0010
1000
0100
1000
0001
0000
1000
0000
,  // measure 73
0010
1000
0100
0010
0100
0000
0010
0000
,  // measure 74
0001
0010
0001
0000
1000
0010
0100
0001
,  // measure 75
0010
0100
0010
0000
0001
0010
0001
1000
,  // measure 76
1010
0000
0000
0000
0101
0000
0000
0000
0011
0000
0000
0000
,  // measure 77
0110
0000
0000
0000
1001
0000
0000
0000
0110
0000
0000
0000
,  // measure 78
1000
0100
0010
0100
1000
0000
0100
0000
,  // measure 79
0010
0001
1000
0000
0010
0100
0001
0000
,  // measure 80
1000
0010
1000
0010
0100
0000
0001
0000
,  // measure 81
0010
0100
0010
0000
0001
0010
0001
0000
,  // measure 82
1000
0000
1001
0000
0001
0000
0100
0010
,  // measure 83
1000
0000
0100
0000
0010
0000
0100
0010
,  // measure 84
0001
1000
0100
0010
0001
1000
0010
0100
,  // measure 85
0001
1000
0100
0010
0100
1000
0001
1000
,  // measure 86
0100
0000
0010
0001
0100
0000
0010
0000
,  // measure 87
1000
0001
0100
0000
0001
0100
0010
1000
,  // measure 88
0100
0000
0010
0100
1000
0000
0101
0000
,  // measure 89
0100
0010
0100
0001
0010
0001
0010
0100
,  // measure 90
1000
0000
0001
0010
0001
0000
0100
0000
,  // measure 91
0010
0100
0001
0000
1000
0100
0010
0001
,  // measure 92
0100
0000
0010
1000
0001
0000
1001
0000
,  // measure 93
0010
1000
0001
0010
0100
1000
0001
1000
,  // measure 94
1001
0110
0001
0101
,  // measure 95
1010
0100
0110
1001
,  // measure 96
0010
1010
0101
1000
,  // measure 97
1100
0000
0000
0000
1001
0000
0000
0000
0101
0000
0000
0000
,  // measure 98
0001
0100
0010
0000
0100
0000
0001
0000
,  // measure 99
0010
0001
0100
0000
0100
0010
1000
0001
,  // measure 100
1000
0100
1000
0100
0010
0001
0010
0001
,  // measure 101
1000
0010
0100
0010
0100
0001
0100
0001
,  // measure 102
1000
0001
1000
0001
,  // measure 103
1000
0001
1000
0001
,  // measure 104
1000
0001
1000
0001
,  // measure 105
1000
0001
1000
0001
,  // measure 106
2000
0000
0010
0000
,  // measure 107
0001
0000
0100
0000
,  // measure 108
3002
0000
0010
0000
,  // measure 109
1000
0000
0103
0000
,  // measure 110
2002
0000
0000
0000
3003
0000
0100
0010
,  // measure 111
0120
0000
1030
0000
,  // measure 112
1002
0000
0000
0000
0000
0000
1003
0200
,  // measure 113
0020
0000
0330
0000
,  // measure 114
2002
0000
0000
0000
,  // measure 115
0000
3003
0220
0000
,  // measure 116
0000
0000
0000
0330
,  // measure 117
2002
0000
0000
0000
,  // measure 118
0000
0000
0000
0000
0000
3003
0000
0000
;

//---------------dance-single - ----------------
#NOTES:
     dance-single:
     :
     Challenge:
     13:
     1.000,1.000,0.715,0.403,0.597:
1000
0000
0001
0000
0101
0000
0010
1000
0100
0010
0001
0100
1010
0000
1000
0001
,
1000
0000
0000
0000
0010
0000
0000
0000
1001
0000
0000
0000
0100
0000
0001
0000
1000
0000
1000
0000
0100
0010
0001
0000
0001
0000
0001
0000
0100
0010
1000
0000
,
0100
0000
0000
0000
0000
0000
0010
0000
0000
0000
0000
0000
1100
0000
0000
0000
0000
0000
0010
0000
0000
0001
0000
0000
0100
0000
0010
0000
1000
0000
0001
0000
0010
0000
0100
0000
0010
0000
0000
0000
0000
0000
0001
0000
0000
1000
0000
0000
,
0010
0000
0100
0010
0100
0000
0001
0010
0100
0000
0010
0001
0010
0000
0100
1000
,
0001
0000
1000
0010
1000
0000
0001
0100
0010
0000
1000
0001
0010
0000
0100
0010
,
0001
1000
0100
0010
0001
1000
0010
0100
1000
0100
0010
0100
0001
0010
0100
0001
,
0100
1000
0001
1000
0001
0100
0010
1000
0010
0001
0010
0100
0001
0000
0100
0000
,
1010
0000
0010
0100
0001
0000
1000
0000
,
0001
0010
0100
0000
0010
0000
0100
1000
,
0001
0000
0100
0000
0010
0100
0001
0000
,
1000
0100
0010
0001
0100
0010
0100
0001
,
1001
0000
0010
0100
0001
0000
1000
0000
,
0001
0100
1000
0000
0100
0000
0010
1000
,
0100
0000
0010
0000
0100
0010
0001
0000
,
1000
0100
0001
0100
1000
0001
0100
0010
,
1001
0001
0100
0010
,
1000
0100
0010
0001
0100
0010
0100
0001
,
1000
0101
0010
1000
,
0100
1000
0100
1000
0001
0100
0010
1000
,
0100
0000
1001
0000
0010
0001
0100
1000
,
0100
0010
1000
0001
1000
0100
0010
0001
,
1000
2200
3300
0011
,
2002
3003
0110
1010
,
1001
0000
0000
0000
0001
0000
0010
0000
1001
0000
0000
0000
1000
0100
0010
0100
1000
0000
0010
0100
0000
0100
0001
0000
1000
0000
1000
0000
0001
0000
0001
0000
,
0100
0000
0000
0000
0000
0000
0000
0000
0000
0000
0000
0000
1001
0000
0000
0000
0000
0000
0000
0000
0000
0000
0000
0000
0010
0000
0000
0000
0000
0000
0000
0000
0000
0000
0000
0000
1000
0000
0000
0000
0000
0000
0000
0000
0000
0000
0000
0000
1100
0000
0000
0000
0000
0000
0000
0000
0010
0000
0000
0000
0000
0000
0000
0000
0100
0000
0000
0000
0000
0000
0000
0000
1000
0000
0000
0000
0000
0000
0000
0000
0001
0000
0000
0000
0000
0000
0000
0000
0100
0000
0000
0000
0000
0000
0000
0000
0010
0000
0000
0000
0000
0000
0000
0000
0000
0000
0000
0000
0100
0000
0000
0000
0000
0000
1000
0000
0000
0000
0000
0000
0000
0000
0000
0000
0000
0000
0100
0000
0000
0000
0000
0000
0001
0000
0000
0000
0000
0000
0000
0000
0000
0000
0000
0000
1000
0000
0000
0000
0000
0000
0000
0000
0000
0000
0000
0000
0100
0000
0000
0000
0000
0000
0000
0000
0000
0000
0000
0000
0011
0000
0000
0000
0000
0000
0000
0000
0000
0000
0000
0000
1100
0000
0000
0000
0000
0000
0000
0000
0000
0000
0000
0000
,
1002
0000
0000
0000
0013
0000
0100
0000
1000
0000
0100
0000
0010
0001
0100
0010
1000
0000
0001
0100
0000
0010
0100
0000
0010
0000
1000
0001
0000
0100
0001
0000
,
0100
0000
1010
0000
1000
0000
0100
0000
0011
0000
0001
0000
0100
0000
0010
0000
1000
0100
0010
0001
0010
0000
0001
0000
1000
0010
0100
0001
0010
0100
1000
0001
,
0100
0000
0010
0000
1001
0000
1000
0100
0001
0100
0010
0000
0001
0100
0010
0000
,
0100
0000
0010
0000
1000
0001
0100
0001
0010
0001
0100
0001
1000
0010
1000
0000
,
0100
0000
1001
0000
0010
0000
0100
0000
1001
0000
1000
0001
0100
0000
0001
0000
,
0010
0001
0100
1000
0100
0000
0001
0000
1000
0010
0001
0010
0100
0000
0101
0000
,
0010
0000
1000
0000
0100
0000
0010
0100
0001
0100
1000
0001
0100
0000
0101
0000
,
0001
0000
1000
0000
0100
0000
0010
0100
1000
0001
0100
0010
1000
0000
1002
0000
,
0000
0000
0103
0000
0001
0000
1000
0100
0010
0000
0100
0000
1000
0000
0001
0100
,
0010
0100
0010
1000
0100
0010
0100
0001
0100
1000
0010
0100
0002
0000
0000
0000
,
1003
0000
0010
0010
0200
0000
0000
0000
0310
0000
1000
0000
0100
0000
1001
0000
,
0000
0000
0100
0000
0001
0010
0100
0000
1000
0010
0100
0001
0100
0000
0001
0000
,
1000
0000
0100
0100
0020
0000
0000
0000
0031
0000
0100
0000
0010
0000
1001
0000
,
0000
0000
0010
0000
1000
0000
0001
0010
0100
0000
0010
0000
1001
0000
0110
0000
,
1000
0000
0001
0001
0200
0000
0000
0000
1300
0000
0100
0000
0001
0000
1100
0000
,
0000
0000
0000
0010
0000
0000
0001
0000
0000
0100
0000
0000
0010
0000
0000
0000
1100
0000
0000
0000
0101
0000
0000
0000
,
1000
0000
0100
0100
2000
0000
0000
0000
3001
0000
0100
0000
0010
0000
1001
0000
,
0000
0000
0000
0000
0000
0000
1000
0000
0000
0000
0000
0000
1010
0000
0000
0000
0000
0000
0100
0000
0000
0001
0000
0000
1000
0000
0000
0000
0100
0000
0000
0000
0010
0000
0000
0000
1000
0000
0000
0000
0010
0000
0000
0000
0001
0000
0000
0000
,
1001
0000
0000
0000
0110
0000
0000
0000
1000
0100
0010
0000
0001
0000
2001
0000
,
0000
0000
3010
0000
0100
0000
0001
0000
0010
0001
0100
0010
1000
0000
0001
0000
,
0100
0010
0100
0000
1001
0000
0000
0000
1000
0000
0100
0000
0010
0000
1002
0000
,
0000
0000
0103
0000
0100
0000
0010
0100
0001
1000
0100
0010
0001
0100
0010
0100
,
0110
2002
3003
1010
0202
0303
0011
2200
,
3300
0000
0110
0000
2002
0000
3003
0000
0110
0000
0010
1000
0100
0010
0100
1000
,
0001
0000
0000
0100
0000
0000
1000
0000
0000
0100
0000
0000
0110
0000
0000
0000
1010
0000
0000
0000
1100
0000
0000
0000
,
2002
0000
0000
3003
,
1000
0000
0000
0000
0000
0000
0001
0000
0000
0000
0000
0000
1000
0000
0000
0000
0000
0000
0001
0000
0000
0000
0000
0000
1000
0000
0000
0001
0000
0000
1000
0000
0000
0001
0000
0000
1000
0000
0000
0001
0000
0000
1000
0000
0001
0000
1000
0000
,
0002
0010
0010
0100
,
1003
0100
0010
0001
1000
0000
0010
0100
,
0001
0100
0001
0000
1000
0000
0100
0000
,
1000
0010
0100
0001
0010
0100
1000
0000
,
0000
2002
3003
0220
,
0330
0000
0001
0000
0100
0000
0001
0010
,
0100
0010
0001
2200
,
3300
0000
1000
0000
0010
0000
0100
0001
,
1000
0100
0010
0100
1000
0010
0100
0001
,
1000
0000
1000
0100
0002
0000
0000
0000
,
0103
0010
0001
0100
0010
1000
0001
0100
,
0010
0000
1000
0000
0010
0100
0001
0010
,
0011
0000
0000
0000
1100
0000
0000
0000
0110
0000
0000
0000
,
1001
0000
1000
0100
0010
0000
1000
0100
,
0010
0000
1000
0100
0001
0000
1000
0100
,
0001
0100
0010
0001
0100
1000
0001
0010
,
0100
0001
0010
0100
0010
0001
1000
0100
,
0010
0001
1000
0001
0100
0000
0001
0000
,
1000
0010
1000
0100
0010
0000
1100
0000
,
0010
0001
1000
0001
0100
0000
0001
0000
,
1000
0010
0100
0001
0100
0000
0101
0000
,
0001
0100
0101
0000
0010
1000
0100
0010
,
0001
0010
0011
0000
0001
0100
1000
0100
,
0110
0000
0000
0000
1010
0000
0000
0000
1100
0000
0000
0000
,
0110
0000
0000
0000
0011
0000
0000
0000
1100
0000
0000
0000
,
1000
0001
0100
1000
0100
0000
0001
0000
,
1000
0100
0010
0000
0100
0000
0010
0000
,
0001
1000
0100
0010
0100
0000
1001
0000
,
1000
0001
0100
0010
0100
0000
1001
0000
,
1000
0100
0010
0000
0100
0000
1000
0000
,
0001
0100
0010
0000
0100
0000
0001
1000
,
0100
0001
0100
0001
0100
1000
0100
1000
,
0010
1000
0010
1000
0010
0001
0010
0100
,
0001
0000
1000
0100
0010
0000
0100
0000
,
1000
0001
0100
1000
0100
0000
0010
0000
,
1000
0100
0001
0000
1000
0000
0010
0000
,
0001
0100
0010
1000
0100
0001
0100
1000
,
0001
0100
1000
0000
0001
0000
0010
0100
,
0001
0000
1000
0100
0010
0000
0001
0000
,
1000
0010
1000
0001
0100
1000
0100
0001
,
0010
0100
0001
0100
0010
0001
1000
0010
,
0101
1010
0100
0011
,
1100
0010
0101
1001
,
0010
1001
0110
1000
,
1100
0000
0000
0000
0110
0000
0000
0000
0011
0000
0000
0000
,
0001
0100
0001
0000
0100
0000
0010
0000
,
1000
0010
0100
0000
0001
0000
1000
0100
,
0010
0100
1000
0010
0001
0010
0100
0001
,
0010
1000
0010
0100
1000
0010
0100
0001
,
0100
1000
0100
0001
,
0100
1000
0100
0001
,
0010
1000
0010
0001
,
1000
0100
0001
0100
,
2100
0000
3020
0000
,
0230
0000
2300
0000
,
3002
0000
0023
0000
,
0230
0000
0002
0303
,
2002
0000
0000
0000
3003
0000
1000
0100
,
0012
0000
2000
3003
,
2020
0000
0000
0000
3030
0000
1000
0001
,
2002
0000
0000
3003
,
0220
0000
0000
0000
,
0000
0330
2002
0000
,
0000
0000
0000
3003
,
0220
0000
0000
0000
,
0000
0000
0000
0000
0000
0330
0000
0000
;

//---------------dance-single - ----------------
#NOTES:
     dance-single:
     :
     Medium:
     10:
     0.794,1.000,0.555,0.251,0.281:
1000
0000
0100
0000
1100
0000
0000
0001
0100
0010
0100
0000
0101
0000
0000
0000
,
0001
0000
0010
0000
1100
0000
0000
1000
0010
0100
0001
0000
0010
0100
0010
0000
,
1000
0000
0001
0000
1001
0000
0000
0001
0100
0010
0100
0000
1010
0000
0000
0000
,
1000
0100
1000
0100
0010
0001
0010
0001
,
1000
0010
0100
0001
0010
0100
1000
0001
,
1000
0010
0001
0010
1000
0100
0010
0001
,
1000
0001
1000
0001
1000
0001
1000
0001
2000
0000
0000
0000
3010
0000
0100
0000
,
0001
1000
0100
0010
,
0001
0000
1000
0000
0001
0000
0100
0010
,
1000
0010
0100
0001
,
1000
0100
0010
0001
,
0001
1000
0010
0100
,
0010
0000
1000
0000
0100
0000
1000
0100
,
0010
0100
1000
0001
,
0100
0010
0100
0001
1000
0000
1000
0000
,
1000
0001
0010
0100
,
0010
0001
0010
0001
1000
0000
0001
0000
,
0100
0010
1000
0001
,
1000
0010
0100
0010
1000
0000
0001
0000
,
1000
1001
0001
1000
,
0100
0000
0010
0001
1000
0000
0010
0000
,
0100
0010
1000
0001
,
1001
0000
0110
0010
,
0110
0000
0000
0000
0000
0000
0000
0000
1001
0000
0000
0000
0000
0000
1000
0000
0100
0000
0000
1000
0000
0000
0001
0000
1000
0000
0000
0000
0001
0000
0000
0000
,
0100
0000
0110
0000
0000
0000
0000
0000
1001
0000
0000
0000
0000
0000
0000
0000
1000
0000
0000
0100
0000
0000
1000
0000
0100
0000
0010
0000
0001
0000
0100
0000
,
0110
0000
0000
0000
0000
0000
0000
0000
1001
0000
0000
0000
0000
0000
0001
0000
0100
0000
0000
0001
0000
0000
1000
0000
0001
0000
1000
0000
0001
0000
0010
0000
,
0100
0000
1100
0000
0000
0000
0000
0000
1001
0000
0000
0000
0000
0000
0000
0000
0100
0000
0010
0000
0100
0000
0010
0000
1000
0001
1000
0001
1000
0000
0001
0000
,
1000
0100
0010
0000
0100
1000
0001
0101
,
0000
0000
0100
0000
0010
0000
1000
0000
0001
0010
0001
0000
1000
0010
0100
0000
,
0001
0101
0000
1000
1100
0100
0010
0001
,
0100
0000
0010
1000
0010
0000
1000
0000
0100
0010
0100
0010
0100
0000
0010
0000
,
0011
0000
0000
0000
1001
0000
0000
0000
1000
0010
0100
0000
0001
0000
1001
0000
,
0000
1000
0100
1000
0001
0100
0010
0110
,
0000
0000
1000
0100
1000
0000
0001
0010
0001
0000
1000
0001
1000
0000
0010
0100
,
0010
0000
0100
0001
1000
0000
0100
1000
0001
0000
1000
0100
0020
0000
0030
0000
,
0001
1000
0001
1000
0001
0000
0000
0000
0100
0000
1001
0000
0000
0000
0110
0000
,
0000
0000
0010
1000
0100
0000
0010
0000
0001
0000
0100
0000
0101
0000
0001
0000
,
1000
0001
1000
0001
1000
0000
0000
0000
0010
0000
0100
0000
0010
0000
0101
0000
,
0000
0001
0010
0100
0001
0100
1000
0010
,
0100
0000
0001
0000
1001
0000
0000
0000
1000
0001
0100
0000
0010
0000
0101
0000
,
0000
0000
0000
1000
0000
0000
0100
0000
0000
0010
0000
0000
0001
0000
0000
0000
0100
0000
0000
0000
0001
0000
0000
0000
,
1000
0000
0010
0000
0101
0000
0000
0000
0010
1000
0100
0000
0010
0000
0011
0000
,
0000
0000
0000
0000
0000
0000
1000
0000
0000
0000
0000
0000
0001
0000
0000
0000
0000
0000
1000
0000
0000
0001
0000
0000
1000
0000
0000
0000
0001
0000
0000
0000
1000
0000
0000
0000
0010
0000
0000
0000
0100
0000
0000
0000
0010
0000
0000
0000
,
1000
0000
1001
0000
0001
0010
0100
0010
,
0001
0000
1001
0000
1000
0010
0100
0001
,
0100
0000
0000
0000
0101
0000
0000
0000
0010
1000
0100
0000
1000
0000
1001
0000
,
0001
0000
1000
0000
0010
0000
0100
0001
0100
0000
0010
0000
1000
0000
0100
0000
,
0011
0011
0000
0101
0101
0000
0110
0110
,
0000
0000
1010
0000
1010
0000
0000
0000
1001
0000
1000
0100
1000
0000
0001
0100
,
0001
0000
0000
1000
0000
0000
0100
0000
0000
0010
0000
0000
0001
0000
0000
0000
1000
0000
0000
0000
0001
0000
0000
0000
,
0220
0000
0000
0330
,
2002
3003
0220
0330
,
1000
0000
0001
0000
1000
0000
0001
0000
1000
0001
1000
0001
2000
0000
0000
0000
,
3001
0000
0100
0001
1000
0000
0000
0000
,
0001
0010
0001
0000
0010
0000
0001
0000
,
0100
0010
1000
1001
,
0000
0011
0000
1100
,
1000
0001
0100
0010
,
1001
0100
0010
1001
,
0000
1000
0100
0010
,
0001
0000
0100
1000
0100
0010
0001
0010
,
0001
0000
1000
0001
1000
0000
0000
0000
,
0001
0100
0010
0000
1000
0000
0100
0000
,
0010
0000
0100
0010
0001
0000
1000
0000
,
1001
0000
0000
0000
1001
0000
0000
0000
1001
0000
0000
0000
,
1001
0000
0001
0000
0100
0000
0010
1000
,
0010
0000
1000
0000
0001
0000
0010
0001
,
0010
0000
0001
0000
1000
0000
0001
1000
,
0001
1000
0001
1000
0010
0100
0010
0100
,
0001
0100
0010
1000
0200
0000
0000
0000
,
1300
0100
0010
0001
,
1000
0100
0010
0001
0200
0000
0000
0000
,
0310
0100
0001
1000
,
0001
0010
0001
0000
1000
0000
0001
0100
,
0001
0100
0001
0000
1000
0000
0010
0100
,
0010
0000
0000
0000
1000
0000
0000
0000
0100
0000
0000
0000
,
0110
0000
0000
0000
0110
0000
0000
0000
1001
0000
0000
0000
,
1001
0001
0100
0010
,
1000
0100
0001
0100
,
1000
0001
1000
0001
1000
0000
0010
0000
,
0100
0001
0010
0100
,
0010
0000
0001
0000
0010
0000
0001
1000
,
0001
0000
1000
0000
0010
0000
0100
0010
,
0100
0010
1000
0010
1000
0001
1000
0001
,
0010
0001
0010
0001
1000
0000
0001
0000
,
0100
0001
0100
0010
,
1000
0010
1000
0001
,
1000
0001
0010
0001
,
1000
0001
1000
0001
1000
0000
0100
0000
,
0010
0001
0010
0100
,
1000
0100
1000
0010
,
0100
0001
0010
0100
,
0010
0001
0010
0001
0010
0000
0001
0000
,
1001
2002
3003
0101
,
0202
0303
1010
2020
,
3030
0110
0220
0330
,
1000
0000
0000
0000
0001
0000
0000
0000
1000
0000
0000
0000
,
0001
0100
0001
0000
0000
0000
0100
0000
,
0010
0000
1000
0000
0100
0000
1000
0001
,
1000
0001
1000
0001
1000
0001
1000
0001
,
1000
0001
1000
0001
1000
0001
1000
0001
,
1000
0001
1000
0001
,
1000
0001
1000
0001
,
1000
0001
1000
0001
,
1000
0001
1000
0001
,
2000
0000
0001
0000
,
0000
0000
0100
0000
,
3002
0000
0010
0000
,
1000
0000
0103
0000
,
2002
0000
0000
0000
3003
0000
0100
0010
,
0200
0000
0300
0000
,
2002
0000
0000
0000
3003
0000
0010
0100
,
0020
0000
0030
0000
,
2002
0000
0000
0000
,
0000
3003
0220
0000
,
0000
0000
0000
0330
,
2002
0000
0000
0000
,
0000
0000
0000
0000
0000
3003
0000
0000
;

//---------------dance-single - ----------------
#NOTES:
     dance-single:
     :
     Easy:
     9:
     0.560,0.849,0.274,0.243,0.076:
0001
1000
0001
0000
0100
0010
0100
0000
,
0010
0000
1000
0000
0100
0000
0010
0000
0001
0100
0001
0000
1000
0100
1000
0000
,
0001
1000
0001
0100
0010
1000
0100
0000
,
0010
0100
0010
0100
0010
0100
0010
0100
,
1000
0001
1000
0001
1000
0001
1000
0001
,
0100
0010
0100
0010
0100
0010
0100
0010
,
1000
0100
0010
0001
0200
0000
0310
1000
,
0001
0000
0001
1000
,
0000
1000
0100
0000
,
0100
0010
0000
0010
,
0001
0000
1000
0001
,
1000
0000
1000
0001
,
0000
0100
0010
0000
,
0010
1000
0000
1000
,
0100
0010
0001
0100
,
0010
0000
0100
0010
,
0000
1000
0010
0100
,
0001
0100
0000
0010
,
1000
0100
0010
0001
,
0010
0100
0000
0010
,
0001
1000
0001
0100
,
0010
1000
0100
1000
,
0001
0000
1000
0001
,
1001
0000
0000
0000
0110
0000
0000
0100
0001
0000
1000
0000
1001
0000
0000
0000
,
0001
0020
0000
0000
0031
0000
0000
0000
1000
0000
0001
0000
1001
0000
0100
0010
,
0100
0000
0000
0000
1001
0000
0000
1000
0100
0000
1000
0000
1001
0000
0000
0000
,
0001
0200
0000
0000
0310
0000
0000
0000
1000
0001
1000
0001
1000
0000
0010
0100
,
0010
0000
1001
0000
1000
0100
0010
0001
,
0000
0010
0001
0000
0100
0001
0100
0010
,
1000
1001
0000
0010
0110
0000
1000
0100
,
0010
0100
1000
0001
0100
0010
0100
0001
,
0101
0000
1001
0000
1000
0100
0010
0110
,
0000
0100
1000
0020
0000
1030
0010
0110
,
0000
0100
0001
0010
0100
0010
0001
1000
,
0100
0010
0001
0100
0010
1000
0010
0100
,
0001
0001
0002
0000
0000
0010
0000
1003
,
0000
0001
1000
0100
0010
0001
0010
0100
,
1000
1000
2000
0000
0000
0010
0000
3001
,
0000
1000
0001
0000
0110
0000
1001
0000
,
0010
0010
0020
0000
0000
1000
0000
0130
,
0000
0010
0100
0001
0010
0100
0010
0001
,
0100
0100
0200
0000
0000
0010
0000
0301
,
0000
0100
0001
1000
1100
0000
1001
0000
,
0010
0000
1001
0000
1000
0010
1000
0010
,
0000
0100
0001
0000
0010
0000
0100
0000
,
0010
0000
0001
0000
0001
0100
0010
1000
,
0000
0001
1000
0001
1000
0000
0100
0000
,
0010
0100
0000
0010
0100
0000
1000
0001
,
0000
1000
0001
0000
0110
0000
1001
0000
,
0110
0000
0000
0000
0000
0000
0010
0000
0000
1000
0000
0000
0001
0000
0000
0000
1000
0000
0000
0000
0001
0000
0000
0000
,
2002
0000
0000
3003
,
0220
0330
2002
3003
,
1000
0001
1000
0001
1000
0001
1000
0001
,
1000
0001
1000
0000
,
0010
0100
0010
1000
,
0100
0000
0010
0110
,
0000
1001
0000
0110
,
0000
0100
0001
0000
,
0100
0010
1000
0100
,
0010
0000
0100
0000
,
0010
0001
1000
0001
,
0100
0000
1001
0000
,
0100
0010
1000
0100
,
1000
0000
0001
1000
,
0001
0000
0000
0000
0100
0000
0000
0000
0001
0000
0000
0000
,
1000
0100
1000
0100
,
0010
0001
0010
0001
,
1000
0001
0100
0010
,
1000
0010
0100
0010
,
1000
1000
2000
0000
,
3010
0100
0001
0010
,
0100
0100
0200
0000
,
0310
0001
1000
0100
,
0010
0110
0000
0001
,
1000
1001
0000
1000
,
0010
0000
0000
0000
1000
0000
0000
0000
0001
0000
0000
0000
,
1000
0000
0000
0000
0001
0000
0000
0000
1000
0000
0000
0000
,
0100
0000
0110
0000
,
1001
0000
0110
0000
,
0010
0100
0001
0100
,
0010
1000
0001
0000
,
0001
1000
0001
0010
,
0100
0010
0001
1000
,
0100
0010
0001
0100
,
1000
0100
0010
1000
,
1001
0000
0001
0100
,
0010
0100
0010
1000
,
0100
0100
0010
0001
,
1000
0001
0100
0010
,
1000
0002
0000
1003
,
0100
0010
0100
1000
,
0100
0010
0100
0010
,
0001
1000
0010
0100
,
0100
0200
0000
0010
,
0320
0000
1000
2030
,
0000
0100
3200
0000
,
0310
0000
0000
0000
0001
0000
0000
0000
1000
0000
0000
0000
,
0001
1000
0000
0001
,
1000
0100
0010
0001
,
1000
0001
1000
0001
,
1000
0001
1000
0001
,
0200
0000
0000
0000
,
0000
0000
0000
0000
,
0000
0000
0000
0000
,
0000
0000
0000
0000
,
0020
0000
0000
0000
,
0000
0000
0000
0000
,
0330
0000
0000
0000
,
0000
0000
0000
0000
,
2000
0000
0000
0000
,
3200
0000
0000
0000
,
0320
0000
0000
0000
,
0032
0000
0000
0000
,
2000
0000
0000
0000
,
3003
0000
0220
0000
,
0000
0000
0000
0330
,
2002
0000
0000
0000
,
0000
0000
0000
0000
0000
3003
0000
0000
;

//---------------dance-single - ----------------
#NOTES:
     dance-single:
     :
     Beginner:
     6:
     0.313,0.617,0.243,0.122,0.000:
1000
1000
0100
0100
,
0010
0000
0010
0000
0001
0000
0001
1000
,
0001
0100
0010
1000
,
0100
0100
0010
0010
,
0001
0001
1000
1000
,
0001
1000
0001
1000
,
2002
0000
0000
3003
,
1001
0000
0000
0000
,
0001
0000
0000
0000
,
0100
0000
0010
0000
,
1000
0000
0010
0000
,
0100
0000
0000
0000
,
0001
0000
0000
0000
,
0010
0000
0001
0000
,
1000
0000
0100
0000
,
0010
0000
0000
0000
,
0100
0000
0000
0000
,
0010
0000
0001
0000
,
1000
0000
0001
0000
,
0100
0000
0000
0000
,
0010
0000
1000
0000
,
0001
0000
0000
0000
,
1000
0000
0001
0000
,
1001
0000
0001
1000
,
0100
0010
0100
0010
,
0110
0000
1000
0001
,
1000
0010
0100
0001
,
1000
0000
0001
0010
,
0100
0010
0001
1000
,
1001
0000
0110
0000
,
0001
1000
0010
0100
,
0110
0000
0010
1000
,
0100
0010
0001
1000
,
1001
0000
0001
0100
,
0110
0000
1001
0000
,
0001
2001
0000
3100
,
0010
0001
0100
0010
,
0100
0120
0000
1030
,
0010
0100
0001
0010
,
0100
0010
0001
1000
,
0001
0100
0010
0100
,
0001
0001
1000
0100
,
0010
0001
0100
0010
,
2002
3003
1000
0100
,
0010
0001
0100
0010
,
0220
0330
0100
0010
,
1000
0001
1000
0010
,
0110
0000
0000
0110
0000
0000
1001
0000
,
0000
1001
0000
0000
0110
0000
1001
0000
,
0110
0000
1001
0110
,
2002
0000
0000
0000
,
3003
0000
0000
0000
,
0000
1000
0001
1000
,
0001
0000
0000
0000
,
1000
0000
0100
0000
,
0010
0000
0001
1000
,
0000
1001
0000
1001
,
0000
0000
1000
0000
,
0010
0000
0100
0000
,
0001
0000
1000
0000
,
0001
1000
0001
0000
,
0100
0010
0100
0000
,
0000
0000
0001
0000
,
1000
0001
1000
0000
,
0001
0000
0010
0000
,
0110
0000
0000
0000
,
1001
0000
0000
0000
,
0110
0000
0000
0000
,
0010
0000
0100
0000
,
0001
1000
0001
0000
,
0000
0000
1000
0000
,
0010
0100
0010
0000
,
0000
0000
1000
0000
,
0001
1000
0000
0000
,
1000
0001
0000
0000
,
0220
0000
0000
0000
,
0330
0000
0000
0000
,
1000
0000
1000
0000
,
0001
0000
0001
0000
,
0100
0000
0010
0000
,
0100
0000
0000
0000
,
0001
1001
0000
0000
,
1000
0000
0100
0000
,
0010
0000
0001
0000
,
1000
0000
0001
1000
,
0001
0000
0000
0000
,
0100
0000
0010
0000
,
1000
0000
0010
0000
,
1000
0000
0001
0000
,
1000
0001
0000
0000
,
1000
0000
0001
0000
,
0010
0000
0100
0000
,
0010
0100
0010
0000
,
0001
1000
0000
0001
,
1000
0000
0001
1000
,
0000
0010
0100
0000
,
0220
0000
0330
0000
,
0001
1000
0000
0000
,
0001
0000
1000
0000
,
0001
0000
0100
0000
,
0010
0000
1000
0000
,
0002
0000
0000
0000
,
0000
0000
0000
0000
,
0000
0000
0000
0000
,
0000
0000
0000
0000
,
2000
0000
0000
0000
,
0000
0000
0000
0000
,
0000
0000
0000
0000
,
0000
0000
0000
0000
,
0000
0000
0000
0000
,
0000
0000
0000
0000
,
0000
0000
0000
0000
,
0000
0000
0000
0000
,
0000
0000
0000
0000
,
0000
0000
0000
0000
,
0000
0000
0000
0000
,
3003
0000
0000
0000
;
