#VERSION:0.83;
#TITLE:音楽;
#SUBTITLE:-resolve-;
#ARTIST:Yu_Asahina;
#TITLETRANSLIT:ONGAKU;
#SUBTITLETRANSLIT:;
#ARTISTTRANSLIT:;
#GENRE:;
#ORIGIN:;
#CREDIT:;
#BANNER:ONGAKU -resolve-.png;
#BACKGROUND:ONGAKU -resolve--bg.png;
#PREVIEWVID:;
#JACKET:;
#CDIMAGE:;
#DISCIMAGE:;
#LYRICSPATH:;
#CDTITLE:;
#MUSIC:ONGAKU -resolve-.mp3;
#OFFSET:-1.510000;
#SAMPLESTART:43.840000;
#SAMPLELENGTH:11.840000;
#SELECTABLE:YES;
#BPMS:0.000=120.000,
15.000=152.000,
27.000=120.000,
31.000=135.000,
34.000=145.000,
35.000=150.000,
36.000=155.000,
44.000=156.000,
46.000=158.000,
48.000=160.000,
62.000=158.000,
64.000=155.000,
72.000=157.000,
96.000=160.000,
104.000=165.000,
132.000=150.000,
134.000=145.000,
135.000=135.000,
136.000=155.000,
138.000=160.000,
140.000=162.000,
144.000=164.000,
148.000=165.000,
154.000=166.000,
156.000=167.000,
158.000=168.000,
159.000=169.000,
160.000=170.000,
168.000=165.000,
180.000=166.000,
182.000=167.000,
184.000=168.000,
186.000=169.000,
188.000=170.000,
189.000=165.000,
190.000=160.000,
191.000=155.000,
192.000=133.000,
196.000=130.000,
198.000=135.000,
200.000=127.000,
201.000=114.000,
202.000=165.000,
203.000=166.000,
204.000=167.000,
205.000=165.000,
206.000=170.000,
254.000=171.000,
255.000=172.000,
256.000=173.000,
257.000=174.000,
258.000=175.000,
262.000=170.000,
264.000=171.000,
266.000=172.000,
268.000=173.000,
270.000=174.000,
272.000=175.000,
274.000=176.000,
276.000=177.000,
278.000=178.000,
280.000=179.000,
282.000=180.000,
291.000=181.000,
292.000=182.000,
293.000=183.000,
294.000=184.000,
296.000=185.000,
298.000=186.000,
300.000=187.000,
302.000=188.000,
304.000=189.000,
306.000=190.000,
308.000=180.000,
309.000=170.000,
310.000=220.000,
314.000=165.000;
#STOPS:;
#DELAYS:;
#WARPS:;
#TIMESIGNATURES:0.000=4=4;
#TICKCOUNTS:0.000=4;
#COMBOS:0.000=1;
#SPEEDS:0.000=1.000=0.000=0;
#SCROLLS:0.000=1.000;
#FAKES:;
#LABELS:0.000=Song Start;
#BGCHANGES:;
#KEYSOUNDS:;
#ATTACKS:
;

//---------------dance-single - Oni-91----------------
#NOTEDATA:;
#CHARTNAME:;
#STEPSTYPE:dance-single;
#DESCRIPTION:Oni-91;
#CHARTSTYLE:;
#DIFFICULTY:Hard;
#METER:9;
#RADARVALUES:0.570606,0.672694,0.506201,0.458745,0.288693,505.000000,441.000000,64.000000,58.000000,0.000000,0.000000,0.000000,0.000000,0.000000,0.570606,0.672694,0.506201,0.458745,0.288693,505.000000,441.000000,64.000000,58.000000,0.000000,0.000000,0.000000,0.000000,0.000000;
#CREDIT:Oni-91;
#NOTES:
// measure 0
1000
0100
0010
0200
0000
0000
0310
0001
,  // measure 1
0100
0020
0000
0000
1030
0001
0010
0100
,  // measure 2
0010
0000
0001
0000
1000
0000
0000
0000
0000
0000
0000
2002
0000
0000
0000
0000
,  // measure 3
0000
0000
3003
0220
,  // measure 4
0000
0000
0000
0000
,  // measure 5
0000
0000
0000
0000
,  // measure 6
0000
0000
0000
0330
,  // measure 7
2002
0003
0002
0000
,  // measure 8
0000
0000
0000
3003
,  // measure 9
1000
0000
0000
0010
0000
0010
0100
0000
0000
0001
0000
0001
,  // measure 10
0010
0000
0100
0000
0010
0001
1000
0001
,  // measure 11
0100
0000
0000
0000
0000
0000
0010
0000
0000
0000
1000
0000
0100
0000
0000
0010
0000
0000
0100
0000
0000
1000
0000
0000
,  // measure 12
1001
0001
0101
0100
,  // measure 13
1001
0000
0010
0000
1000
0001
0010
0100
,  // measure 14
0010
0000
0100
0010
0001
1000
0010
0100
,  // measure 15
0010
0000
0000
0000
1001
0000
0000
1000
0100
0000
0010
0000
0001
0000
1000
0000
,  // measure 16
0010
0202
0000
0000
0000
0000
0303
0000
,  // measure 17
1001
2200
0000
0000
0000
0000
3300
0000
,  // measure 18
1000
0010
0101
0000
0001
0010
0100
0010
,  // measure 19
0001
0000
1000
0000
0010
0000
1000
0100
1000
0000
0001
0000
0010
0000
0100
0000
,  // measure 20
0010
0001
1001
0000
1000
0001
1001
0000
,  // measure 21
1000
0000
0010
0000
0100
0000
0010
0000
1000
0000
0001
1000
0001
0000
0000
0000
,  // measure 22
1000
0000
1100
0000
0100
0010
0001
1000
,  // measure 23
0001
0100
0001
1000
0100
1000
0001
0000
0000
0110
0000
0000
,  // measure 24
2001
0010
0001
0010
,  // measure 25
3002
0010
1003
1001
,  // measure 26
0110
0000
0000
0001
0000
1000
0000
0001
0000
1000
0000
0001
1000
0000
0100
0000
,  // measure 27
0010
0100
0000
0010
0000
0100
0000
0010
0000
0001
0000
1000
0001
0000
0100
0000
,  // measure 28
0010
1000
0000
0001
0000
0100
0000
0001
0000
1000
0000
0100
0010
0000
0100
0000
,  // measure 29
1000
0000
0001
0000
0100
0000
0010
1000
0010
0000
1000
0000
0001
0000
0000
0000
,  // measure 30
1000
0100
0101
0000
0001
0100
1100
0000
,  // measure 31
1000
0010
0011
0000
0001
0010
1010
0000
,  // measure 32
0001
0000
0010
0000
0100
0000
1000
0000
0001
0000
0100
0010
1000
0000
0001
0000
,  // measure 33
1000
0000
0000
0001
0010
0000
0100
0000
1000
0000
0001
0000
0100
0000
0010
0000
,  // measure 34
2000
0000
0000
0010
0020
0000
3030
2000
,  // measure 35
0002
0000
3000
0100
0103
0000
1001
0000
,  // measure 36
0220
0330
2002
3003
,  // measure 37
0011
0000
0000
0000
1100
0000
0000
0000
1000
0000
0010
0000
0100
0001
0100
0002
,  // measure 38
2000
0000
3003
0001
0022
0000
0033
1000
,  // measure 39
1010
0101
0110
1001
,  // measure 40
1000
0100
0010
0001
0100
0010
1000
0100
,  // measure 41
0010
0000
0001
0010
0001
0000
1000
0100
1000
0000
0001
1000
0001
0000
0100
0010
,  // measure 42
0100
0000
0010
1000
0100
0000
0010
0001
,  // measure 43
0100
1100
0101
1001
,  // measure 44
1000
0000
0001
0000
0100
0000
0010
0000
0100
0000
0001
0000
1000
0001
1000
0001
,  // measure 45
0020
0000
0000
0000
0030
0000
0001
1000
0002
0000
0000
0000
0003
0000
1000
0010
,  // measure 46
2000
0000
0000
0000
3000
0000
0010
0100
0010
0000
1000
0000
0001
0000
1000
0000
,  // measure 47
0001
0010
0001
0010
0100
1000
0100
1000
0001
0100
0010
1000
,  // measure 48
0001
0220
0000
0330
,  // measure 49
1000
0000
0000
0000
0002
0000
0000
0000
2000
0000
0000
0000
3003
0000
0000
0010
,  // measure 50
0100
0220
0330
0010
,  // measure 51
1000
0000
0000
0000
0001
0000
1000
0001
1000
0000
0100
0000
1000
0000
0100
0000
,  // measure 52
1000
0001
1000
0001
0100
0001
0010
0001
,  // measure 53
1000
0001
0100
0001
1001
0000
1000
0100
,  // measure 54
0001
0000
0100
0000
1000
0000
0001
1000
0001
0000
0000
0000
1001
0000
0000
0000
,  // measure 55
1000
0010
0100
0000
0101
0000
0001
0010
,  // measure 56
0100
1000
0100
0010
0001
0100
1000
0100
,  // measure 57
0001
0100
0010
0100
0001
0011
0000
0000
,  // measure 58
1000
1100
0000
0000
1001
1001
0000
0000
,  // measure 59
0110
0110
0000
0000
0010
1000
0100
0010
,  // measure 60
0001
0001
1000
1000
0001
0000
0220
0000
,  // measure 61
0330
1000
1010
0202
,  // measure 62
0303
0001
0011
2200
,  // measure 63
3300
0000
0000
0000
1000
0000
0000
0000
0001
0000
0000
0000
0011
0000
0000
1000
,  // measure 64
0100
0010
0100
1000
0002
0000
0000
0100
,  // measure 65
0100
0000
0000
2003
0000
0000
3100
0000
0000
0010
0100
0010
,  // measure 66
0100
0000
0000
0000
0010
0000
0000
0000
0001
0000
0000
1000
0000
0000
0100
0000
,  // measure 67
2200
0000
0000
0000
3300
0000
0000
0000
1000
0000
0000
0001
0000
0000
0100
0000
,  // measure 68
0202
0000
0000
0000
0303
0000
0000
0000
0001
0000
0000
1000
0000
0000
0100
0000
,  // measure 69
0010
0000
0000
0000
0010
0000
0100
0000
1000
0000
0000
0001
0000
0000
0100
0000
,  // measure 70
0010
0000
1000
0000
0001
0000
1000
0001
1000
0000
0000
0001
0000
0000
0010
0000
,  // measure 71
0100
0010
0011
0000
2002
0000
3003
0000
,  // measure 72
0220
0330
1010
1100
,  // measure 73
0011
0101
1001
0100
,  // measure 74
0010
0000
0000
0000
0000
0000
1000
0000
0000
0001
0000
0000
0100
0000
0000
0000
0100
0000
0010
0000
0000
0000
0010
0000
,  // measure 75
1000
0000
0000
0000
1000
0000
0001
0000
0000
1000
0000
0000
0001
0000
0000
0100
0000
0000
0010
0000
0000
1000
0000
0000
,  // measure 76
0100
0000
0000
0010
0000
0000
0100
0000
0000
1000
0000
0000
0001
0000
1000
0000
0001
0000
1000
0000
0001
0000
1000
0000
,  // measure 77
0010
0100
0010
0100
0010
2000
0002
0000
0000
3003
0000
0000
,  // measure 78
0220
0330
2002
0000
,  // measure 79
0000
0000
0000
0000
,  // measure 80
0000
0000
0000
0000
,  // measure 81
3003
0000
0000
0000
;

//---------------dance-single - Oni-91----------------
#NOTEDATA:;
#CHARTNAME:;
#STEPSTYPE:dance-single;
#DESCRIPTION:Oni-91;
#CHARTSTYLE:;
#DIFFICULTY:Medium;
#METER:7;
#RADARVALUES:0.428237,0.480495,0.379651,0.387560,0.031638,379.000000,331.000000,48.000000,49.000000,0.000000,0.000000,0.000000,0.000000,0.000000,0.428237,0.480495,0.379651,0.387560,0.031638,379.000000,331.000000,48.000000,49.000000,0.000000,0.000000,0.000000,0.000000,0.000000;
#CREDIT:Oni-91;
#NOTES:
// measure 0
1000
0000
0000
1001
0000
0000
0001
0000
,  // measure 1
0000
0101
0000
0000
0100
0000
0000
0110
,  // measure 2
0000
0000
0000
0000
1001
0000
0000
0000
0000
0000
0000
0220
0000
0000
0000
0000
,  // measure 3
0000
0000
0330
2002
,  // measure 4
0000
0000
0000
0000
,  // measure 5
0000
0000
0000
0000
,  // measure 6
0000
0000
0000
3003
,  // measure 7
2002
0003
0002
0000
,  // measure 8
0000
0000
0000
3003
,  // measure 9
1000
0010
0100
0010
,  // measure 10
1000
0000
0100
0000
0010
0001
0010
0001
,  // measure 11
0010
0000
0001
0000
0100
0010
0100
0000
,  // measure 12
1001
1000
0001
0010
,  // measure 13
0100
0000
0010
0000
0001
1000
0001
1000
,  // measure 14
0001
0000
1000
0000
0010
0000
0100
0010
,  // measure 15
0100
0001
1000
0100
,  // measure 16
0020
0200
0000
0000
0000
0000
0330
0000
,  // measure 17
0002
2000
0000
0000
0000
0000
3003
0000
,  // measure 18
1000
0100
1000
0000
0001
0100
0001
1000
,  // measure 19
0100
0000
0010
0000
0100
0010
0100
0000
,  // measure 20
0001
1010
1000
0011
,  // measure 21
0001
0000
0110
0000
1000
0001
1000
0000
,  // measure 22
0001
0000
0010
0000
0100
0000
0010
0001
,  // measure 23
2000
0010
3001
1001
,  // measure 24
0120
0100
0100
0100
,  // measure 25
1000
1000
1030
1010
,  // measure 26
1000
0000
0001
0000
0010
0001
1000
0000
,  // measure 27
0001
0000
1000
0000
0001
1000
0010
0000
,  // measure 28
0100
0000
0010
0000
0100
0010
1000
0000
,  // measure 29
1001
0001
0011
1100
,  // measure 30
1000
0001
0010
0000
0001
1000
0010
0000
,  // measure 31
0100
0001
1000
0000
0100
1000
0001
0000
,  // measure 32
1000
0001
1000
0000
0001
0010
0100
0010
,  // measure 33
0001
0000
1000
0000
0010
0100
0010
0000
,  // measure 34
1002
0000
0000
0100
0203
0000
0000
0010
,  // measure 35
0320
0000
0000
1000
1030
0000
1010
0000
,  // measure 36
2002
3003
0220
0330
,  // measure 37
1000
0000
0100
0000
0010
0001
0010
0000
,  // measure 38
2200
0000
3300
1000
0002
0000
0000
0100
,  // measure 39
0103
1010
1100
1001
,  // measure 40
1000
0100
1000
0000
0001
0010
0001
0000
,  // measure 41
1000
0001
1000
0001
1000
0001
0100
0000
,  // measure 42
1010
0000
1000
0100
0010
0000
0100
0010
,  // measure 43
0002
0010
1000
0103
,  // measure 44
0010
1000
0010
0000
0100
0001
0100
0001
,  // measure 45
2000
0000
3000
0001
0002
0000
0003
0100
,  // measure 46
0200
0000
0300
0010
0010
0100
0010
1000
,  // measure 47
2002
0000
0000
0000
,  // measure 48
3003
0220
0000
0330
,  // measure 49
1000
0001
0020
0000
,  // measure 50
0100
0200
0000
0000
,  // measure 51
0000
0000
0330
0000
0010
0001
0100
0000
,  // measure 52
0010
1000
0010
1000
0001
0000
1000
0000
,  // measure 53
0001
0000
0010
0001
0100
0000
0010
0000
,  // measure 54
1000
0000
0010
0100
0010
0000
0100
0000
,  // measure 55
0001
0000
1010
0000
1001
0000
0010
0001
,  // measure 56
0100
0000
1000
0010
0100
0000
0001
0010
,  // measure 57
0001
1000
0001
0000
1000
2000
0000
0000
,  // measure 58
3001
0002
0000
0000
0103
0200
0000
0000
,  // measure 59
0010
0010
0310
0000
0010
0000
1001
0000
,  // measure 60
1000
0100
0010
0001
1000
0000
0220
0000
,  // measure 61
0330
0001
1001
0220
,  // measure 62
0330
0001
0011
2200
,  // measure 63
3300
1000
1010
0101
,  // measure 64
0001
1000
0100
1000
0002
0000
0000
1000
,  // measure 65
1000
0000
0000
0100
0000
0000
1003
0000
0000
0001
1000
0001
,  // measure 66
1000
0000
0000
0000
0001
0000
0000
0000
1000
0000
0000
0100
0000
0000
1000
0000
,  // measure 67
0100
0000
0000
0000
1000
0000
0000
0000
0001
0000
0000
0100
0000
0000
0001
0000
,  // measure 68
0100
0000
0000
0000
0001
0000
0000
0000
1000
0000
0000
0001
0000
0000
1000
0000
,  // measure 69
0001
0000
0000
0000
1000
0000
0100
0000
1000
0000
0000
0001
0000
0000
1000
0000
,  // measure 70
0001
0000
0100
0000
0001
0000
1000
0000
0001
0000
0000
1000
0000
0000
0001
0000
,  // measure 71
1000
0110
2002
3003
,  // measure 72
0220
0330
1010
0101
,  // measure 73
0011
1100
1000
0100
,  // measure 74
0010
0000
0001
1000
0001
0000
0100
0000
,  // measure 75
0010
0000
1000
0100
1000
0001
1000
0000
,  // measure 76
0001
0010
0001
1000
0010
0000
0100
0000
,  // measure 77
0001
1000
0110
0000
,  // measure 78
1001
0000
0220
0000
,  // measure 79
0000
0000
0000
0000
,  // measure 80
0000
0000
0000
0000
,  // measure 81
0330
0000
0000
0000
;

//---------------dance-single - Oni-91----------------
#NOTEDATA:;
#CHARTNAME:;
#STEPSTYPE:dance-single;
#DESCRIPTION:Oni-91;
#CHARTSTYLE:;
#DIFFICULTY:Easy;
#METER:5;
#RADARVALUES:0.300557,0.416429,0.324285,0.316376,0.000000,266.000000,225.000000,41.000000,40.000000,0.000000,0.000000,0.000000,0.000000,0.000000,0.300557,0.416429,0.324285,0.316376,0.000000,266.000000,225.000000,41.000000,40.000000,0.000000,0.000000,0.000000,0.000000,0.000000;
#CREDIT:Oni-91;
#NOTES:
// measure 0
1000
0000
0000
0001
0000
0000
0010
0000
,  // measure 1
0000
0100
0000
0000
0010
0000
0000
0001
,  // measure 2
0000
1001
0000
2002
,  // measure 3
0000
0000
3003
2002
,  // measure 4
0000
0000
0000
0000
,  // measure 5
0000
0000
0000
0000
,  // measure 6
0000
0000
0000
3003
,  // measure 7
0220
0000
0330
0000
,  // measure 8
0000
0000
0000
0000
,  // measure 9
0001
1000
0001
1000
,  // measure 10
0100
0010
0000
0100
,  // measure 11
0010
0100
0000
0001
,  // measure 12
1000
0001
0100
0010
,  // measure 13
1000
0010
0000
0100
,  // measure 14
0010
0100
0000
0001
,  // measure 15
1000
0100
1000
0100
,  // measure 16
0110
0000
0000
0000
,  // measure 17
1001
0000
0000
0000
,  // measure 18
1000
0000
0001
0000
,  // measure 19
0100
0010
0100
0010
,  // measure 20
0100
0000
0001
0000
,  // measure 21
1000
0100
1000
0000
,  // measure 22
0001
0010
0100
0010
,  // measure 23
0001
1000
0010
0100
,  // measure 24
2002
0000
0000
3000
,  // measure 25
0200
0003
0020
0330
,  // measure 26
1001
0001
0100
0001
,  // measure 27
1000
0100
0010
0100
,  // measure 28
0010
0001
0010
0100
,  // measure 29
1000
0100
1000
0001
,  // measure 30
1000
1000
0001
0001
,  // measure 31
0100
0100
0010
0010
,  // measure 32
1000
0010
0100
0001
,  // measure 33
2002
0000
0000
3003
,  // measure 34
1001
0000
0001
0000
,  // measure 35
1000
0000
0100
0110
,  // measure 36
0220
0330
2002
3003
,  // measure 37
1000
0001
0100
0010
,  // measure 38
2002
3003
0220
0330
,  // measure 39
0110
0110
1001
1001
,  // measure 40
0001
1000
0100
0010
,  // measure 41
0100
1000
0001
1000
,  // measure 42
2002
3003
0220
0330
,  // measure 43
0010
1000
0001
1000
,  // measure 44
0001
0010
0001
1000
,  // measure 45
1001
0000
0001
0100
,  // measure 46
0001
1000
0100
0010
,  // measure 47
0220
0000
0000
0000
,  // measure 48
0330
2002
0000
3003
,  // measure 49
1000
0001
2000
0000
,  // measure 50
0001
0002
0000
0000
,  // measure 51
0000
3003
1000
0100
,  // measure 52
0010
0001
0100
0010
,  // measure 53
1000
0010
0100
0000
,  // measure 54
0010
0100
0001
1001
,  // measure 55
0000
1000
0001
1000
,  // measure 56
0010
0100
0001
0100
,  // measure 57
0010
1000
1001
0000
,  // measure 58
0110
0000
1001
0000
,  // measure 59
0110
0000
0010
0001
,  // measure 60
1000
0100
1000
2002
,  // measure 61
3003
0001
0100
0220
,  // measure 62
0330
0010
1000
2002
,  // measure 63
3003
0001
0010
0100
,  // measure 64
0010
0001
2001
0000
,  // measure 65
0001
0001
0002
3003
,  // measure 66
0001
0100
0010
0100
,  // measure 67
0010
0000
0100
0010
,  // measure 68
1001
0000
1000
0100
,  // measure 69
0010
0001
0110
0000
,  // measure 70
1001
0001
1000
0010
,  // measure 71
0100
0001
1001
0000
,  // measure 72
0110
0000
1000
0100
,  // measure 73
0010
0001
1001
0000
,  // measure 74
1000
0001
0100
0000
,  // measure 75
0010
0100
0001
0100
,  // measure 76
0010
1000
0100
0010
,  // measure 77
0001
1000
0001
0000
,  // measure 78
1001
0000
0220
0000
,  // measure 79
0000
0000
0000
0000
,  // measure 80
0000
0000
0000
0000
,  // measure 81
0330
0000
0000
0000
;

//---------------dance-single - Oni-91----------------
#NOTEDATA:;
#CHARTNAME:;
#STEPSTYPE:dance-single;
#DESCRIPTION:Oni-91;
#CHARTSTYLE:;
#DIFFICULTY:Beginner;
#METER:2;
#RADARVALUES:0.159318,0.310444,0.181916,0.000000,0.000000,141.000000,118.000000,23.000000,0.000000,0.000000,0.000000,0.000000,0.000000,0.000000,0.159318,0.310444,0.181916,0.000000,0.000000,141.000000,118.000000,23.000000,0.000000,0.000000,0.000000,0.000000,0.000000,0.000000;
#CREDIT:Oni-91;
#NOTES:
// measure 0
1000
0000
0000
0001
,  // measure 1
0000
0000
0100
0000
,  // measure 2
0000
0100
0000
1001
,  // measure 3
0000
0000
0000
0110
,  // measure 4
0000
0000
0000
0000
,  // measure 5
0000
0000
0000
0000
,  // measure 6
0000
0000
0000
0000
,  // measure 7
1001
0000
0000
0000
,  // measure 8
0000
0000
0000
0000
,  // measure 9
1000
0000
0001
0000
,  // measure 10
1000
0000
0000
0000
,  // measure 11
0010
0000
0100
0000
,  // measure 12
0010
0000
0100
0000
,  // measure 13
0001
0000
0000
0000
,  // measure 14
1000
0000
0001
0000
,  // measure 15
1000
0000
0100
0000
,  // measure 16
0010
0000
0000
0000
,  // measure 17
0100
0000
0000
0000
,  // measure 18
0010
0000
0001
0000
,  // measure 19
1000
0000
0001
0000
,  // measure 20
0100
0000
0010
0000
,  // measure 21
0100
0000
0010
0000
,  // measure 22
1000
0000
0001
0000
,  // measure 23
1000
0000
0000
0000
,  // measure 24
1001
0000
0000
0000
,  // measure 25
0000
0000
0000
0000
,  // measure 26
1000
0000
1000
0000
,  // measure 27
0001
0000
0001
0000
,  // measure 28
0100
0000
0010
0000
,  // measure 29
0100
0000
0000
0000
,  // measure 30
0000
1001
0000
1001
,  // measure 31
0000
1001
0000
1001
,  // measure 32
0000
1001
0000
0000
,  // measure 33
0110
0000
0000
0000
,  // measure 34
1000
0000
0000
0000
,  // measure 35
0001
0000
0000
0000
,  // measure 36
0010
0000
0100
0000
,  // measure 37
0010
0000
0100
0000
,  // measure 38
0010
0000
0000
0000
,  // measure 39
1001
0000
0000
0000
,  // measure 40
1000
0000
0001
0000
,  // measure 41
0100
0000
0010
0000
,  // measure 42
1000
0000
0001
0000
,  // measure 43
0100
0000
0001
0000
,  // measure 44
1000
0000
1000
0000
,  // measure 45
1001
0000
0000
0000
,  // measure 46
0000
0000
0000
0000
,  // measure 47
0110
0000
0000
0000
,  // measure 48
0000
1001
0000
0000
,  // measure 49
0001
0000
1000
0000
,  // measure 50
0001
0000
0000
0000
,  // measure 51
0000
0000
0001
0000
,  // measure 52
0100
0000
0001
0000
,  // measure 53
1000
0000
0100
0000
,  // measure 54
0100
0000
0010
0010
,  // measure 55
0000
0000
0001
0000
,  // measure 56
1000
0000
0001
0000
,  // measure 57
0100
0000
0010
0000
,  // measure 58
0010
0000
0100
0000
,  // measure 59
0100
0000
1001
0000
,  // measure 60
0001
0000
1001
0000
,  // measure 61
1000
0000
0100
0000
,  // measure 62
0010
0000
0100
0000
,  // measure 63
1000
0000
0001
0000
,  // measure 64
0001
0000
1001
0000
,  // measure 65
0000
0000
0000
0000
,  // measure 66
0000
0000
0110
0000
,  // measure 67
0010
0000
0100
0000
,  // measure 68
0001
0000
1000
0000
,  // measure 69
0001
0000
0010
0000
,  // measure 70
0100
0000
0010
0000
,  // measure 71
0001
0000
1001
0000
,  // measure 72
0000
0000
0110
0000
,  // measure 73
0000
0000
1001
0000
,  // measure 74
0000
0000
1001
0000
,  // measure 75
0000
0000
0001
0000
,  // measure 76
0100
0000
0001
0000
,  // measure 77
1000
0000
0001
0000
,  // measure 78
1000
0000
1001
0000
;
