#VERSION:0.83;
#TITLE:Numb;
#SUBTITLE:;
#ARTIST:Alice in Videoland;
#TITLETRANSLIT:;
#SUBTITLETRANSLIT:;
#ARTISTTRANSLIT:;
#GENRE:;
#ORIGIN:;
#CREDIT:;
#BANNER:Numb.png;
#BACKGROUND:Numb-bg.png;
#PREVIEWVID:;
#JACKET:;
#CDIMAGE:;
#DISCIMAGE:;
#LYRICSPATH:;
#CDTITLE:;
#MUSIC:Numb.mp3;
#OFFSET:-9.120000;
#SAMPLESTART:45.439999;
#SAMPLELENGTH:14.540000;
#SELECTABLE:YES;
#BPMS:0.000=132.000;
#STOPS:;
#DELAYS:;
#WARPS:;
#TIMESIGNATURES:0.000=4=4;
#TICKCOUNTS:0.000=4;
#COMBOS:0.000=1;
#SPEEDS:0.000=1.000=0.000=0;
#SCROLLS:0.000=1.000;
#FAKES:;
#LABELS:0.000=Song Start;
#BGCHANGES:;
#KEYSOUNDS:;
#ATTACKS:
;

//---------------dance-single - Oni-91----------------
#NOTEDATA:;
#CHARTNAME:;
#STEPSTYPE:dance-single;
#DESCRIPTION:Oni-91;
#CHARTSTYLE:;
#DIFFICULTY:Hard;
#METER:7;
#RADARVALUES:0.380040,0.415004,0.115279,0.248293,0.004434,300.000000,287.000000,13.000000,28.000000,0.000000,0.000000,0.000000,0.000000,0.000000,0.380040,0.415004,0.115279,0.248293,0.004434,300.000000,287.000000,13.000000,28.000000,0.000000,0.000000,0.000000,0.000000,0.000000;
#CREDIT:Oni-91;
#NOTES:
// measure 0
2002
0000
3003
0000
1000
0010
0100
0002
,  // measure 1
0000
0000
0003
0000
1000
0100
0010
0002
,  // measure 2
0000
0000
0003
0000
1000
0010
0100
0002
,  // measure 3
0000
0000
1003
0001
0000
0001
1000
0010
,  // measure 4
0100
0000
0000
1000
0010
0100
0001
2000
,  // measure 5
0000
0000
3000
1000
0100
0010
0001
2000
,  // measure 6
0000
0000
3000
1000
0010
0100
0001
2000
,  // measure 7
0000
0000
3100
1000
0000
1000
0100
0010
,  // measure 8
0001
0000
1001
0000
1000
0100
0010
0001
,  // measure 9
0100
0000
0101
0000
0001
0010
0100
0010
,  // measure 10
0100
0000
0110
0000
0100
1000
0001
0100
,  // measure 11
0000
0010
0100
0001
0000
1000
0100
0010
,  // measure 12
0001
0100
0101
0000
0001
1000
0010
0100
,  // measure 13
0001
1000
1100
0000
1000
0100
0001
0100
,  // measure 14
1000
0001
1001
0000
1000
0100
0010
0100
,  // measure 15
0000
0010
0001
0100
0000
0010
1000
0001
,  // measure 16
2000
0000
0000
0010
0000
0000
0000
0002
,  // measure 17
0000
0000
0000
3003
,  // measure 18
0220
0000
0000
0000
,  // measure 19
0330
0000
0000
0000
0000
0000
0000
0000
0000
0000
0000
0000
1000
0000
0001
1000
,  // measure 20
0001
0100
0010
0100
0001
1000
0100
0000
,  // measure 21
0010
0001
0100
1000
0000
0100
0001
0000
,  // measure 22
0010
0001
0100
0010
1000
0001
1000
0100
,  // measure 23
0000
0010
0100
1000
0100
0010
0001
0000
,  // measure 24
1000
0010
1000
0010
0100
0001
0100
0000
,  // measure 25
0001
0010
0100
0010
0000
0001
0010
0001
,  // measure 26
0100
1000
0100
0001
0000
1000
0010
0001
,  // measure 27
0000
1000
0100
0010
1000
1000
1000
1000
,  // measure 28
1000
0100
0010
0002
0000
0100
0103
0001
,  // measure 29
1000
0100
0010
0200
0000
0000
1300
0100
,  // measure 30
0001
0100
1000
0020
0000
0031
0010
2000
,  // measure 31
0000
3001
0010
0002
0000
1003
1001
0000
,  // measure 32
0001
0100
0010
1000
0001
0010
0100
0000
,  // measure 33
0010
0001
0100
1000
0100
0010
1000
0001
,  // measure 34
1000
0100
0010
0002
0000
0010
0010
0023
,  // measure 35
0000
0100
0100
0200
0000
0000
0330
0000
,  // measure 36
2001
0001
0001
0001
,  // measure 37
0010
0010
0010
3010
,  // measure 38
0102
0100
0100
0000
0100
0000
0100
0000
,  // measure 39
1000
0000
1000
0000
1003
0001
0000
0001
,  // measure 40
0020
0100
0100
0100
,  // measure 41
0001
0001
0001
0031
,  // measure 42
0210
0010
0010
0000
0001
0000
0001
0000
,  // measure 43
0010
0000
0010
0000
1000
0000
1300
0100
,  // measure 44
0020
0001
0100
0001
,  // measure 45
0230
1000
0001
1300
,  // measure 46
1000
0100
0001
1000
0010
0001
1000
0100
,  // measure 47
0001
1000
0010
0001
1000
0100
0001
0100
,  // measure 48
2000
0010
0001
0100
,  // measure 49
3002
0010
1000
0103
,  // measure 50
0010
0001
0100
0010
1000
0100
0010
0001
,  // measure 51
0100
0010
1000
0100
0010
0001
0100
0010
,  // measure 52
1001
0000
0000
0000
;

//---------------dance-single - Oni-91----------------
#NOTEDATA:;
#CHARTNAME:;
#STEPSTYPE:dance-single;
#DESCRIPTION:Oni-91;
#CHARTSTYLE:;
#DIFFICULTY:Medium;
#METER:5;
#RADARVALUES:0.267295,0.299725,0.070941,0.319234,0.000000,211.000000,203.000000,8.000000,36.000000,0.000000,0.000000,0.000000,0.000000,0.000000,0.267295,0.299725,0.070941,0.319234,0.000000,211.000000,203.000000,8.000000,36.000000,0.000000,0.000000,0.000000,0.000000,0.000000;
#CREDIT:Oni-91;
#NOTES:
// measure 0
2002
0000
3003
0000
1000
0000
0002
2000
,  // measure 1
0000
0000
3003
0000
0001
0000
0200
0020
,  // measure 2
0000
0000
0330
0000
0010
0000
1000
0200
,  // measure 3
0000
0000
0310
0001
0000
1000
0002
2000
,  // measure 4
0000
0000
3003
0000
0001
0000
0002
0200
,  // measure 5
0000
0000
0303
0000
0100
0000
0200
0020
,  // measure 6
0000
0000
0330
0000
0010
0000
0010
2000
,  // measure 7
0000
0000
3100
0010
0000
0010
0001
1000
,  // measure 8
0001
0000
0100
0000
0010
0000
1000
0200
,  // measure 9
0000
0000
0310
0000
0001
0000
1000
0002
,  // measure 10
0000
0000
0103
0000
0001
0000
1000
0100
,  // measure 11
0000
0100
1000
0002
0000
0100
0103
0000
,  // measure 12
0001
0000
1000
0000
0100
0000
1000
0002
,  // measure 13
0000
0000
0103
0000
0001
0000
0010
0200
,  // measure 14
0000
0000
0310
0000
0001
0000
1000
0001
,  // measure 15
0000
0001
1000
0020
0000
0100
0130
0000
,  // measure 16
2001
0000
0000
0001
0000
0000
0000
0002
,  // measure 17
0000
0000
0000
3003
,  // measure 18
0220
0000
0000
0000
,  // measure 19
0330
0000
0000
0000
,  // measure 20
1001
0000
0001
1000
0000
1000
0100
0000
,  // measure 21
0010
0000
0001
0100
0000
0100
0001
0000
,  // measure 22
0010
0000
0001
0000
1000
0000
0010
0100
,  // measure 23
0000
0100
0001
1000
0000
1000
0001
0000
,  // measure 24
1000
0000
0010
0100
0000
0100
0010
0000
,  // measure 25
1000
0000
0001
1000
0000
1000
0001
0000
,  // measure 26
1000
0000
0100
0000
1000
0000
0001
0100
,  // measure 27
0000
0100
0001
2000
0000
0000
3000
0000
,  // measure 28
1001
0000
1000
0100
0000
0100
1000
0000
,  // measure 29
0001
0000
0100
0001
0000
0001
0100
0000
,  // measure 30
0001
1000
0001
1000
0000
0001
1000
0000
,  // measure 31
0001
0000
0010
0001
0000
0001
0100
0000
,  // measure 32
0010
0000
1000
0100
0000
0010
0001
0100
,  // measure 33
0010
0000
1000
0001
0000
0001
1000
0000
,  // measure 34
0001
0010
0100
1000
0000
0100
0010
0001
,  // measure 35
0000
0010
0001
2000
0000
0000
3010
0000
,  // measure 36
0220
0000
0000
0030
,  // measure 37
0002
0000
0000
0300
,  // measure 38
2000
0000
0000
0003
,  // measure 39
0200
0000
0000
3300
,  // measure 40
0022
0000
0000
0030
,  // measure 41
0200
0000
0000
0003
,  // measure 42
0020
0000
0000
0300
,  // measure 43
2000
0000
0000
3030
,  // measure 44
1000
0000
0001
0000
1000
0001
0100
0000
,  // measure 45
0010
1000
0100
0000
0010
0001
0100
0000
,  // measure 46
0001
1000
0000
1000
0100
0000
0100
0010
,  // measure 47
0000
0010
0001
0000
1000
0001
1000
0000
,  // measure 48
0001
0000
0010
0000
0100
0010
0100
0000
,  // measure 49
0010
0001
1000
0000
0001
1000
0010
0000
,  // measure 50
0100
0010
0000
0010
0100
0000
0100
0001
,  // measure 51
0000
0001
0010
0000
0001
1000
0001
0000
,  // measure 52
1001
0000
0000
0000
;

//---------------dance-single - Oni-91----------------
#NOTEDATA:;
#CHARTNAME:;
#STEPSTYPE:dance-single;
#DESCRIPTION:Oni-91;
#CHARTSTYLE:;
#DIFFICULTY:Easy;
#METER:3;
#RADARVALUES:0.168485,0.230558,0.070941,0.195087,0.000000,133.000000,125.000000,8.000000,22.000000,0.000000,0.000000,0.000000,0.000000,0.000000,0.168485,0.230558,0.070941,0.195087,0.000000,133.000000,125.000000,8.000000,22.000000,0.000000,0.000000,0.000000,0.000000,0.000000;
#CREDIT:Oni-91;
#NOTES:
// measure 0
2002
0000
0000
0000
0000
3000
0000
0000
,  // measure 1
0200
0000
0000
0000
0000
0003
0000
0000
,  // measure 2
0020
0000
0000
0000
0000
0300
0000
0000
,  // measure 3
2000
0000
0000
0000
0000
3030
0000
0000
,  // measure 4
2002
0000
0000
0000
0000
0003
0000
0000
,  // measure 5
0200
0000
0000
0000
0000
3000
0000
0000
,  // measure 6
0020
0000
0000
0000
0000
0300
0000
0000
,  // measure 7
0002
0000
0000
0000
0000
0033
0000
0000
,  // measure 8
0001
1000
0100
0000
,  // measure 9
0010
0001
1000
0000
,  // measure 10
0001
0100
0010
1000
,  // measure 11
0100
0010
0001
0000
,  // measure 12
1001
0000
1000
0010
,  // measure 13
0100
0000
0010
0100
,  // measure 14
0001
0000
1000
0001
,  // measure 15
0100
0010
0010
0100
,  // measure 16
0220
0000
0000
0330
,  // measure 17
2002
0000
0000
3003
,  // measure 18
0220
0000
0000
0000
,  // measure 19
0330
0000
0000
0000
,  // measure 20
1000
0100
1000
0000
,  // measure 21
0001
0010
0001
0000
,  // measure 22
1000
0100
0010
0001
,  // measure 23
0100
0010
0100
0000
,  // measure 24
0010
1000
0100
0000
,  // measure 25
0010
0001
0100
0000
,  // measure 26
0001
0100
1000
0100
,  // measure 27
0001
1000
0100
0000
,  // measure 28
0010
0001
0100
0000
,  // measure 29
0001
0010
0100
0000
,  // measure 30
0010
0001
0100
1000
,  // measure 31
0100
0001
1000
0100
,  // measure 32
0010
0100
0010
0000
,  // measure 33
0100
1000
0100
0000
,  // measure 34
0010
0001
1000
0100
,  // measure 35
0010
0100
1000
0001
,  // measure 36
2002
0000
0000
0000
,  // measure 37
0000
0000
3000
0000
,  // measure 38
0200
0000
0000
0000
,  // measure 39
0000
0000
0003
0000
,  // measure 40
0020
0000
0000
0000
,  // measure 41
0000
0000
0300
0000
,  // measure 42
2000
0000
0030
0000
,  // measure 43
0002
0000
0000
3003
,  // measure 44
1000
1000
0001
0001
,  // measure 45
1000
0001
1000
0001
,  // measure 46
1000
0000
0000
0100
0000
0000
0010
0000
,  // measure 47
0000
0001
0000
0000
0100
0000
0010
0000
,  // measure 48
0100
0100
0010
0010
,  // measure 49
0100
0010
0100
0010
,  // measure 50
1000
0000
0000
0001
0000
0000
1000
0000
,  // measure 51
0000
0001
0000
0000
0010
0000
0100
0000
,  // measure 52
0110
0000
0000
0000
;

//---------------dance-single - Oni-91----------------
#NOTEDATA:;
#CHARTNAME:;
#STEPSTYPE:dance-single;
#DESCRIPTION:Oni-91;
#CHARTSTYLE:;
#DIFFICULTY:Beginner;
#METER:1;
#RADARVALUES:0.088676,0.138335,0.062073,0.053206,0.000000,70.000000,63.000000,7.000000,6.000000,0.000000,0.000000,0.000000,0.000000,0.000000,0.088676,0.138335,0.062073,0.053206,0.000000,70.000000,63.000000,7.000000,6.000000,0.000000,0.000000,0.000000,0.000000,0.000000;
#CREDIT:Oni-91;
#NOTES:
// measure 0
1001
0000
0000
0000
,  // measure 1
1000
0000
0000
0000
,  // measure 2
0001
0000
0000
0000
,  // measure 3
0010
0000
0000
0000
,  // measure 4
0100
0000
0000
0000
,  // measure 5
0100
0000
0000
0000
,  // measure 6
0010
0000
0000
0000
,  // measure 7
0010
0000
0000
0000
,  // measure 8
1001
0000
0000
0000
,  // measure 9
1000
0000
0000
0000
,  // measure 10
0001
0000
0000
0000
,  // measure 11
0010
0000
0001
0000
,  // measure 12
0100
0000
0000
0000
,  // measure 13
0010
0000
0000
0000
,  // measure 14
1000
0000
0000
0000
,  // measure 15
0001
0000
1000
0000
,  // measure 16
0200
0000
0000
0000
,  // measure 17
0000
0000
0000
0000
,  // measure 18
0300
0000
0000
0000
,  // measure 19
0000
0000
0000
0000
,  // measure 20
1001
0000
1000
0000
,  // measure 21
0100
0000
0000
0000
,  // measure 22
1000
0000
0100
0000
,  // measure 23
0010
0000
0000
0000
,  // measure 24
0001
0000
1000
0000
,  // measure 25
0001
0000
0000
0000
,  // measure 26
1000
0000
0010
0000
,  // measure 27
0100
0000
0001
0000
,  // measure 28
1001
0000
0000
0000
,  // measure 29
1000
0000
0100
0000
,  // measure 30
1000
0000
0000
0000
,  // measure 31
0001
0000
0010
0000
,  // measure 32
0001
0000
0000
0000
,  // measure 33
1000
0000
0100
0000
,  // measure 34
0001
0000
0100
0000
,  // measure 35
1000
0000
0001
0000
,  // measure 36
2002
0000
0000
0000
,  // measure 37
0000
0000
3003
0000
,  // measure 38
0200
0000
0000
0000
,  // measure 39
0000
0000
0300
0000
,  // measure 40
0020
0000
0000
0000
,  // measure 41
0000
0000
0030
0000
,  // measure 42
2000
0000
0000
0000
,  // measure 43
0000
0000
3000
0000
,  // measure 44
1001
0000
1000
0000
,  // measure 45
0100
0000
0010
0000
,  // measure 46
0001
0000
0000
0000
,  // measure 47
1000
0000
0000
0000
,  // measure 48
0001
0000
0100
0000
,  // measure 49
0010
0000
1000
0000
,  // measure 50
0001
0000
0000
0000
,  // measure 51
1000
0000
0001
0000
,  // measure 52
1001
0000
0000
0000
;
