#TITLE:Na Na Na;
#SUBTITLE:;
#ARTIST:My Chemical Romance;
#TITLETRANSLIT:;
#SUBTITLETRANSLIT:;
#ARTISTTRANSLIT:;
#GENRE:;
#CREDIT:;
#BANNER:Na Na Na.png;
#BACKGROUND:Na Na Na-bg.png;
#LYRICSPATH:;
#CDTITLE:;
#MUSIC:Na Na Na.mp3;
#OFFSET:-5.810000;
#SAMPLESTART:34.730000;
#SAMPLELENGTH:11.560000;
#SELECTABLE:YES;
#DISPLAYBPM:166.000000;
#BPMS:0.000000=166.000000
,264.000000=150.000000
,265.000000=128.000000
;
#STOPS:184.000000=2.169000
;
#BGCHANGES:;
#KEYSOUNDS:;
#ATTACKS:;

//---------------dance-single - Oni-91----------------
#NOTES:
     dance-single:
     :
     Hard:
     8:
     0.545166,0.521035,0.267316,0.119831,0.004609,414.000000,385.000000,29.000000,13.000000,0.000000,0.000000,0.545166,0.521035,0.267316,0.119831,0.004609,414.000000,385.000000,29.000000,13.000000,0.000000,0.000000:
// measure 0
1001
0000
0001
0000
0100
0001
1000
0000
,  // measure 1
0001
0000
0000
0000
1000
0000
0000
1000
0010
0000
1000
0000
0001
0000
0000
0000
,  // measure 2
0100
0000
0010
0100
0010
0000
0110
0000
,  // measure 3
1000
0001
1000
0001
1000
0001
1000
0001
,  // measure 4
0100
0000
0010
0100
0001
0000
0010
0100
,  // measure 5
0001
0000
1000
0001
1000
0000
0001
0000
,  // measure 6
0010
0000
0100
0010
0001
0000
0100
0010
,  // measure 7
0001
0000
1000
0001
1000
0001
0100
0000
,  // measure 8
0110
0000
1010
0000
1000
0000
0010
1000
,  // measure 9
0001
0000
1001
0000
1000
0000
0001
1000
,  // measure 10
0100
0000
0001
1000
0100
0000
0001
1000
,  // measure 11
0100
0010
0001
0010
0001
1000
0001
1000
,  // measure 12
0001
0000
0001
0000
0001
0000
0001
1000
,  // measure 13
0001
0000
1000
0000
0001
1000
0100
0010
,  // measure 14
0100
0000
0100
0000
0100
0000
0100
0010
,  // measure 15
0100
0000
0010
0000
0100
0010
0001
0100
,  // measure 16
0010
0000
0110
0000
0010
0000
0010
1000
,  // measure 17
0100
0000
0110
0000
0100
0000
0100
1000
,  // measure 18
0001
0000
1000
0001
1000
0000
0100
1000
,  // measure 19
0100
0010
0001
0010
0001
0000
0011
0000
,  // measure 20
1001
0000
1000
0001
0100
0000
0001
1000
,  // measure 21
0100
0000
0010
0100
1000
0100
0010
0001
,  // measure 22
0100
0000
0010
0100
0001
0000
1000
0001
,  // measure 23
1000
0100
0001
0100
1000
0010
0100
0001
,  // measure 24
0100
0000
0010
0100
0001
0000
0010
0100
,  // measure 25
1000
0000
0001
1000
0001
1000
0001
0000
,  // measure 26
1000
0000
0100
0000
0010
0001
0010
0000
,  // measure 27
1001
1010
0101
1001
,  // measure 28
0110
0000
0010
0001
0100
0000
0010
1000
,  // measure 29
0100
0000
1000
0100
0010
0001
0010
0001
,  // measure 30
1000
0000
0001
0100
0001
0000
1000
0010
,  // measure 31
1000
0010
0100
0001
0100
0001
1000
0100
,  // measure 32
1000
0000
0001
0010
0001
0000
1000
0010
,  // measure 33
1000
0000
0001
0100
0010
0100
0010
0000
,  // measure 34
1000
0000
0100
0000
0010
0100
1000
0000
,  // measure 35
1100
0011
0101
1010
,  // measure 36
1000
0000
0001
0100
0001
0100
0001
0000
,  // measure 37
1000
0000
0100
1000
0000
0000
0001
0000
,  // measure 38
0100
0000
0010
0100
0010
0100
0010
0000
,  // measure 39
1000
0000
0001
1000
0000
1000
0100
0000
,  // measure 40
1100
0000
1000
0000
0001
1000
0001
0000
,  // measure 41
0101
0000
0100
0000
0010
0100
0010
0000
,  // measure 42
0201
0000
0001
0001
0001
0000
0010
0010
,  // measure 43
0010
0000
0001
0001
0001
0000
0310
0010
,  // measure 44
0020
0100
1000
0100
,  // measure 45
1030
0100
0010
0001
0010
0100
1000
0010
,  // measure 46
0200
0000
0310
0000
1001
0000
1000
0100
,  // measure 47
1000
0000
0001
0100
0001
0100
0010
1000
,  // measure 48
0010
1000
0010
0000
1000
0000
0001
1000
,  // measure 49
0001
0000
1000
0100
1000
0100
0010
0001
,  // measure 50
0010
0001
0100
0000
1010
0000
1000
0100
,  // measure 51
0001
0000
0001
0100
1000
0100
0010
0001
,  // measure 52
1000
0100
0010
0000
0100
0000
1000
0000
,  // measure 53
0010
1000
0001
0000
0010
0001
0010
0001
,  // measure 54
1000
0100
1000
0001
1000
0100
1000
0100
,  // measure 55
0010
0001
0010
0001
1000
0010
1000
0010
,  // measure 56
0100
0100
0100
0000
0010
1000
0010
1000
,  // measure 57
0001
0100
0001
0010
0100
1000
0010
0100
,  // measure 58
0001
0001
0001
0000
1000
0100
0010
0001
,  // measure 59
0100
0010
1000
0010
0001
0010
1000
0100
,  // measure 60
0010
0010
0010
0000
0100
0000
0010
0000
,  // measure 61
0220
0330
0100
1000
,  // measure 62
2002
3003
1000
0010
,  // measure 63
0202
0303
0001
0010
,  // measure 64
2200
3300
1000
0001
,  // measure 65
0202
0303
0010
1000
,  // measure 66
0100
0010
0110
0000
;

//---------------dance-single - Oni-91----------------
#NOTES:
     dance-single:
     :
     Medium:
     5:
     0.418751,0.429088,0.202791,0.184356,0.000000,318.000000,296.000000,22.000000,20.000000,0.000000,0.000000,0.418751,0.429088,0.202791,0.184356,0.000000,318.000000,296.000000,22.000000,20.000000,0.000000,0.000000:
// measure 0
1001
1000
0100
0001
,  // measure 1
0100
0010
0001
0010
,  // measure 2
0001
1000
0001
0100
,  // measure 3
0010
0100
0010
0000
0100
0010
0100
0000
,  // measure 4
1001
1000
0001
0100
,  // measure 5
0010
0000
1000
0000
0001
1000
0001
0000
,  // measure 6
1000
0100
0010
0100
,  // measure 7
0010
0000
0001
0000
1000
0001
1000
0000
,  // measure 8
0010
0100
0001
0010
,  // measure 9
0100
0010
0001
0100
,  // measure 10
0010
0000
1000
0001
1000
0000
0001
1000
,  // measure 11
0001
0000
0100
0000
0010
0100
0001
0000
,  // measure 12
1001
1000
0100
1000
,  // measure 13
0001
0000
0100
0000
0001
0100
0001
0000
,  // measure 14
1000
0001
0010
0001
,  // measure 15
1000
0000
0010
0000
0100
0010
0100
0000
,  // measure 16
0010
1000
0100
0001
,  // measure 17
0100
1000
0010
0100
,  // measure 18
0001
0000
1000
0100
1000
0000
0001
0010
,  // measure 19
0001
0000
1000
0000
0001
1000
0001
0000
,  // measure 20
1010
0000
0010
1000
0010
0000
1000
0010
,  // measure 21
1000
0001
0010
0001
,  // measure 22
0011
0000
0010
0001
0010
0000
0001
0010
,  // measure 23
0001
1000
0100
0010
,  // measure 24
0110
0000
0010
0100
0010
0000
0100
0010
,  // measure 25
0100
1000
0001
0100
,  // measure 26
0001
0100
1000
0100
,  // measure 27
0001
0010
1000
0010
,  // measure 28
0110
0000
0100
1000
0100
0000
0010
0001
,  // measure 29
0010
0001
0100
0010
,  // measure 30
1010
0000
1000
0010
1000
0000
0001
0100
,  // measure 31
0001
1000
0100
0010
,  // measure 32
0011
0000
0001
0010
0001
0000
1000
0100
,  // measure 33
1000
0001
0100
0010
,  // measure 34
1000
0100
0001
0100
,  // measure 35
1000
0010
0100
0001
,  // measure 36
1002
1000
1000
1000
,  // measure 37
0100
0100
0100
0103
,  // measure 38
2010
0010
0010
0010
,  // measure 39
0001
0001
0001
3001
,  // measure 40
1002
1000
0010
0013
,  // measure 41
2100
0100
0001
3001
,  // measure 42
1001
0000
1000
0001
1000
0000
0001
1000
,  // measure 43
0001
0000
1000
0001
1000
0000
0001
1000
,  // measure 44
0002
0010
1000
0100
,  // measure 45
2000
0000
0000
3003
,  // measure 46
0220
0330
1001
0001
,  // measure 47
1000
0001
1000
0100
,  // measure 48
0010
0100
0010
0000
0100
0000
1000
0000
,  // measure 49
0001
0000
0100
0000
0010
0100
0001
0000
,  // measure 50
0100
0001
1000
0000
0001
0000
1000
0000
,  // measure 51
0100
0000
0010
0000
0100
1000
0001
0000
,  // measure 52
1000
0001
0100
0000
0002
0000
0010
0000
,  // measure 53
1000
0103
2000
0010
,  // measure 54
0001
3100
1000
0001
,  // measure 55
1000
0001
1000
0001
,  // measure 56
1000
0001
1000
0000
0010
0000
0100
0000
,  // measure 57
0010
0000
0100
0000
0010
0100
0001
0000
,  // measure 58
0001
0100
0010
0000
1000
0000
0010
0000
,  // measure 59
1000
0000
0010
0000
0100
0001
0010
0000
,  // measure 60
0010
0001
1000
0000
0001
0000
1000
0000
,  // measure 61
2002
3003
0001
0010
,  // measure 62
0022
0033
1000
0100
,  // measure 63
2200
3300
0100
0010
,  // measure 64
0220
0330
0010
0001
,  // measure 65
2002
3003
0001
1000
,  // measure 66
0010
0100
0110
0000
;

//---------------dance-single - Oni-91----------------
#NOTES:
     dance-single:
     :
     Easy:
     4:
     0.329206,0.306491,0.064524,0.101396,0.000000,250.000000,243.000000,7.000000,11.000000,0.000000,0.000000,0.329206,0.306491,0.064524,0.101396,0.000000,250.000000,243.000000,7.000000,11.000000,0.000000,0.000000:
// measure 0
1000
0001
1000
0000
,  // measure 1
0001
0100
0001
0000
,  // measure 2
1000
0010
0100
0001
,  // measure 3
2002
0000
0000
3003
,  // measure 4
1001
0000
0001
0000
,  // measure 5
1000
0001
1000
0001
,  // measure 6
0100
0000
0100
0000
,  // measure 7
0010
0100
0010
1000
,  // measure 8
0100
0010
0100
0000
,  // measure 9
0010
0001
0010
0000
,  // measure 10
0001
1000
0001
1000
,  // measure 11
0010
0100
0001
0010
,  // measure 12
0100
0010
0100
0000
,  // measure 13
0010
0001
0010
0001
,  // measure 14
1000
0010
0100
0000
,  // measure 15
0010
0100
0001
1000
,  // measure 16
0100
0100
0100
0000
,  // measure 17
0010
0010
0010
0000
,  // measure 18
0100
1000
0100
0010
,  // measure 19
0001
1000
0001
1000
,  // measure 20
0001
0001
0001
0001
,  // measure 21
1000
0001
1000
0001
,  // measure 22
1000
1000
1000
1000
,  // measure 23
0001
0100
0001
0100
,  // measure 24
0010
0010
0010
0010
,  // measure 25
0100
0010
1000
0010
,  // measure 26
0100
0001
0100
0000
,  // measure 27
0010
1000
0010
0000
,  // measure 28
1000
1000
1000
1000
,  // measure 29
0001
1000
0010
0100
,  // measure 30
0010
0010
0010
0010
,  // measure 31
0100
0001
0010
0100
,  // measure 32
1000
1000
1000
1000
,  // measure 33
0001
0100
0010
0100
,  // measure 34
0010
1000
0001
0000
,  // measure 35
0001
1000
0100
0010
,  // measure 36
0012
0010
0010
0010
,  // measure 37
0100
0100
0100
0100
,  // measure 38
1000
1000
1000
1000
,  // measure 39
0100
0100
0100
0103
,  // measure 40
2010
0010
0010
0010
,  // measure 41
0001
0001
0001
3001
,  // measure 42
1000
0001
1000
0001
,  // measure 43
1000
0001
1000
0001
,  // measure 44
0010
0100
0010
0100
,  // measure 45
0010
0100
0010
0100
,  // measure 46
0220
0330
1001
0001
,  // measure 47
1000
0001
1000
0001
,  // measure 48
0100
0010
0100
0010
,  // measure 49
0100
0010
0100
0010
,  // measure 50
1000
0001
1000
0001
,  // measure 51
1000
0001
1000
0100
,  // measure 52
0010
0001
0100
0100
,  // measure 53
0010
0010
1000
1000
,  // measure 54
0001
0001
1000
0001
,  // measure 55
1000
0001
1000
0100
,  // measure 56
0010
0100
0010
0100
,  // measure 57
0010
0100
0010
0001
,  // measure 58
1000
0001
1000
0001
,  // measure 59
1000
0001
1000
0010
,  // measure 60
0100
0001
0010
0010
,  // measure 61
0020
0030
0100
0100
,  // measure 62
0200
0300
1000
1000
,  // measure 63
2000
3000
0001
0001
,  // measure 64
0002
0003
0100
0100
,  // measure 65
0200
0300
0010
0100
,  // measure 66
0010
0100
0110
0000
;

//---------------dance-single - Oni-91----------------
#NOTES:
     dance-single:
     :
     Beginner:
     1:
     0.186989,0.245193,0.110613,0.000000,0.000000,142.000000,130.000000,12.000000,0.000000,0.000000,0.000000,0.186989,0.245193,0.110613,0.000000,0.000000,142.000000,130.000000,12.000000,0.000000,0.000000,0.000000:
// measure 0
1000
0000
0100
0000
,  // measure 1
1000
0000
0100
0000
,  // measure 2
0010
0000
0100
0000
,  // measure 3
0010
0000
0000
0000
,  // measure 4
1001
0000
0000
0000
,  // measure 5
0001
0000
1000
0000
,  // measure 6
0001
0000
0000
0000
,  // measure 7
0100
0000
0001
0000
,  // measure 8
0100
0000
0100
0000
,  // measure 9
0010
0000
0010
0000
,  // measure 10
0100
0000
0001
0000
,  // measure 11
1000
0000
0000
0000
,  // measure 12
1001
0000
0000
0000
,  // measure 13
0001
0000
1000
0000
,  // measure 14
0001
0000
0000
0000
,  // measure 15
1000
0000
0100
0000
,  // measure 16
1000
1000
1000
0000
,  // measure 17
0001
0001
0001
0000
,  // measure 18
0100
0000
0001
0000
,  // measure 19
1001
0000
0000
0000
,  // measure 20
1000
1000
1000
0000
,  // measure 21
0001
0000
1000
0000
,  // measure 22
0001
0001
0001
0000
,  // measure 23
1000
0000
0001
0000
,  // measure 24
0100
0100
0100
0000
,  // measure 25
0010
0000
0100
0000
,  // measure 26
0010
0000
1000
0000
,  // measure 27
0001
0000
1000
0000
,  // measure 28
0001
0001
0001
0000
,  // measure 29
1000
0000
0001
0000
,  // measure 30
1000
1000
1000
0000
,  // measure 31
0001
0000
1000
0000
,  // measure 32
0100
0100
0100
0000
,  // measure 33
0010
0000
0100
0000
,  // measure 34
0010
0000
0001
0000
,  // measure 35
1000
0000
0001
0000
,  // measure 36
1001
0000
0000
0000
,  // measure 37
1000
0000
0000
0000
,  // measure 38
0100
0000
0000
0000
,  // measure 39
0010
0000
0000
0000
,  // measure 40
0001
0000
0000
0000
,  // measure 41
0100
0000
0010
0000
,  // measure 42
0100
0000
0010
0000
,  // measure 43
0100
0000
0010
0000
,  // measure 44
0100
0000
0001
0000
,  // measure 45
1000
1000
1000
1000
,  // measure 46
1000
0000
1001
0000
,  // measure 47
0001
0000
0100
0100
,  // measure 48
0100
0000
0010
0000
,  // measure 49
1000
0000
0001
0001
,  // measure 50
0001
0000
1000
0000
,  // measure 51
0100
0000
0010
0000
,  // measure 52
0001
0000
1000
1000
,  // measure 53
1000
0000
0001
0001
,  // measure 54
0001
0000
1000
0000
,  // measure 55
0001
0000
0100
0000
,  // measure 56
0010
0000
1000
0000
,  // measure 57
0100
0000
0010
0000
,  // measure 58
0001
0000
1000
0000
,  // measure 59
0001
0000
1000
0000
,  // measure 60
0001
0000
1001
0000
,  // measure 61
0000
0000
0110
0000
,  // measure 62
0000
0000
1001
0000
,  // measure 63
0000
0000
0110
0000
,  // measure 64
0000
0000
1001
0000
,  // measure 65
0000
0000
0110
0000
,  // measure 66
0000
0000
1001
0000
;
