#TITLE:My Iron Lung;
#SUBTITLE:;
#ARTIST:Radiohead;
#TITLETRANSLIT:;
#SUBTITLETRANSLIT:;
#ARTISTTRANSLIT:;
#GENRE:;
#CREDIT:;
#BANNER:My Iron Lung.png;
#BACKGROUND:My Iron Lung-bg.png;
#LYRICSPATH:;
#CDTITLE:;
#MUSIC:My Iron Lung.mp3;
#OFFSET:-9.709999;
#SAMPLESTART:49.349998;
#SAMPLELENGTH:8.820000;
#SELECTABLE:YES;
#DISPLAYBPM:97.000000:110.000000;
#BPMS:0.000000=98.000000
,8.000000=97.000000
,16.000000=96.000000
,24.000000=95.000000
,28.000000=97.000000
,32.000000=96.000000
,56.000000=94.000000
,60.000000=99.000000
,61.000000=107.000000
,63.000000=102.000000
,64.000000=109.000000
,72.000000=107.000000
,76.000000=110.000000
,80.000000=109.000000
,104.000000=110.000000
,112.000000=109.000000
,116.000000=110.000000
,120.000000=109.000000
,128.000000=107.000000
,132.000000=102.000000
,136.000000=105.000000
,144.000000=103.000000
,152.000000=107.000000
,156.000000=109.000000
,160.000000=110.000000
,164.000000=109.000000
,172.000000=112.000000
,176.000000=109.000000
,180.000000=110.000000
,184.000000=111.000000
;
#STOPS:
;
#BGCHANGES:;
#KEYSOUNDS:;
#ATTACKS:;

//---------------dance-single - Oni-91----------------
#NOTES:
     dance-single:
     :
     Hard:
     8:
     0.429907,0.528471,0.334372,0.195730,0.195730,369.000000,328.000000,41.000000,24.000000,0.000000,0.000000,0.429907,0.528471,0.334372,0.195730,0.195730,369.000000,328.000000,41.000000,24.000000,0.000000,0.000000:
// measure 0
2002
0000
0003
0000
3010
0000
1000
0100
,  // measure 1
1000
0000
0001
0010
0000
0100
1000
0001
,  // measure 2
0202
0000
0003
0000
0310
0000
1000
0010
,  // measure 3
0100
0001
0000
1000
0100
0010
0100
0100
,  // measure 4
0010
0001
1000
0100
1000
0020
0000
0100
,  // measure 5
0000
0000
1030
0010
1000
0001
0010
0100
,  // measure 6
0010
0000
0001
1000
0001
0000
0100
0010
,  // measure 7
1000
0010
0001
0010
1000
0010
0100
0010
,  // measure 8
2002
0000
3003
0000
0001
0010
0000
0100
,  // measure 9
1000
0100
1000
0001
0000
0100
0001
1000
,  // measure 10
0010
0000
0110
0000
0100
0001
0000
1000
,  // measure 11
0100
1000
0001
0200
0000
1000
0000
0310
,  // measure 12
0100
0001
1000
0000
0001
0010
0100
0010
,  // measure 13
0001
1000
0001
0100
0000
0010
1000
0001
,  // measure 14
1001
0000
1000
0100
1100
0000
0001
0010
,  // measure 15
0001
0000
0001
0000
1000
0000
1000
0000
0001
0100
0001
0000
1000
0010
1000
0000
,  // measure 16
0010
0000
0100
0000
1001
0000
0000
0001
0010
0000
0100
0000
1001
0000
0000
0000
,  // measure 17
1000
0000
0100
0000
0010
0000
0100
0000
0010
0001
0100
0000
0010
0000
1002
0000
,  // measure 18
0000
0000
0103
0000
0010
0000
1000
0000
0010
1000
0001
0000
1000
0000
0100
0000
,  // measure 19
0010
0000
0010
0000
0100
0000
0100
0000
0010
0001
0100
0000
0010
1000
0100
0000
,  // measure 20
1000
0010
0101
0000
0001
0010
1100
0000
,  // measure 21
0010
0000
0001
0000
1000
0000
0010
0100
0010
0100
0001
0000
1000
0000
1001
0000
,  // measure 22
0000
0000
0001
0000
0010
0000
0001
0100
0010
0100
0001
0000
1000
0000
0100
0000
,  // measure 23
0010
0000
0010
0000
0001
0000
0001
0000
1000
0010
0100
0000
0010
0100
0001
0000
,  // measure 24
1001
0000
1000
0010
1000
0100
0000
0000
0010
0000
0001
0010
0001
0100
0000
0000
,  // measure 25
0001
0000
1000
0000
0010
0100
0010
0000
1000
0000
0100
0000
0010
0000
1100
0000
,  // measure 26
0000
0000
0001
0000
0101
0000
0100
0001
0100
0010
1000
0000
0001
0000
1000
0000
,  // measure 27
0001
0000
0001
0000
1000
0000
1000
0000
0001
0010
0100
0000
0010
0100
1000
0000
,  // measure 28
0001
0100
2002
3003
1000
0100
2002
3003
,  // measure 29
1000
0100
0011
0100
1000
0010
0100
2002
,  // measure 30
3003
0000
1000
0000
0001
0000
0100
0010
0100
0000
0010
0000
1001
0000
0000
0000
,  // measure 31
0001
0000
0010
0000
0100
0000
0010
0000
0100
1000
0100
0000
0010
0001
0010
0000
,  // measure 32
2002
0000
0000
3000
,  // measure 33
0200
0000
0000
0003
,  // measure 34
0020
0000
0000
0300
,  // measure 35
2000
0000
0000
0030
,  // measure 36
0200
0000
0000
3000
,  // measure 37
0020
0000
0000
0300
,  // measure 38
0002
0000
0000
0033
,  // measure 39
0001
0000
1000
0000
0001
0000
1000
0000
0001
0100
0010
1000
0010
0100
0001
0000
,  // measure 40
1000
0010
1000
1010
0000
0000
0001
0010
0001
0011
0000
0000
,  // measure 41
1000
0000
0100
0000
0010
0000
0001
0000
0010
0000
0100
0000
1000
0000
0000
0001
0000
0000
0100
0000
0000
0110
0000
0000
,  // measure 42
0010
1010
1000
1001
0001
0011
0010
0110
,  // measure 43
0100
0000
0110
0000
0010
0000
0011
0000
0001
0100
0010
0000
1000
0100
0010
0000
,  // measure 44
1000
0100
0010
0011
0000
0000
0001
0100
0010
1010
0000
0000
,  // measure 45
0100
0000
1000
0000
0010
0000
0100
0000
0120
0000
0000
0000
0000
0000
0000
1000
0000
0000
1030
0000
0000
1001
0000
0000
,  // measure 46
0001
0011
0010
0110
0100
0110
0010
0011
,  // measure 47
0001
0000
1001
0000
1000
0000
1010
0000
0010
1000
0010
0100
0001
1000
0001
0000
,  // measure 48
1001
0000
0000
0000
;

//---------------dance-single - Oni-91----------------
#NOTES:
     dance-single:
     :
     Beginner:
     1:
     0.108350,0.137011,0.057088,0.000000,0.000000,93.000000,86.000000,7.000000,0.000000,0.000000,0.000000,0.108350,0.137011,0.057088,0.000000,0.000000,93.000000,86.000000,7.000000,0.000000,0.000000,0.000000:
// measure 0
1001
0000
0000
0000
,  // measure 1
0001
0000
1000
0000
,  // measure 2
0001
0000
0000
0000
,  // measure 3
0100
0000
0010
0000
,  // measure 4
0100
0000
0000
0000
,  // measure 5
0010
0000
0000
0000
,  // measure 6
1000
0000
1000
0000
,  // measure 7
1000
0000
0000
0000
,  // measure 8
1001
0000
0000
0000
,  // measure 9
0001
0000
0010
0000
,  // measure 10
0001
0000
0000
0000
,  // measure 11
1000
0000
0100
0000
,  // measure 12
1000
0000
0000
0000
,  // measure 13
0001
0000
0000
0000
,  // measure 14
0010
0000
0010
0000
,  // measure 15
0100
0100
0100
0000
,  // measure 16
1001
0000
0001
0000
,  // measure 17
1000
0000
0001
0001
,  // measure 18
0000
0100
0000
0010
,  // measure 19
0010
0000
1000
0000
,  // measure 20
1000
0000
0001
0000
,  // measure 21
1000
0000
0100
0100
,  // measure 22
0000
0010
0000
0001
,  // measure 23
0001
0000
1000
0000
,  // measure 24
1001
0000
0001
0000
,  // measure 25
0100
0000
0010
0000
,  // measure 26
1000
0000
1000
0000
,  // measure 27
0001
0000
0001
0000
,  // measure 28
1001
0000
1000
0000
,  // measure 29
0100
0000
0010
0000
,  // measure 30
0100
0000
0100
0000
,  // measure 31
0010
0000
0010
0000
,  // measure 32
0110
0000
0000
0000
,  // measure 33
0100
0000
0000
0000
,  // measure 34
1000
0000
0000
0000
,  // measure 35
0001
0000
0000
0000
,  // measure 36
1000
0000
0000
0000
,  // measure 37
0001
0000
0000
0000
,  // measure 38
0100
0000
0000
0000
,  // measure 39
0100
0100
0100
0100
,  // measure 40
0010
0000
0100
0000
,  // measure 41
0001
0000
0001
0000
,  // measure 42
1000
0000
1000
0000
,  // measure 43
0100
0000
0010
0000
,  // measure 44
0100
0000
0010
0000
,  // measure 45
0001
0000
0001
0000
,  // measure 46
1000
0000
1000
0000
,  // measure 47
0001
0000
0100
0000
,  // measure 48
0110
0000
0000
0000
;

//---------------dance-single - Oni-91----------------
#NOTES:
     dance-single:
     :
     Easy:
     3:
     0.160778,0.254449,0.130487,0.097865,0.000000,138.000000,122.000000,16.000000,12.000000,0.000000,0.000000,0.160778,0.254449,0.130487,0.097865,0.000000,138.000000,122.000000,16.000000,12.000000,0.000000,0.000000:
// measure 0
2002
0000
0000
3003
,  // measure 1
0001
0000
1000
0000
,  // measure 2
0200
0000
0300
0000
,  // measure 3
0010
0000
0001
0000
,  // measure 4
0100
0000
0010
0000
,  // measure 5
0100
0000
0001
0000
,  // measure 6
1000
0000
1000
0000
,  // measure 7
1000
0001
1000
0001
,  // measure 8
0200
0000
0300
0000
,  // measure 9
0010
0000
0100
0000
,  // measure 10
0002
0000
0003
0000
,  // measure 11
1000
0000
0100
0000
,  // measure 12
0010
0000
0010
0000
,  // measure 13
0100
0000
0010
0000
,  // measure 14
0001
0000
1000
0000
,  // measure 15
0001
0001
1000
1000
,  // measure 16
0000
1001
0000
1001
,  // measure 17
0000
0001
0100
0010
,  // measure 18
0000
0110
0000
0010
,  // measure 19
0100
0010
1000
0001
,  // measure 20
0000
1001
0000
0110
,  // measure 21
0000
0010
1000
0001
,  // measure 22
0000
0110
0000
1001
,  // measure 23
0000
1000
0100
0010
,  // measure 24
0001
0000
1000
0000
,  // measure 25
0001
0100
0010
1000
,  // measure 26
0100
0010
0001
0010
,  // measure 27
0001
1000
0001
0100
,  // measure 28
0010
0000
0100
0000
,  // measure 29
0010
1000
0010
0100
,  // measure 30
0001
0010
0001
1000
,  // measure 31
0100
0010
0001
1000
,  // measure 32
1002
0000
0000
0000
,  // measure 33
0023
0000
0000
0000
,  // measure 34
0032
0000
0000
0000
,  // measure 35
2003
0000
0000
0000
,  // measure 36
3200
0000
0000
0000
,  // measure 37
0320
0000
0000
0000
,  // measure 38
0032
0000
0000
0003
,  // measure 39
1001
1001
1001
1001
,  // measure 40
0001
1000
0100
0010
,  // measure 41
0100
0100
0010
0010
,  // measure 42
0001
1000
0001
0000
,  // measure 43
1001
0000
0110
0000
,  // measure 44
0010
0100
0010
0010
,  // measure 45
1000
1000
0001
1000
,  // measure 46
0100
0010
0001
1000
,  // measure 47
0001
0001
0100
0100
,  // measure 48
1001
0000
0000
0000
;

//---------------dance-single - Oni-91----------------
#NOTES:
     dance-single:
     :
     Medium:
     5:
     0.266798,0.274022,0.138642,0.130487,0.000000,229.000000,212.000000,17.000000,16.000000,0.000000,0.000000,0.266798,0.274022,0.138642,0.130487,0.000000,229.000000,212.000000,17.000000,16.000000,0.000000,0.000000:
// measure 0
2002
0000
0000
0000
3003
0000
0001
1000
,  // measure 1
0001
0100
0010
1000
,  // measure 2
0200
0000
0000
0000
0300
0000
0010
0100
,  // measure 3
0010
0000
0001
0000
1000
0000
0001
1000
,  // measure 4
0001
0000
0100
0000
0010
1000
0000
0010
,  // measure 5
0100
0000
0001
1000
0001
0000
1000
0100
,  // measure 6
0020
0000
0001
0000
0100
0000
0000
0100
,  // measure 7
0130
1000
0001
1000
,  // measure 8
2002
0000
0000
0000
3003
0000
0001
0010
,  // measure 9
0001
1000
0010
0100
,  // measure 10
0020
0000
0000
0000
0030
0000
0100
0010
,  // measure 11
0100
0010
0000
1000
0010
1000
0000
0001
,  // measure 12
1000
0000
0001
0000
0010
0001
1000
0000
,  // measure 13
0001
0000
0100
0000
0010
0000
1000
0100
,  // measure 14
0020
0001
0200
0330
,  // measure 15
0010
0001
0010
0000
0001
1000
0001
0000
,  // measure 16
1001
0000
1010
0000
0001
0100
0001
0000
,  // measure 17
1000
0100
0010
0000
0001
0100
0010
1000
,  // measure 18
0000
1000
0001
0000
0100
0010
0100
0000
,  // measure 19
0010
1000
0001
0000
1000
0001
0010
0000
,  // measure 20
0110
0000
1001
0000
1000
0001
0100
0000
,  // measure 21
0010
0100
0010
0000
1000
0010
0100
0001
,  // measure 22
0000
0010
0001
0000
1000
0100
0010
0000
,  // measure 23
0100
1000
0001
0000
1000
0001
0100
0000
,  // measure 24
0001
1100
1000
0101
,  // measure 25
0001
0010
0100
0010
0001
0000
1000
0001
,  // measure 26
0000
0001
0100
0000
1000
0000
0100
0000
,  // measure 27
0001
0010
1000
0010
,  // measure 28
0001
1010
1000
0011
,  // measure 29
1000
0001
1000
0001
0100
0000
0010
1000
,  // measure 30
0000
1000
0001
0000
1000
0100
1000
0000
,  // measure 31
0001
0000
0010
0000
0100
0010
0100
0000
,  // measure 32
1002
0000
0000
0000
,  // measure 33
2003
0000
0000
0000
,  // measure 34
3200
0000
0000
0000
,  // measure 35
0320
0000
0000
0000
,  // measure 36
0230
0000
0000
0000
,  // measure 37
2300
0000
0000
0000
,  // measure 38
0002
0000
0000
3003
,  // measure 39
1000
0001
1000
0000
0010
0100
0010
0000
,  // measure 40
0110
1001
0001
1001
,  // measure 41
1000
0000
0001
0000
0100
0010
0100
0010
,  // measure 42
0000
1000
0001
0000
1000
0100
1000
0000
,  // measure 43
0001
0010
0001
0000
1000
0010
0100
0000
,  // measure 44
0101
1010
1000
0011
,  // measure 45
1000
0000
0001
0000
0100
0010
1000
0001
,  // measure 46
0000
0001
1000
0000
0100
0010
0100
0000
,  // measure 47
0010
0001
1000
0000
0001
0100
0010
1000
,  // measure 48
0001
0000
0000
0000
;
