#TITLE:Me Enamora;
#SUBTITLE:;
#ARTIST:Juanes;
#TITLETRANSLIT:;
#SUBTITLETRANSLIT:;
#ARTISTTRANSLIT:;
#GENRE:;
#CREDIT:;
#BANNER:Me Enamora.png;
#BACKGROUND:Me Enamora-bg.png;
#LYRICSPATH:;
#CDTITLE:;
#MUSIC:Me Enamora.mp3;
#OFFSET:-6.410000;
#SAMPLESTART:46.919998;
#SAMPLELENGTH:10.210000;
#SELECTABLE:YES;
#BPMS:0.000000=94.000000
;
#STOPS:
;
#BGCHANGES:;
#KEYSOUNDS:;
#ATTACKS:;

//---------------dance-single - Oni-91----------------
#NOTES:
     dance-single:
     :
     Hard:
     7:
     0.363205,0.340764,0.241677,0.077337,0.111171,263.000000,238.000000,25.000000,8.000000,0.000000,0.000000,0.363205,0.340764,0.241677,0.077337,0.111171,263.000000,238.000000,25.000000,8.000000,0.000000,0.000000:
// measure 0
1000
0000
0100
0000
1000
0000
0010
0000
0100
0000
0001
0100
0000
0000
0001
0000
,  // measure 1
0010
0000
0001
0000
0010
0000
0100
0000
0010
0000
0100
1000
0000
0000
0100
0000
,  // measure 2
1000
0000
0001
0000
0100
0000
0010
0000
1000
0000
0100
0010
0000
0000
0100
0000
,  // measure 3
0010
0000
0001
0000
0100
0000
1000
0000
0100
0000
0010
1000
0000
0000
0001
0000
,  // measure 4
2001
0000
0001
0000
0001
0000
3001
1000
,  // measure 5
0200
0000
0010
0000
0010
0000
0310
0100
,  // measure 6
0020
0000
0001
0000
0001
0000
0031
0010
,  // measure 7
0100
0000
1000
0001
0000
0000
0100
0000
0010
0000
1000
0001
0000
0000
0100
0000
,  // measure 8
0120
0100
0000
1000
0000
0100
0000
1030
,  // measure 9
0200
0000
0010
0000
0000
0000
1000
1000
0000
0000
0010
0000
0000
0000
1300
0000
,  // measure 10
0002
0100
0000
0010
0000
0100
0000
0013
,  // measure 11
0001
0100
0010
1000
0001
0010
1000
0010
,  // measure 12
0011
0000
0101
0000
0001
0100
0010
1000
,  // measure 13
0100
0000
0101
0000
0100
1000
0001
0100
,  // measure 14
0010
0000
1010
0000
1000
0100
0010
0001
,  // measure 15
0100
0000
0001
0000
0100
0001
0000
0000
1000
0000
0001
0000
1000
0001
1000
0000
,  // measure 16
0001
1000
1100
0000
0100
0010
0001
0100
,  // measure 17
0010
0100
0101
0000
0001
1000
0100
0001
,  // measure 18
0100
1000
1001
0000
0001
0100
0010
1000
,  // measure 19
0100
0010
0100
0000
0011
0000
1100
0000
,  // measure 20
1001
0000
0001
0000
0100
0000
0000
0000
0010
0000
0100
0000
0001
1000
0001
0000
,  // measure 21
0100
0000
0010
0000
1000
0000
0000
0000
0001
0000
0010
0000
0100
0010
0100
0000
,  // measure 22
0010
0001
1000
0000
0001
0100
1000
0100
,  // measure 23
0001
0000
1001
0000
1000
0100
0010
0001
,  // measure 24
0101
0000
0000
0000
0110
0000
0000
0000
0010
0000
1000
0000
0001
1000
0001
0000
,  // measure 25
1000
0000
0000
0000
1100
0000
0000
0000
0010
0000
0001
0000
1000
0001
1000
0000
,  // measure 26
0001
0000
0000
0000
0101
0000
0000
0000
0100
0000
0010
0000
1000
0010
1000
0000
,  // measure 27
0001
0010
0100
0010
0011
0000
1001
0000
,  // measure 28
1010
0000
0000
0000
1000
0000
0100
0000
0010
0000
0001
0000
1000
0001
1000
0001
,  // measure 29
1000
0000
0000
0000
0101
0000
0000
0000
0001
0000
0010
0000
0100
0010
0100
0010
,  // measure 30
0100
0000
1000
0010
0100
1000
0100
0010
,  // measure 31
1000
0000
0001
0010
0100
0001
0100
0010
,  // measure 32
0011
0000
0000
0010
0001
0000
1000
0000
0010
1000
0000
0000
0010
0000
1000
0001
,  // measure 33
0100
0000
0000
0000
0010
0000
0100
0000
0001
1000
0000
0000
0001
0000
0100
0000
,  // measure 34
0110
0000
0000
1001
0000
0000
0220
0000
0000
0000
0000
0000
0000
0000
0000
0000
,  // measure 35
0000
0330
0000
0000
;

//---------------dance-single - Oni-91----------------
#NOTES:
     dance-single:
     :
     Medium:
     4:
     0.244439,0.255573,0.164340,0.154673,0.004834,177.000000,160.000000,17.000000,16.000000,0.000000,0.000000,0.244439,0.255573,0.164340,0.154673,0.004834,177.000000,160.000000,17.000000,16.000000,0.000000,0.000000:
// measure 0
1000
0001
0100
0000
0010
0000
1000
0000
,  // measure 1
0001
0010
0100
0000
0010
0000
0001
0000
,  // measure 2
1000
0010
0100
0000
0001
0000
0010
0000
,  // measure 3
1000
0100
0001
0000
0100
0000
1000
0000
,  // measure 4
1002
1000
1000
1000
,  // measure 5
0100
0100
0100
0100
,  // measure 6
0010
0010
0010
0010
,  // measure 7
1003
0001
1000
0100
,  // measure 8
0210
0010
0010
0010
,  // measure 9
0001
0001
0001
0001
,  // measure 10
0010
0010
0010
0010
,  // measure 11
1300
0100
0010
0001
,  // measure 12
2002
0000
3003
0000
1000
0010
0100
0000
,  // measure 13
0010
0000
0100
0000
0001
1000
0001
1000
,  // measure 14
0001
1000
0100
0010
,  // measure 15
0100
0010
0100
0000
2002
0000
3003
0000
,  // measure 16
1001
0000
1000
0000
0001
0100
0001
0000
,  // measure 17
1000
0000
0100
0000
0010
0100
1000
0000
,  // measure 18
0100
0000
0010
0000
0001
0010
0100
0000
,  // measure 19
0010
0001
1001
0110
,  // measure 20
1001
0000
0001
0000
0100
0010
0100
0000
,  // measure 21
0010
0000
1000
0000
0100
0010
0100
0000
,  // measure 22
0010
0000
0001
0000
1000
0001
1000
0001
,  // measure 23
1000
0001
0100
0010
,  // measure 24
0220
0000
0330
0000
0010
1000
0001
1000
,  // measure 25
0002
0000
0003
0000
0010
0001
1000
0001
,  // measure 26
2000
0000
3000
0000
0010
1000
0100
1000
,  // measure 27
0001
1000
0110
1001
,  // measure 28
0220
0000
0330
0000
0001
0010
0100
0010
,  // measure 29
0002
0000
0003
0000
1000
0010
0100
0010
,  // measure 30
2000
0000
3000
0000
0001
1000
0100
0010
,  // measure 31
0001
1000
0001
0100
,  // measure 32
0110
0000
0100
0000
0010
1000
0001
0000
,  // measure 33
1001
0000
1000
0000
0001
0010
0100
0000
,  // measure 34
0110
0000
0000
0110
0000
0000
0220
0000
0000
0000
0000
0000
0000
0000
0000
0000
,  // measure 35
0000
0330
0000
0000
;

//---------------dance-single - Oni-91----------------
#NOTES:
     dance-single:
     :
     Easy:
     3:
     0.149149,0.166153,0.096671,0.116005,0.000000,108.000000,98.000000,10.000000,12.000000,0.000000,0.000000,0.149149,0.166153,0.096671,0.116005,0.000000,108.000000,98.000000,10.000000,12.000000,0.000000,0.000000:
// measure 0
1001
0000
1000
0001
,  // measure 1
1000
0000
0001
0100
,  // measure 2
0001
0000
0100
0010
,  // measure 3
0100
0000
0010
1000
,  // measure 4
1002
0000
1000
0000
,  // measure 5
1000
0000
1000
0000
,  // measure 6
0100
0000
0100
0000
,  // measure 7
0100
0000
0103
0100
,  // measure 8
0210
0000
0010
0000
,  // measure 9
0010
0000
0010
0000
,  // measure 10
0001
0000
0001
0000
,  // measure 11
0001
0000
0301
1000
,  // measure 12
1001
0000
1000
0100
,  // measure 13
0010
0001
0100
0010
,  // measure 14
1000
1000
0001
0001
,  // measure 15
2002
0000
0000
3003
,  // measure 16
2002
3003
1000
0100
,  // measure 17
1000
0000
0001
0010
,  // measure 18
0001
0000
1000
0001
,  // measure 19
1000
0000
0010
0100
,  // measure 20
0110
0000
0010
0100
,  // measure 21
0010
0000
0100
0001
,  // measure 22
0100
0000
0001
1000
,  // measure 23
0001
0000
1000
0001
,  // measure 24
2002
3003
1000
0100
,  // measure 25
1000
0000
0001
0010
,  // measure 26
0100
0000
0010
0001
,  // measure 27
0010
0000
0001
1000
,  // measure 28
0010
0000
0100
0100
,  // measure 29
0100
0000
0010
0010
,  // measure 30
0010
0000
1000
0001
,  // measure 31
1000
0000
0001
1000
,  // measure 32
2002
3003
0001
0010
,  // measure 33
0100
0010
0001
1000
,  // measure 34
2002
0000
0000
3003
0000
0000
0000
0000
;

//---------------dance-single - Oni-91----------------
#NOTES:
     dance-single:
     :
     Beginner:
     1:
     0.102195,0.131472,0.058002,0.019334,0.000000,74.000000,68.000000,6.000000,2.000000,0.000000,0.000000,0.102195,0.131472,0.058002,0.019334,0.000000,74.000000,68.000000,6.000000,2.000000,0.000000,0.000000:
// measure 0
1001
0000
1000
0000
,  // measure 1
0001
0000
0100
0100
,  // measure 2
0100
0000
0010
0000
,  // measure 3
1000
0000
0001
0001
,  // measure 4
0001
0000
0000
0000
,  // measure 5
1000
0000
0000
0000
,  // measure 6
0100
0000
0000
0000
,  // measure 7
0010
0000
0100
0000
,  // measure 8
0110
0000
0000
0000
,  // measure 9
0010
0000
0000
0000
,  // measure 10
0001
0000
0000
0000
,  // measure 11
1000
0000
0001
0000
,  // measure 12
1001
0000
1000
0000
,  // measure 13
0001
0000
0100
0100
,  // measure 14
0100
0000
0010
0000
,  // measure 15
1000
0000
0001
0000
,  // measure 16
1001
0000
1000
0000
,  // measure 17
0100
0000
0010
0000
,  // measure 18
0100
0000
0010
0000
,  // measure 19
0001
0000
0100
0100
,  // measure 20
0100
0000
0010
0000
,  // measure 21
0100
0000
0001
0000
,  // measure 22
1000
0000
0100
0000
,  // measure 23
0020
0000
0030
0000
,  // measure 24
1001
0000
0001
0000
,  // measure 25
0100
0000
0010
0000
,  // measure 26
0100
0000
0001
0000
,  // measure 27
1000
0000
0100
0100
,  // measure 28
0100
0000
1000
0000
,  // measure 29
0001
0000
1000
0000
,  // measure 30
0001
0000
0100
0000
,  // measure 31
0020
0000
0030
0000
,  // measure 32
1001
0000
1000
1000
,  // measure 33
1000
0000
0001
0001
,  // measure 34
0001
0000
0000
0000
;

//---------------dance-single - Oni-91----------------
#NOTES:
     dance-single:
     :
     Challenge:
     8:
     0.443304,0.442993,0.164340,0.048335,0.314180,321.000000,304.000000,17.000000,5.000000,0.000000,0.000000,0.443304,0.442993,0.164340,0.048335,0.314180,321.000000,304.000000,17.000000,5.000000,0.000000,0.000000:
// measure 0
1000
0000
0100
0000
0010
0000
0100
0000
1000
0000
0001
0100
0000
0100
0001
0000
,  // measure 1
1000
0000
0100
0000
0010
0000
0001
0000
0100
0000
0010
1000
0000
0010
1000
0000
,  // measure 2
0001
0000
0010
0000
0100
0000
0010
0000
0001
0000
1000
0010
0000
1000
0010
0000
,  // measure 3
0100
0000
0010
0000
1000
0000
0100
0000
0010
0000
0100
1000
0000
1000
0100
0000
,  // measure 4
2001
0000
0000
0000
0010
0000
0000
0000
3001
0000
1000
0001
0000
0000
0100
0000
,  // measure 5
0020
0000
0000
0000
1000
0000
0000
0000
0130
0000
0010
1000
0000
0000
0001
0000
,  // measure 6
0020
0000
0000
0000
0001
0000
0000
0000
0130
0000
0010
0001
0000
0000
1000
0000
,  // measure 7
0001
0000
0100
0010
0000
0000
1000
0000
0100
0000
0010
0001
0000
0000
1000
0000
,  // measure 8
1001
0000
0001
0100
0001
0000
0100
0000
0010
0000
1000
0100
0000
0000
1000
0000
,  // measure 9
0100
0000
0010
0001
0010
0000
0001
0000
0100
0000
0001
0100
0000
0000
0001
0000
,  // measure 10
1000
0000
0100
0010
0100
0000
0010
0000
0001
0000
1000
0001
0000
0000
1000
0000
,  // measure 11
0001
0100
1000
0100
0001
0010
0100
0010
,  // measure 12
0110
0000
0000
0000
0011
0000
0001
0000
0100
0000
1000
0000
0100
0000
0010
0100
,  // measure 13
0001
0010
0001
0100
0001
1000
0001
0010
,  // measure 14
0100
0000
1100
1000
0010
0001
0010
1000
,  // measure 15
0100
0000
0010
0000
0100
1000
0000
0000
0100
0000
0010
0000
0001
0000
1000
0001
,  // measure 16
1000
0000
0001
0000
0100
0000
0000
0000
0010
0000
0100
0000
0001
0000
1000
0100
,  // measure 17
1000
0000
0001
0010
0001
0000
0000
0000
0100
0000
0010
0000
1000
0000
0001
0010
,  // measure 18
0001
1000
0010
0000
0100
0001
1000
0100
,  // measure 19
0010
0000
0000
0000
0100
0000
0010
0001
1000
0000
0010
0000
0110
0000
0000
0000
,  // measure 20
1001
0000
0000
0000
1000
0000
0100
0000
0010
0001
0010
0001
0100
0000
0010
0000
,  // measure 21
0100
0000
0010
0000
1000
0000
0100
0000
1000
0001
1000
0010
0100
0000
0010
0000
,  // measure 22
0100
0000
0001
0000
0010
0000
0100
0000
0001
0010
0100
0010
0001
0000
1000
0000
,  // measure 23
1010
0000
0000
0000
1001
0000
0000
0000
0001
0000
0010
0000
0001
0010
0100
0010
,  // measure 24
0001
0000
1000
0001
1000
0000
0001
0000
0100
0010
0100
0000
0010
1000
0001
1000
,  // measure 25
0100
0000
0010
0001
0010
0000
0001
1000
0010
0000
0100
0000
0010
1000
0100
0010
,  // measure 26
0100
0000
0010
0001
1000
0000
0001
0000
0100
0010
0100
0000
0001
1000
0001
1000
,  // measure 27
0100
0000
0010
0100
0010
0000
0001
0010
0100
0000
0010
0000
1001
0000
0000
0000
,  // measure 28
0110
0000
0000
0000
1010
0000
0000
0000
1000
0001
1000
0001
0100
0001
0100
0000
,  // measure 29
0010
0000
1000
0000
0100
0000
0010
0000
0100
0010
0100
0010
0001
0010
0001
1000
,  // measure 30
0001
0000
0100
0000
1000
0000
0100
0010
1000
0000
0100
0000
0010
0000
0001
0000
,  // measure 31
1001
0000
1000
0000
0100
0000
0010
0000
0100
0010
0100
1000
0100
0000
0010
0001
,  // measure 32
1000
0000
0000
0001
0010
0001
1000
0000
0001
1000
0000
0000
1001
0000
0001
0100
,  // measure 33
0001
0000
0000
0000
0010
0000
0100
0000
0010
1000
0010
0000
1000
0000
0001
0000
,  // measure 34
1001
0000
0000
0110
0000
0000
2002
0000
0000
0000
0000
0000
0000
0000
0000
0000
,  // measure 35
0000
3003
0000
0000
;
