#VERSION:0.83;
#TITLE:Machine Gun;
#SUBTITLE:;
#ARTIST:NOISIA;
#TITLETRANSLIT:;
#SUBTITLETRANSLIT:;
#ARTISTTRANSLIT:;
#GENRE:;
#ORIGIN:;
#CREDIT:;
#BANNER:Machine Gun.png;
#BACKGROUND:Machine Gun-bg.png;
#PREVIEWVID:;
#JACKET:;
#CDIMAGE:;
#DISCIMAGE:;
#LYRICSPATH:;
#CDTITLE:;
#MUSIC:Machine Gun.mp3;
#OFFSET:-7.525000;
#SAMPLESTART:37.505001;
#SAMPLELENGTH:15.000000;
#SELECTABLE:YES;
#DISPLAYBPM:128.000000:192.000000;
#BPMS:0.000=128.000,
48.000=32.000,
51.625=373.333,
56.000=128.000,
88.000=192.000,
181.000=384.000,
187.000=128.000;
#STOPS:;
#DELAYS:;
#WARPS:;
#TIMESIGNATURES:0.000=4=4;
#TICKCOUNTS:0.000=4;
#COMBOS:0.000=1;
#SPEEDS:0.000=1.000=0.000=0;
#SCROLLS:0.000=1.000;
#FAKES:;
#LABELS:0.000=Song Start;
#BGCHANGES:;
#KEYSOUNDS:;
#ATTACKS:
;

//---------------dance-single - Oni-91----------------
#NOTEDATA:;
#CHARTNAME:;
#STEPSTYPE:dance-single;
#DESCRIPTION:Oni-91;
#CHARTSTYLE:;
#DIFFICULTY:Hard;
#METER:8;
#RADARVALUES:0.501669,0.574773,0.541561,0.372323,0.287704,415.000000,351.000000,64.000000,44.000000,0.000000,0.000000,0.000000,0.000000,0.000000,0.501669,0.574773,0.541561,0.372323,0.287704,415.000000,351.000000,64.000000,44.000000,0.000000,0.000000,0.000000,0.000000,0.000000;
#CREDIT:Oni-91;
#DISPLAYBPM:128.000000:192.000000;
#NOTES:
// measure 0
1001
0000
0000
0000
0011
0000
0000
0000
1100
0000
0000
0010
0001
0000
0100
0000
,  // measure 1
0101
0000
0000
0000
1010
0000
0000
0000
0101
0000
0000
0001
0010
0000
0100
0000
,  // measure 2
1100
0000
0000
0000
0011
0000
0000
0000
1001
0000
0000
1000
0010
0000
0100
0000
,  // measure 3
0110
1001
0110
1010
,  // measure 4
1000
0000
0100
0000
0010
0001
0010
0000
0200
0000
0000
0000
0320
0000
0000
0000
,  // measure 5
0031
0001
1000
0010
0100
0001
0100
0010
,  // measure 6
1000
0000
0001
0000
1000
0100
1000
0000
0002
0000
0000
0000
2003
0000
0000
0000
,  // measure 7
3010
0000
1000
0000
1100
0000
0000
0000
0010
0001
0100
0000
0101
0000
0000
0000
,  // measure 8
0010
0000
1000
0000
0100
0010
0001
0000
2000
0000
0100
0000
3200
0000
0001
0000
,  // measure 9
0301
0000
0100
0000
1001
0000
0000
0000
1000
0010
0100
0000
0001
0010
0100
0000
,  // measure 10
0010
0000
0001
0000
1000
0010
0100
0000
0020
0000
0000
0000
1030
0100
1000
0100
,  // measure 11
0010
0000
0001
0000
1100
0000
0000
0000
1000
0010
1000
0000
0101
0000
0000
0000
,  // measure 12
2002
0000
0000
0000
0000
0000
0000
0000
0000
0000
0000
0000
0000
0000
0000
0000
0000
0000
0000
0000
0000
0000
0000
0000
0000
0000
0000
0000
0000
3003
0000
0000
,  // measure 13
0000
0000
0000
0000
,  // measure 14
1000
0100
1000
0100
0000
0000
1000
0000
0001
0000
1000
0000
,  // measure 15
0010
0100
0010
0100
0000
0010
1000
0000
0001
0000
1000
0000
,  // measure 16
0100
0010
0001
0010
0000
0001
0010
0000
0100
0000
1000
0000
,  // measure 17
0001
0100
0010
1000
0000
0000
1010
0000
0101
0000
1001
0000
,  // measure 18
1000
0001
1000
0001
0000
0001
0100
0000
0010
0000
0100
0000
,  // measure 19
0010
0100
0010
0100
0001
1000
0001
0000
1000
0000
0100
0000
,  // measure 20
0010
0001
0010
0001
0000
1000
0100
0000
0100
1000
0000
1000
,  // measure 21
0001
0000
0001
0100
0000
0100
0010
0000
1000
0010
1000
0000
,  // measure 22
2002
0000
3003
0202
,  // measure 23
0000
0303
0220
0000
,  // measure 24
0330
0001
2002
3003
,  // measure 25
1000
0202
0303
0001
,  // measure 26
2200
3300
1000
0220
,  // measure 27
0330
0001
0210
1300
,  // measure 28
0001
0100
0001
0000
0100
0000
0010
0000
,  // measure 29
1000
0100
1000
0000
0001
0010
0100
0000
,  // measure 30
0010
0000
0001
0000
1000
0010
0100
0000
,  // measure 31
0010
0000
1000
0001
1000
0001
1000
0000
,  // measure 32
0001
0010
0100
0000
0010
0000
0001
0000
,  // measure 33
1000
0001
1001
0000
1010
0000
0101
0000
,  // measure 34
0010
0000
0101
0000
0001
1000
0200
0000
,  // measure 35
0010
0010
0310
0000
0001
0010
0100
0010
,  // measure 36
0001
0000
2000
0000
0010
0010
3010
0000
,  // measure 37
0010
1000
0100
0000
1000
0000
0002
0000
,  // measure 38
0100
0100
0103
0000
0010
1000
0010
1000
,  // measure 39
0001
0100
0001
0000
0011
0000
1100
0000
,  // measure 40
0010
1000
0200
0000
0000
0310
0001
0000
,  // measure 41
1000
0001
0100
0000
0010
1000
0002
0000
,  // measure 42
1000
1003
0200
0000
0310
0001
0100
0000
,  // measure 43
1010
1001
0101
0011
,  // measure 44
1100
0000
0110
0000
0001
0100
1000
0100
,  // measure 45
0010
1000
2002
0000
0000
0000
0000
0000
,  // measure 46
0000
0000
0000
3003
0000
0000
0000
0000
0000
1001
0000
1000
,  // measure 47
0100
0000
0010
0000
0001
0000
0100
0000
0000
0010
0000
0000
0110
0000
0000
0100
0000
0000
0101
0000
0000
0000
0001
0000
,  // measure 48
1000
0100
0110
0000
2002
3003
0001
0101
,  // measure 49
0200
0000
0000
0000
0000
0000
1300
0000
0000
0000
1000
0000
0100
0000
0000
0001
0000
0000
0020
0000
0000
0000
0000
0000
,  // measure 50
0001
0000
0130
0000
1001
0000
0022
0033
,  // measure 51
0001
0000
0010
0000
0100
0000
1000
0000
0000
0001
0000
0000
0100
0000
0010
0000
0100
0000
0001
0000
0000
0000
1000
0000
,  // measure 52
0100
0001
0101
0000
0110
0000
0100
1100
,  // measure 53
2000
0000
0000
0000
0000
0000
0010
0000
0000
0000
3010
0000
1000
0000
0000
0100
0000
0000
0010
0000
0000
0001
0000
0000
,  // measure 54
0100
0000
0000
0000
0010
0000
1000
0001
1000
0000
0001
0000
1100
0000
0000
0000
,  // measure 55
1100
0000
0000
0000
1100
0000
0000
1000
0100
0000
0010
0000
0001
0000
0000
0000
,  // measure 56
1001
0000
0000
0000
1000
0000
0000
0010
1000
0000
0100
0000
0010
0000
0000
0000
,  // measure 57
0101
0000
0000
0000
0100
0000
0000
1000
0001
0000
0100
0000
0010
0000
0000
0000
,  // measure 58
1001
0000
0000
0000
1100
0000
0000
0010
0001
0000
0100
0000
0010
0000
0100
0000
,  // measure 59
0001
1000
0002
0000
1000
0000
0000
0000
1003
0000
0000
0000
0110
0000
0220
0000
,  // measure 60
0000
0000
0330
2002
,  // measure 61
0000
0000
0000
3003
;

//---------------dance-single - Oni-91----------------
#NOTEDATA:;
#CHARTNAME:;
#STEPSTYPE:dance-single;
#DESCRIPTION:Oni-91;
#CHARTSTYLE:;
#DIFFICULTY:Easy;
#METER:3;
#RADARVALUES:0.218800,0.261261,0.110004,0.186161,0.000000,181.000000,168.000000,13.000000,22.000000,0.000000,0.000000,0.000000,0.000000,0.000000,0.218800,0.261261,0.110004,0.186161,0.000000,181.000000,168.000000,13.000000,22.000000,0.000000,0.000000,0.000000,0.000000,0.000000;
#CREDIT:Oni-91;
#DISPLAYBPM:128.000000:192.000000;
#NOTES:
// measure 0
1000
1000
1000
1000
,  // measure 1
0001
0001
0001
0001
,  // measure 2
0010
0010
0010
0010
,  // measure 3
0100
0100
0100
0100
,  // measure 4
0010
0001
1000
0000
,  // measure 5
2002
0000
0000
3003
,  // measure 6
0001
0100
0010
0000
,  // measure 7
0220
0000
0000
0330
,  // measure 8
0010
1000
0001
0000
,  // measure 9
2002
0000
0000
3003
,  // measure 10
1000
0100
0010
0001
,  // measure 11
2002
0000
0000
3003
,  // measure 12
0110
0000
0000
0000
,  // measure 13
0000
0000
0000
0000
,  // measure 14
1001
0000
1000
0000
,  // measure 15
0001
0000
0010
0000
,  // measure 16
0001
0000
0100
0000
,  // measure 17
0010
1000
0001
0000
,  // measure 18
1000
0000
0100
0000
,  // measure 19
0010
0000
0001
0000
,  // measure 20
1000
1000
0001
0001
,  // measure 21
1000
0100
1000
0000
,  // measure 22
2002
3003
0000
0002
,  // measure 23
0003
0000
2000
3000
,  // measure 24
0000
0200
0300
0000
,  // measure 25
0020
0030
0000
0002
,  // measure 26
0003
0000
2000
3000
,  // measure 27
0000
0001
1000
0001
,  // measure 28
1000
0100
0000
1000
,  // measure 29
0001
0000
0010
0001
,  // measure 30
0010
0100
1000
0000
,  // measure 31
0001
1000
0000
0001
,  // measure 32
0100
0010
1000
0010
,  // measure 33
0000
1000
0001
1000
,  // measure 34
0001
0100
0001
0100
,  // measure 35
0000
0010
1000
0010
,  // measure 36
1000
0100
0000
0010
,  // measure 37
0001
0100
0001
1000
,  // measure 38
0000
0001
1000
0100
,  // measure 39
0010
0001
0010
0100
,  // measure 40
0010
0001
0000
1000
,  // measure 41
0001
1000
0000
0001
,  // measure 42
0100
0010
0000
1000
,  // measure 43
0100
0100
0100
0010
,  // measure 44
0010
0010
0001
0001
,  // measure 45
0001
1001
0000
0000
,  // measure 46
0000
0000
0000
1001
,  // measure 47
0000
1000
0100
0001
,  // measure 48
0100
1000
0001
1000
,  // measure 49
0000
0001
1000
0001
,  // measure 50
0000
1000
0010
0100
,  // measure 51
0000
0010
1000
0100
,  // measure 52
0010
0001
0100
0001
,  // measure 53
0000
1000
0001
1000
,  // measure 54
0000
0001
1000
0110
,  // measure 55
0010
0010
0010
1000
,  // measure 56
1000
1000
1000
0001
,  // measure 57
0001
0001
0001
1000
,  // measure 58
1000
1000
1000
2002
,  // measure 59
0000
0000
3003
0220
,  // measure 60
0000
0000
0330
2002
,  // measure 61
0000
0000
0000
3003
;

//---------------dance-single - Oni-91----------------
#NOTEDATA:;
#CHARTNAME:;
#STEPSTYPE:dance-single;
#DESCRIPTION:Oni-91;
#CHARTSTYLE:;
#DIFFICULTY:Medium;
#METER:6;
#RADARVALUES:0.378367,0.470269,0.406170,0.279242,0.080388,313.000000,265.000000,48.000000,33.000000,0.000000,0.000000,0.000000,0.000000,0.000000,0.378367,0.470269,0.406170,0.279242,0.080388,313.000000,265.000000,48.000000,33.000000,0.000000,0.000000,0.000000,0.000000,0.000000;
#CREDIT:Oni-91;
#DISPLAYBPM:128.000000:192.000000;
#NOTES:
// measure 0
1001
0000
1001
0000
1001
0000
0010
0100
,  // measure 1
0110
0000
0110
0000
0110
0000
0010
1000
,  // measure 2
1001
0000
1001
0000
1001
0000
0001
0010
,  // measure 3
0110
0110
0110
1001
,  // measure 4
1000
0010
1000
0000
0001
0000
0010
0001
,  // measure 5
0200
1000
0010
0301
,  // measure 6
1000
0100
0010
0100
1000
0000
0001
0000
,  // measure 7
0020
0001
0100
0031
,  // measure 8
1000
0001
0100
0000
0010
0000
1000
0000
,  // measure 9
0001
0200
1000
0000
0010
0000
0301
0000
,  // measure 10
0001
0010
0100
1000
0100
0000
0010
0001
,  // measure 11
1000
0020
0001
0000
0100
0000
1030
0000
,  // measure 12
2002
0000
0000
0000
0000
0000
0000
0000
0000
0000
0000
0000
0000
0000
0000
0000
0000
0000
0000
0000
0000
0000
0000
0000
0000
0000
0000
0000
0000
3003
0000
0000
,  // measure 13
0000
0000
0000
0000
,  // measure 14
1001
0000
0000
0001
0000
0000
0010
0000
0001
0000
0010
0000
,  // measure 15
0001
0000
0000
1000
0000
0000
0010
0000
0100
0000
0010
0000
,  // measure 16
0100
0000
0000
0001
0000
0000
1000
0000
0100
0000
0010
0000
,  // measure 17
0001
0000
0000
1001
0000
1000
0100
0000
1000
0000
0001
0000
,  // measure 18
0101
0000
0000
0110
0000
0000
0010
0000
1000
0000
0001
0000
,  // measure 19
1000
0000
0000
0110
0000
0000
0001
0000
0010
0000
0001
0000
,  // measure 20
1000
0000
0000
1001
0000
0000
0001
0000
0001
0100
0000
0100
,  // measure 21
0001
0000
0001
0100
0000
0100
0001
0000
1000
0000
0001
0000
,  // measure 22
2002
0000
3003
0220
,  // measure 23
0000
0330
2002
0000
,  // measure 24
3003
0010
0220
0330
,  // measure 25
0100
0202
0303
0001
,  // measure 26
2002
3003
1000
2200
,  // measure 27
3300
0100
0220
0330
,  // measure 28
0010
0011
0001
0100
,  // measure 29
0101
0001
1000
1010
,  // measure 30
0010
0100
0110
0010
,  // measure 31
1000
1001
0001
0010
,  // measure 32
0110
0100
1000
1001
,  // measure 33
0001
0000
0100
0000
0010
0100
0010
0000
,  // measure 34
1000
0100
1000
0000
0001
0000
0010
0000
,  // measure 35
0100
0000
0010
0000
0001
0100
0001
0000
,  // measure 36
0100
0010
1000
0001
,  // measure 37
1000
0100
0010
0000
0100
0000
1000
0000
,  // measure 38
0001
0000
0010
0000
0100
0010
0001
0000
,  // measure 39
1000
1001
0100
1001
,  // measure 40
0001
0010
0100
0000
0000
0010
0001
0000
,  // measure 41
1000
0000
0010
0000
0000
0100
0001
0000
,  // measure 42
0100
0000
0010
0000
0000
1000
0100
0000
,  // measure 43
0010
0001
1000
0010
,  // measure 44
0100
0000
0001
0000
1000
0001
1000
0001
,  // measure 45
1000
0002
2000
0000
0000
0000
0000
0000
,  // measure 46
0000
3003
0000
1001
,  // measure 47
1000
0010
0100
0000
0001
0000
1000
0000
,  // measure 48
0100
0010
0100
0000
0011
0000
0010
0001
,  // measure 49
2000
0000
3010
0000
0010
0100
0002
0000
,  // measure 50
0000
0000
0010
0000
1003
0000
1000
0100
,  // measure 51
0010
0000
0100
1000
0001
0000
1000
0000
,  // measure 52
0001
0100
0010
0000
1001
0000
1000
0100
,  // measure 53
0020
0000
0130
0000
0010
0001
1000
0001
,  // measure 54
1000
0001
0100
0110
,  // measure 55
0110
0000
0110
0000
0010
1000
0010
0000
,  // measure 56
1001
0000
0100
0000
0010
0001
0100
0000
,  // measure 57
1010
0000
0100
0000
0010
0001
1000
0000
,  // measure 58
1001
0000
0010
0000
0100
0010
2000
0000
,  // measure 59
0001
0001
0002
0000
3003
0000
0220
0000
,  // measure 60
0000
0000
0330
2002
,  // measure 61
0000
0000
0000
3003
;

//---------------dance-single - Oni-91----------------
#NOTEDATA:;
#CHARTNAME:;
#STEPSTYPE:dance-single;
#DESCRIPTION:Oni-91;
#CHARTSTYLE:;
#DIFFICULTY:Beginner;
#METER:2;
#RADARVALUES:0.140225,0.231327,0.067695,0.000000,0.000000,116.000000,108.000000,8.000000,0.000000,0.000000,0.000000,0.000000,0.000000,0.000000,0.140225,0.231327,0.067695,0.000000,0.000000,116.000000,108.000000,8.000000,0.000000,0.000000,0.000000,0.000000,0.000000,0.000000;
#CREDIT:Oni-91;
#DISPLAYBPM:128.000000:192.000000;
#NOTES:
1000
0000
0000
0000
,
0100
0000
0000
0000
,
0010
0000
0000
0000
,
0001
0000
0000
0000
,
1000
0000
0001
0000
,
1000
0000
0000
0000
,
0001
0000
0100
0000
,
0001
0000
0000
0000
,
1000
0000
0100
0000
,
0010
0000
0000
0000
,
0100
0000
1000
0000
,
0001
0000
0000
0000
,
1001
0000
0000
0000
,
0000
0000
0000
0000
,
1000
0000
0001
0000
,
1000
0000
0001
0000
,
0100
0000
0010
0000
,
0100
0000
0000
0000
,
0010
0000
1000
0000
,
0010
0000
1000
0000
,
0001
0000
1000
0000
,
0001
0000
0000
0000
,
1001
0000
0000
0000
,
0000
0000
0100
0000
,
0000
0000
0000
0000
,
0010
0000
0000
0000
,
0000
0000
1000
0000
,
0000
0001
0000
0000
,
1000
0000
0000
1000
,
0000
0000
1000
0000
,
0000
0001
0000
0000
,
0001
0000
0000
0010
,
0000
0000
0010
0000
,
0000
0100
0000
0000
,
1001
0000
0000
1000
,
1000
1000
1000
0000
,
0000
0001
0001
0001
,
0001
0000
0000
0100
,
0100
0100
0100
0000
,
0000
0010
0010
0010
,
0010
0000
0000
1000
,
1000
1000
1000
0000
,
0000
0001
0001
0001
,
0001
0001
0001
0001
,
0001
0001
0001
0001
,
0001
0001
0000
0000
,
0000
0000
0000
1001
,
0000
1000
0000
0001
,
0000
0010
0010
0010
,
0000
0001
0001
0001
,
0000
1000
0000
1001
,
0000
0001
0000
0100
,
0000
0010
0010
0010
,
0000
1000
0000
0001
,
0000
1000
1000
1000
,
0000
0000
0000
0001
,
0000
1000
0000
0001
,
0000
1000
0000
0100
,
0000
0010
0000
0110
,
0000
0000
0000
1001
,
0000
0000
0000
1001
;

//---------------dance-single - Not Oni-91----------------
#NOTEDATA:;
#CHARTNAME:;
#STEPSTYPE:dance-single;
#DESCRIPTION:Not Oni-91;
#CHARTSTYLE:;
#DIFFICULTY:Challenge;
#METER:9;
#RADARVALUES:0.576617,0.731530,0.566946,0.355399,0.440018,477.000000,410.000000,67.000000,42.000000,0.000000,0.000000,0.000000,0.000000,0.000000,0.576617,0.731530,0.566946,0.355399,0.440018,477.000000,410.000000,67.000000,42.000000,0.000000,0.000000,0.000000,0.000000,0.000000;
#CREDIT:Not Oni-91;
#DISPLAYBPM:128.000000:192.000000;
#NOTES:
// measure 0
1010
0000
0000
0000
0011
0000
0000
0000
0101
0000
0000
0001
1000
0000
1100
0000
,  // measure 1
0101
0000
0000
0000
1100
0000
0000
0000
1010
0000
0000
1000
0001
0000
0011
0000
,  // measure 2
1010
0000
0000
0000
1100
0000
0000
0000
0101
0000
0000
0001
1000
0000
1100
0000
,  // measure 3
0102
1000
0010
1000
,  // measure 4
0013
0000
0010
0000
0001
1000
0010
0000
0201
0000
0000
0000
1300
0100
1000
0100
,  // measure 5
0010
0000
0010
0000
1000
0000
0100
0000
0001
0000
0010
0000
1000
0001
0000
1000
,  // measure 6
0100
0000
0100
0000
1000
0001
0100
0000
1020
0000
0000
0000
0031
0010
0001
0010
,  // measure 7
0100
0000
0100
0000
2001
0000
0000
0000
3010
1000
0000
1000
0002
0000
0000
0000
,  // measure 8
0013
0000
0010
0000
0001
1000
0010
0000
0021
0000
0000
0000
0130
0010
0100
0010
,  // measure 9
1000
0000
1000
0000
0001
0000
0010
0000
1000
0000
0100
0000
0001
1000
0000
1000
,  // measure 10
0100
0000
0100
0000
1000
0001
0100
0000
1200
0000
0000
0000
0310
0100
0010
0100
,  // measure 11
0001
0000
0010
0000
1002
0000
0000
0000
1003
0010
0000
0010
0001
0000
0000
0000
,  // measure 12
2002
0000
0000
0000
0000
0000
0000
0000
0000
0000
0000
0000
0000
0000
0000
0000
0000
0000
0000
0000
0000
0000
0000
0000
0000
0000
0000
0000
0000
3003
0000
0000
,  // measure 13
0000
0000
0000
0000
,  // measure 14
1000
0100
1000
0100
0010
0100
1000
0000
1000
0001
0100
0000
,  // measure 15
0001
0100
0001
0100
0010
0100
0001
0000
0001
1000
0100
0000
,  // measure 16
0010
0100
1000
0100
0010
0100
1000
0000
1000
0001
0100
0000
,  // measure 17
0010
0100
0001
0100
0010
0100
0001
0000
0010
0010
0100
0000
,  // measure 18
0010
0001
0100
1000
0001
0010
1000
0000
0100
0010
0001
0000
,  // measure 19
0100
0001
0010
1000
0001
0100
1000
0000
0010
0100
0001
0000
,  // measure 20
1000
0000
0000
0000
0000
0000
0000
0000
0000
0000
0000
0000
0000
0000
0000
0000
0100
0000
0000
0000
0000
0000
0000
0000
0000
0000
0000
0000
0000
0000
0000
0000
0001
0000
0000
0000
0000
0000
0000
0000
0000
0000
0000
0000
0000
0000
0000
0000
1000
0000
0000
0000
0000
0000
0000
0000
0000
0000
0000
0000
0000
0000
0000
0000
0010
0000
0000
0000
0000
0000
0000
0000
0000
0000
0000
0000
0000
0000
0000
0000
0001
0000
0000
0000
0000
0000
0000
0000
0000
0000
0000
0000
0000
0000
0000
0000
0200
0000
0000
0000
0000
0000
0000
0000
0000
0000
0000
0000
0000
0000
0000
0000
0000
0000
0000
0000
0000
0000
0000
0000
0000
0000
0000
0010
0000
0000
0000
0000
0000
0000
0000
0000
0000
0000
0000
0000
0000
0000
0000
0000
0000
0000
0000
0000
0010
0000
0000
0000
0000
0000
0000
0000
0000
0000
0000
0000
0000
0000
0000
0000
0000
0000
0000
0000
0000
0000
0000
0000
0000
0000
0000
1000
0000
0000
0000
0000
0000
0000
0000
0000
0000
0000
0000
0000
0000
0000
0000
0000
0000
0000
0000
0000
,  // measure 21
1000
0000
0000
0000
0000
0000
0000
0000
0000
0000
0000
0000
0000
0000
0000
0000
0000
0000
0000
0000
0000
0000
0000
0000
0000
0000
0000
0001
0000
0000
0000
0000
0000
0000
0000
0000
0000
0000
0000
0000
0000
0000
0000
0000
0000
0000
0000
0000
0302
0000
0000
0000
0000
0000
0000
0000
0000
0000
0000
0000
0000
0000
0000
0000
0000
0000
0000
0000
0000
0000
0000
0000
0000
0000
0000
0000
0000
0000
0000
0000
0000
0000
0000
0000
0000
0000
0000
0000
0000
0000
0000
0000
0000
0000
0000
0000
0013
0000
0000
0000
0000
0000
0000
0000
0000
0000
0000
0000
0000
0000
0000
0000
0000
0000
0000
0000
0000
0000
0000
0000
0000
0000
0000
0000
0000
0000
0000
0000
0100
0000
0000
0000
0000
0000
0000
0000
0000
0000
0000
0000
0000
0000
0000
0000
0100
0000
0000
0000
0000
0000
0000
0000
0000
0000
0000
0000
0000
0000
0000
0000
0010
0000
0000
0000
0000
0000
0000
0000
0000
0000
0000
0000
0000
0000
0000
0000
0000
0000
0000
0000
0000
0000
0000
0000
0000
0000
0000
0000
0000
0000
0000
0000
,  // measure 22
2002
0000
3003
1200
,  // measure 23
0001
0300
2002
0000
,  // measure 24
3003
0201
1000
0300
,  // measure 25
1001
2020
3030
1001
,  // measure 26
0022
0033
1001
0220
,  // measure 27
0330
0000
1001
0000
0001
1000
0010
0000
,  // measure 28
1000
0100
1000
0100
1000
0100
0010
0000
,  // measure 29
0010
0001
1000
0000
0001
0100
0001
0100
,  // measure 30
0001
0100
0010
0000
0010
1000
0001
0000
,  // measure 31
1000
0100
0010
0001
1000
0001
0100
0000
,  // measure 32
0010
1000
0001
0000
0010
0001
1000
0001
,  // measure 33
0100
0010
2010
0000
3001
0001
0020
0000
,  // measure 34
0031
0010
0100
1000
0001
0100
0110
0000
,  // measure 35
1000
0100
0110
0000
0001
0100
0010
1000
,  // measure 36
0001
1000
0110
0000
1000
0001
0110
0000
,  // measure 37
1000
0100
0010
0001
1000
0010
0110
0000
,  // measure 38
0001
0010
0110
0000
1000
0010
0100
0001
,  // measure 39
1000
0001
0210
0000
0301
1000
0210
0000
,  // measure 40
1300
0100
0010
0001
0100
1000
1010
0000
,  // measure 41
0010
0001
1001
0000
0001
0100
0010
1000
,  // measure 42
0100
0001
0011
0000
0010
1000
1001
0000
,  // measure 43
0001
0010
0001
0100
0001
1000
0001
0000
,  // measure 44
0001
0010
0001
0000
0001
0100
1000
0010
,  // measure 45
1000
0100
2002
0000
0000
0000
0000
0000
,  // measure 46
0000
0000
0000
3003
0000
0000
0000
0000
0000
1001
0000
1000
,  // measure 47
0100
0000
0000
0000
0000
0000
0000
0000
0000
0000
0000
0000
0000
0000
0000
0000
0010
0000
0000
0000
0000
0000
0000
0000
0000
0000
0000
0000
0000
0000
0000
0000
0001
0000
0000
0000
0000
0000
0000
0000
0000
0000
0000
0000
0000
0000
0000
0000
0100
0000
0000
0000
0000
0000
0000
0000
0000
0000
0000
0000
0000
0000
0000
0000
0000
0000
0000
0000
0000
0120
0000
0000
0000
0000
0000
0000
0000
0000
0000
0000
0000
0000
0000
0000
0000
0000
0000
0000
0000
0000
0000
0000
0000
0000
0000
0000
1030
0000
0000
0000
0000
0000
0000
0000
0000
0000
0000
0000
0000
0000
0000
0000
0000
0000
0000
0000
0000
0010
0000
0000
0000
0000
0000
0000
0000
0000
0000
0000
0000
0000
0000
0000
0000
0000
0000
0000
0000
0000
0000
0000
0000
0000
0000
0000
1001
0000
0000
0000
0000
0000
0000
0000
0000
0000
0000
0000
0000
0000
0000
0000
0000
0000
0000
0000
0000
0000
0000
0000
0000
0000
0000
0000
0000
0000
0000
0000
0001
0000
0000
0000
0000
0000
0000
0000
0000
0000
0000
0000
0000
0000
0000
0000
,  // measure 48
0010
0000
0100
0000
0100
0000
0010
0000
0000
0000
0000
0000
2001
0000
0000
0000
0000
0000
3010
0000
0000
1100
0000
0000
,  // measure 49
0001
0000
0000
0100
0001
0100
0010
0000
0000
0000
0010
0000
2000
0000
0000
0000
0000
0000
0100
0000
0000
0000
0000
0000
,  // measure 50
0001
0000
0000
0000
0010
0000
0000
3000
1001
0000
1000
0001
0020
0000
0030
0000
,  // measure 51
0010
0000
0000
0000
0000
0000
0000
0000
0000
0000
0000
0000
0000
0000
0000
0000
0001
0000
0000
0000
0000
0000
0000
0000
0000
0000
0000
0000
0000
0000
0000
0000
1000
0000
0000
0000
0000
0000
0000
0000
0000
0000
0000
0000
0000
0000
0000
0000
0010
0000
0000
0000
0000
0000
0000
0000
0000
0000
0000
0000
0000
0000
0000
0000
0000
0000
0000
0000
0000
0210
0000
0000
0000
0000
0000
0000
0000
0000
0000
0000
0000
0000
0000
0000
0000
0000
0000
0000
0000
0000
0000
0000
0000
0000
0000
0000
0301
0000
0000
0000
0000
0000
0000
0000
0000
0000
0000
0000
0000
0000
0000
0000
0000
0000
0000
0000
0000
0001
0000
0000
0000
0000
0000
0000
0000
0000
0000
0000
0000
1000
0000
0000
0000
0000
0000
0000
0000
0000
0000
0000
0000
0000
0000
0000
0100
0000
0000
0000
0000
0000
0000
0000
0000
0000
0000
0000
0000
0000
0000
0000
0000
0000
0000
0000
0000
0000
0000
0000
0000
0000
0000
0000
0000
0000
0000
0000
0010
0000
0000
0000
0000
0000
0000
0000
0000
0000
0000
0000
0000
0000
0000
0000
,  // measure 52
0010
0000
0100
0000
1000
0000
0001
0000
0000
0000
0000
0000
0010
0001
0010
0001
0010
0001
1000
0000
0000
0101
0000
0000
,  // measure 53
1000
0000
0100
0000
1000
0000
0100
0000
1000
0000
0100
0000
0010
0000
0000
0000
0000
0000
0000
0000
0010
0000
0000
0000
0001
0000
0000
1000
0000
0000
0001
0000
0000
0000
0000
0000
0200
0000
0000
0000
0000
0000
0000
0000
0000
0000
0000
0000
,  // measure 54
1000
0000
0000
0000
0301
0000
0001
0010
0100
0000
0000
0000
1000
0000
0000
0000
,  // measure 55
1000
0000
0000
0000
1000
0000
0000
0001
0100
0000
0100
0000
1010
0000
0000
0000
,  // measure 56
0011
0000
0000
0000
0101
0000
0000
0001
1000
0000
1100
0000
0101
0000
0000
0000
,  // measure 57
0011
0000
0000
0000
1010
0000
0000
1000
0100
0000
0110
0000
1001
0000
0000
0000
,  // measure 58
1100
0000
0000
0000
0101
0000
0000
0001
0010
0000
0010
0000
0100
0000
0100
0000
,  // measure 59
0010
0000
0000
0001
0000
0000
0010
0000
0000
0000
0000
0000
0002
0000
0000
0000
0000
0000
0000
0000
0000
0000
0000
0000
0203
0000
0000
0000
0000
0000
0000
0000
0300
0000
0000
0000
1001
0000
0000
0000
0000
0000
0220
0000
0000
0000
0000
0000
,  // measure 60
0000
0000
0330
2002
,  // measure 61
0000
0000
0000
3003
;
