#TITLE:Love Me Back;
#SUBTITLE:;
#ARTIST:Can Bonomo;
#TITLETRANSLIT:;
#SUBTITLETRANSLIT:;
#ARTISTTRANSLIT:;
#GENRE:;
#CREDIT:;
#BANNER:Love Me Back.png;
#BACKGROUND:Love Me Back-bg.png;
#LYRICSPATH:;
#CDTITLE:;
#MUSIC:Love Me Back.mp3;
#OFFSET:-4.720000;
#SAMPLESTART:58.817337;
#SAMPLELENGTH:11.764709;
#SELECTABLE:YES;
#BPMS:0.000000=51.000000
,8.000000=102.000000
;
#STOPS:
;
#BGCHANGES:;
#KEYSOUNDS:;
#ATTACKS:;

//---------------dance-single - Oni-91----------------
#NOTES:
     dance-single:
     :
     Hard:
     8:
     0.443570,0.449061,0.202280,0.252850,0.308477,307.000000,287.000000,20.000000,25.000000,0.000000,0.000000,0.443570,0.449061,0.202280,0.252850,0.308477,307.000000,287.000000,20.000000,25.000000,0.000000,0.000000:
// measure 0
1001
0000
0000
1000
0100
0000
0000
0000
0010
0001
0010
0001
1000
0000
0001
0000
,  // measure 1
1001
0000
0000
0001
0100
0000
0010
0000
1000
0000
0000
0001
1000
0001
1000
0100
,  // measure 2
0010
0000
0000
0100
1000
0000
0001
0000
0100
0000
0010
0000
1000
0000
0001
0000
,  // measure 3
0010
0000
0000
0010
0001
0000
1000
0000
0001
0000
0000
1000
0001
0000
0000
0000
,  // measure 4
1010
0000
0000
0001
0100
0000
0001
0000
0010
0000
0100
0000
0001
0000
0100
0000
,  // measure 5
2000
0000
3010
0100
0002
0000
1000
1003
,  // measure 6
2002
0000
0003
0100
0200
0000
3300
0000
,  // measure 7
0001
0010
0001
0000
1000
0000
0001
0200
0000
0000
0000
0000
0310
0000
0000
0000
,  // measure 8
0100
0000
0001
0100
0001
0000
1000
0000
0100
0000
0001
0000
0100
0000
0010
0000
,  // measure 9
0002
0000
0000
0010
0010
1000
0100
1003
,  // measure 10
2002
0000
0003
0010
0020
0000
3030
0000
,  // measure 11
0001
0100
0001
0000
1000
0000
0100
2000
0000
0000
0000
0000
3010
0000
0000
0000
,  // measure 12
0001
0000
0010
0001
0100
0000
0010
0000
1000
0000
0100
0000
0001
0000
0100
0000
,  // measure 13
0020
0000
0000
0100
0100
1000
0100
0031
,  // measure 14
1002
0000
0000
1000
0000
0000
1000
0000
0103
0000
0010
0100
0010
0000
1000
0000
,  // measure 15
0012
0000
0000
0010
0000
0000
0010
0000
0013
0000
0100
0000
1000
0000
0001
0000
,  // measure 16
2000
0010
0000
0010
3010
1000
0100
0001
,  // measure 17
0100
0020
0000
0001
0031
1000
0001
0000
,  // measure 18
0220
0330
2002
3003
,  // measure 19
1010
0000
0110
0000
0101
0000
2002
0000
0000
0000
0000
0000
,  // measure 20
0000
0000
0000
0000
3003
0000
0000
0000
1000
0100
1000
0000
0001
0100
0001
0000
,  // measure 21
1000
0000
0000
0001
1000
0000
0100
0000
0001
0000
1000
0000
0010
0000
0001
0000
,  // measure 22
0100
0000
0000
0010
0100
0000
0001
0000
1000
0000
0000
0001
0010
0000
0001
0000
,  // measure 23
0100
0000
0000
0010
1000
0000
0100
0000
0001
0000
1000
0000
0010
0000
0001
0000
,  // measure 24
2000
0000
0000
0000
3100
0000
0010
0000
0001
0010
0000
0100
1000
0000
0001
0000
,  // measure 25
1001
0000
0000
1000
0100
0000
0001
0000
1000
0000
0010
0000
0100
0000
1000
0000
,  // measure 26
0001
0000
0100
0001
0100
0001
0100
0001
0100
0000
0000
0100
0010
0000
1000
0000
,  // measure 27
1001
0000
0000
0001
0010
0001
1000
0010
1000
0000
0100
0000
0110
0000
0010
0000
,  // measure 28
0002
0000
0000
0000
0010
0000
1000
0000
0103
0000
1000
0001
1000
0001
1000
0000
,  // measure 29
0001
0000
0100
0010
1000
0000
0100
0000
0001
0000
0100
0000
1000
0000
0010
0000
,  // measure 30
0100
0010
0100
0001
0100
0000
0001
0000
1000
0100
0000
1000
0100
0000
0010
0000
,  // measure 31
0100
0000
1000
0001
0100
0001
0100
0000
1000
0000
0100
0000
0001
0000
1000
0000
,  // measure 32
0100
0000
0000
0100
0010
0000
0001
0000
1000
0000
0000
1000
0001
0000
0100
0000
,  // measure 33
0101
0000
0000
0001
1000
0001
1000
0001
1000
0000
0100
0000
0001
0000
0100
0000
,  // measure 34
1000
0000
0100
0010
0001
0010
0100
0010
0001
0000
1000
0000
1001
0000
0000
0000
,  // measure 35
0110
0000
0000
0100
0010
0100
0010
0100
0010
0000
1000
0000
0100
0000
0010
0000
,  // measure 36
0200
0000
0000
0000
0310
0000
0001
1000
0001
0000
0100
0001
0100
0010
1000
0000
,  // measure 37
1001
0000
0000
0000
;

//---------------dance-single - Oni-91----------------
#NOTES:
     dance-single:
     :
     Medium:
     5:
     0.290416,0.280663,0.283192,0.262964,0.015171,201.000000,173.000000,28.000000,26.000000,0.000000,0.000000,0.290416,0.280663,0.283192,0.262964,0.015171,201.000000,173.000000,28.000000,26.000000,0.000000,0.000000:
// measure 0
2002
0000
3003
0000
0001
0000
0100
0010
,  // measure 1
0220
0000
0000
0000
0330
0000
0000
0000
0010
0000
0000
0000
1000
0001
1000
0000
,  // measure 2
1001
0000
0001
0010
0100
0000
1100
0000
,  // measure 3
1000
0000
0010
0100
0001
0000
1000
0000
,  // measure 4
1001
0000
0001
0100
0010
0000
1001
0000
,  // measure 5
1000
0000
0001
0010
0200
0000
0310
0000
,  // measure 6
1002
0000
0000
0100
0200
0000
0303
0000
,  // measure 7
0001
0000
1000
0100
2000
0000
3001
0000
,  // measure 8
0001
0100
0001
0000
1000
0000
0100
0010
,  // measure 9
0200
0000
0000
0010
0020
0000
0330
0000
,  // measure 10
2001
0000
0000
0100
0200
0000
3300
0000
,  // measure 11
1000
0000
0001
0100
0002
0000
1003
0000
,  // measure 12
0001
0000
1000
0010
0100
0000
0010
0100
,  // measure 13
0002
0000
0000
1000
1003
0000
0110
0000
,  // measure 14
2002
0000
3003
1000
0100
0010
0001
0000
,  // measure 15
0100
0001
0000
1000
0010
0000
0110
0000
,  // measure 16
0001
0010
0000
0100
1000
0000
1001
0000
,  // measure 17
0001
0010
0000
0010
0001
0000
1100
0000
,  // measure 18
2002
3003
0220
0330
,  // measure 19
0010
0000
0100
0000
0010
0000
0220
0000
0000
0000
0000
0000
,  // measure 20
0000
0000
0330
0000
,  // measure 21
1001
0000
0001
0010
0100
0010
0001
0000
,  // measure 22
1000
0010
0100
0001
,  // measure 23
1000
0000
0001
0100
0010
0100
0001
0000
,  // measure 24
1000
0000
0100
1000
0100
0000
0010
0000
,  // measure 25
1001
0000
0001
0000
0100
0001
0100
0010
,  // measure 26
2000
0000
0001
0001
0002
0000
3003
0000
,  // measure 27
1001
0000
1000
0100
0010
0000
0110
0000
,  // measure 28
2001
0000
0000
0001
0002
0000
3003
0000
,  // measure 29
1001
0000
0001
0100
0010
0000
1000
0000
,  // measure 30
0001
0010
0100
0010
0001
0000
1000
0000
,  // measure 31
1001
0000
0001
1000
0100
0000
1000
0000
,  // measure 32
0010
0000
0001
0001
1000
0000
1100
0000
,  // measure 33
1001
0000
0001
0010
0100
1000
0001
0000
,  // measure 34
1000
0000
0001
0100
0001
0000
0100
0000
,  // measure 35
0110
0000
0010
1000
0001
0010
0001
0000
,  // measure 36
1000
0000
0100
1000
0001
0000
0110
0000
,  // measure 37
1001
0000
0000
0000
;

//---------------dance-single - Oni-91----------------
#NOTES:
     dance-single:
     :
     Easy:
     4:
     0.190721,0.187109,0.151710,0.273078,0.000000,132.000000,117.000000,15.000000,27.000000,0.000000,0.000000,0.190721,0.187109,0.151710,0.273078,0.000000,132.000000,117.000000,15.000000,27.000000,0.000000,0.000000:
// measure 0
2002
3003
0002
0003
,  // measure 1
2000
3000
0200
0300
,  // measure 2
1001
0000
0001
0000
,  // measure 3
0100
0001
1000
0000
,  // measure 4
1001
0000
0001
0000
,  // measure 5
0010
0001
1000
0010
,  // measure 6
0120
0000
0000
0100
0200
0000
0330
0000
,  // measure 7
0002
0000
0000
1000
2000
0000
3003
0000
,  // measure 8
2000
0000
0000
0100
0100
0000
3001
0000
,  // measure 9
2002
3003
0001
0100
,  // measure 10
0210
0000
0000
0010
0020
0000
0330
0000
,  // measure 11
0002
0000
0000
1000
2000
0000
3003
0000
,  // measure 12
2000
0000
0000
0100
0200
0000
3300
0000
,  // measure 13
0020
0000
0000
0100
0100
0000
0031
0000
,  // measure 14
1001
0000
1000
0010
,  // measure 15
1000
0001
0010
0100
,  // measure 16
0010
0000
0010
0100
,  // measure 17
1000
0000
0001
1000
,  // measure 18
2002
3003
2002
3003
,  // measure 19
0220
0000
0330
0000
,  // measure 20
0000
0000
0000
0000
,  // measure 21
1001
0001
0100
0010
,  // measure 22
1000
0100
0001
0000
,  // measure 23
0100
1000
0001
0100
,  // measure 24
1000
0100
0010
0000
,  // measure 25
0110
0100
0001
0010
,  // measure 26
1000
0010
0100
0000
,  // measure 27
0010
0001
0100
0001
,  // measure 28
1000
0010
0100
0000
,  // measure 29
0010
1000
0100
0001
,  // measure 30
1000
0010
0001
1000
,  // measure 31
0001
0100
1000
0100
,  // measure 32
0010
1000
2002
3003
,  // measure 33
1001
1000
0100
1000
,  // measure 34
0010
0001
1000
0100
,  // measure 35
0001
0010
0100
0001
,  // measure 36
0100
1000
0010
0100
,  // measure 37
1001
0000
0000
0000
;

//---------------dance-single - Oni-91----------------
#NOTES:
     dance-single:
     :
     Beginner:
     1:
     0.102585,0.130976,0.111254,0.020228,0.000000,71.000000,60.000000,11.000000,2.000000,0.000000,0.000000,0.102585,0.130976,0.111254,0.020228,0.000000,71.000000,60.000000,11.000000,2.000000,0.000000,0.000000:
// measure 0
1001
0000
0000
0000
,  // measure 1
0110
0000
0000
0000
,  // measure 2
1001
0000
0001
0000
,  // measure 3
0100
0000
0000
0000
,  // measure 4
0010
0000
1000
0000
,  // measure 5
0001
0000
1000
0000
,  // measure 6
1001
0000
0000
0000
,  // measure 7
0001
0000
0000
0000
,  // measure 8
0100
0000
0010
0000
,  // measure 9
0100
0000
0000
0000
,  // measure 10
1001
0000
0000
0000
,  // measure 11
1000
0000
0000
0000
,  // measure 12
0001
0000
1000
0000
,  // measure 13
0001
0000
0000
0000
,  // measure 14
0010
0000
0100
0000
,  // measure 15
0010
0000
1000
0000
,  // measure 16
0001
0000
0001
0000
,  // measure 17
1000
0000
1000
0000
,  // measure 18
1001
0000
1001
0000
,  // measure 19
0000
0000
2002
0000
,  // measure 20
0000
0000
3003
0000
,  // measure 21
0110
0000
0010
0000
,  // measure 22
1000
0000
0000
0000
,  // measure 23
0001
0000
1000
0000
,  // measure 24
0100
0000
0010
0000
,  // measure 25
0001
0000
1000
0000
,  // measure 26
0001
0000
0000
0000
,  // measure 27
1000
0000
0010
0000
,  // measure 28
1000
0000
0000
0000
,  // measure 29
1001
0000
0001
0000
,  // measure 30
1000
0000
0100
0000
,  // measure 31
0010
0000
0100
0000
,  // measure 32
1000
0000
0001
0000
,  // measure 33
1000
0000
1000
0000
,  // measure 34
0001
0000
0001
0000
,  // measure 35
0100
0000
0100
0000
,  // measure 36
0010
0000
0010
0000
,  // measure 37
0110
0000
0000
0000
;
