#TITLE:Land of Confusion;
#SUBTITLE:;
#ARTIST:Genesis;
#TITLETRANSLIT:;
#SUBTITLETRANSLIT:;
#ARTISTTRANSLIT:;
#GENRE:;
#CREDIT:;
#BANNER:Land of Confusion.png;
#BACKGROUND:Land of Confusion-bg.png;
#LYRICSPATH:;
#CDTITLE:;
#MUSIC:Land of Confusion.mp3;
#OFFSET:-5.220000;
#SAMPLESTART:59.395000;
#SAMPLELENGTH:16.660000;
#SELECTABLE:YES;
#DISPLAYBPM:115.000000;
#BPMS:0.000000=115.181000
;
#STOPS:
;
#BGCHANGES:;
#KEYSOUNDS:;
#ATTACKS:;

//---------------dance-single - Oni-91----------------
#NOTES:
     dance-single:
     :
     Hard:
     6:
     0.311360,0.300732,0.083828,0.484338,0.023285,234.000000,225.000000,9.000000,52.000000,0.000000,0.000000,0.311360,0.300732,0.083828,0.484338,0.023285,234.000000,225.000000,9.000000,52.000000,0.000000,0.000000:
// measure 0
1000
0000
0001
0000
0010
0000
0100
0010
,  // measure 1
0000
0010
0001
0000
2002
0000
3003
0000
,  // measure 2
0002
0200
0303
0000
0001
1000
0100
0000
,  // measure 3
0010
0100
1000
0001
,  // measure 4
0200
0020
0330
0000
0010
1000
0001
0000
,  // measure 5
1000
0000
0100
0000
0001
0100
1000
0000
,  // measure 6
0002
2000
3003
0000
1000
0010
0100
0000
,  // measure 7
0001
0000
0010
0000
0001
0010
0100
0000
,  // measure 8
0020
0002
0033
0000
1000
0100
1000
0000
,  // measure 9
0010
0100
0001
2000
0000
0000
3010
0000
,  // measure 10
1000
0100
0001
0000
0100
0010
0001
1000
,  // measure 11
0001
1000
0010
0100
,  // measure 12
0010
0100
0001
0000
1000
0100
0001
0100
,  // measure 13
1000
0001
1000
0100
,  // measure 14
0001
0010
1000
0000
0010
0000
0001
1000
,  // measure 15
0010
0100
1000
0100
,  // measure 16
0010
1000
0100
0000
0001
0100
1000
0000
,  // measure 17
0001
1000
0001
0200
0020
0000
0330
0000
,  // measure 18
1001
0000
1000
0002
0000
0100
0103
0000
,  // measure 19
0100
0000
0010
2000
0000
0001
3001
0000
,  // measure 20
0001
1000
0100
0020
0000
0100
0130
0000
,  // measure 21
0010
0000
0001
1000
0001
0000
0110
0000
,  // measure 22
1001
0000
0001
0200
0000
0010
0310
0000
,  // measure 23
0010
0000
1000
0100
0010
0100
0010
0000
,  // measure 24
0001
1000
0001
0200
0000
0320
0000
0000
,  // measure 25
1000
1000
0000
0200
0000
0000
0330
0000
,  // measure 26
2002
0000
0000
0000
3003
0000
0000
0000
0001
0000
0000
1000
0000
0000
0100
0000
,  // measure 27
0020
0001
1000
0031
,  // measure 28
2002
0000
0000
0000
3003
0000
0000
0000
1000
0000
0000
0010
0000
0000
0100
0000
,  // measure 29
0002
0010
1000
0103
,  // measure 30
0220
0000
0000
0000
0330
0000
0000
0000
0010
0000
0000
1000
0000
0000
0001
0000
,  // measure 31
0200
1000
0001
0310
,  // measure 32
2002
0000
0000
0000
3003
0000
0000
0000
0001
0000
0000
1000
0000
0000
0001
0000
,  // measure 33
2000
0010
0001
3100
,  // measure 34
0220
0000
0330
0000
0010
0000
0001
1000
,  // measure 35
0020
0000
2030
0000
3200
0000
0320
0100
,  // measure 36
0230
0000
1300
0000
0001
0000
0100
0010
,  // measure 37
0200
0302
2003
3200
,  // measure 38
0301
0000
0100
0000
1000
0000
0001
0100
,  // measure 39
0002
0000
0023
0000
0230
0000
2300
0100
,  // measure 40
3200
0000
0000
0000
1300
0000
0000
0000
0001
0000
0000
1000
0000
0000
0001
0000
,  // measure 41
0200
0302
2003
3200
,  // measure 42
0310
0000
0001
0000
1000
0001
1000
0001
,  // measure 43
0000
0100
0001
0000
0100
0010
0100
0010
,  // measure 44
0000
1000
0001
0000
1000
0100
0010
0001
,  // measure 45
0000
0010
0001
0000
0100
0010
1000
0001
,  // measure 46
1000
1000
0000
0000
0000
0000
0000
0000
;

//---------------dance-single - Oni-91----------------
#NOTES:
     dance-single:
     :
     Beginner:
     1:
     0.111770,0.128536,0.065199,0.000000,0.000000,84.000000,77.000000,7.000000,0.000000,0.000000,0.000000,0.111770,0.128536,0.065199,0.000000,0.000000,84.000000,77.000000,7.000000,0.000000,0.000000,0.000000:
// measure 0
1000
0000
0000
0000
,  // measure 1
0001
0000
0100
0000
,  // measure 2
0110
0000
0000
0000
,  // measure 3
0010
0000
1000
0000
,  // measure 4
0001
0000
0000
0000
,  // measure 5
1000
0000
0001
0000
,  // measure 6
0010
0000
0000
0000
,  // measure 7
0100
0000
0010
0000
,  // measure 8
0100
0000
0000
0000
,  // measure 9
0001
0000
1000
0000
,  // measure 10
0001
0000
0000
0000
,  // measure 11
1000
0000
1000
0000
,  // measure 12
0100
0000
0000
0000
,  // measure 13
0010
0000
0010
0000
,  // measure 14
0100
0000
0000
0000
,  // measure 15
1000
0000
0001
0000
,  // measure 16
0100
0000
0010
0000
,  // measure 17
0100
0000
0000
0000
,  // measure 18
1001
0000
0000
0000
,  // measure 19
0110
0000
0000
0000
,  // measure 20
0001
0000
1000
0000
,  // measure 21
0100
0000
0010
0000
,  // measure 22
0110
0000
0000
0000
,  // measure 23
1001
0000
0000
0000
,  // measure 24
1000
0000
0001
0000
,  // measure 25
0100
0000
0000
0000
,  // measure 26
0010
0000
1000
0000
,  // measure 27
0010
0000
1000
0000
,  // measure 28
0001
0000
1000
0000
,  // measure 29
0001
0000
1000
0000
,  // measure 30
0001
0000
0010
0000
,  // measure 31
0001
0000
0010
0000
,  // measure 32
0100
0000
1000
0000
,  // measure 33
0100
0000
1000
0000
,  // measure 34
0001
0000
0100
0000
,  // measure 35
0010
0000
1000
0000
,  // measure 36
0001
0000
0010
0000
,  // measure 37
0100
0000
1000
0000
,  // measure 38
0001
0000
1000
0000
,  // measure 39
0010
0000
1000
0000
,  // measure 40
0100
0000
0010
0000
,  // measure 41
0100
0000
1000
0000
,  // measure 42
1001
0000
0000
0000
,  // measure 43
0001
0000
0100
0000
,  // measure 44
0001
0000
0000
0000
,  // measure 45
1000
0000
0100
0000
,  // measure 46
0110
0000
0000
0000
;

//---------------dance-single - Oni-91----------------
#NOTES:
     dance-single:
     :
     Easy:
     4:
     0.236847,0.214227,0.232855,0.428453,0.000000,178.000000,153.000000,25.000000,46.000000,0.000000,0.000000,0.236847,0.214227,0.232855,0.428453,0.000000,178.000000,153.000000,25.000000,46.000000,0.000000,0.000000:
// measure 0
1000
0000
0010
1000
,  // measure 1
0001
0000
1000
0001
,  // measure 2
2002
3003
0001
0100
,  // measure 3
1000
0100
0001
0000
,  // measure 4
2002
3003
0001
0010
,  // measure 5
1000
0010
0001
0000
,  // measure 6
2002
3003
0001
0100
,  // measure 7
0010
1000
0100
0000
,  // measure 8
2002
3003
1000
0100
,  // measure 9
0010
0001
1000
0010
,  // measure 10
0220
0330
0010
1000
,  // measure 11
0001
1000
0100
0010
,  // measure 12
0220
0330
0100
0010
,  // measure 13
0001
1000
0001
0100
,  // measure 14
0220
0330
0010
1000
,  // measure 15
0001
1000
0100
0010
,  // measure 16
2002
3003
0001
0100
,  // measure 17
0010
1000
2002
3003
,  // measure 18
0110
0000
0000
0220
0000
0330
0000
0000
,  // measure 19
1001
0000
0000
2002
0000
3003
0000
0000
,  // measure 20
1000
0100
0001
0100
,  // measure 21
1000
0010
0001
0010
,  // measure 22
1000
0001
1000
0000
,  // measure 23
0001
0010
0100
0010
,  // measure 24
0001
0100
0010
0000
,  // measure 25
1001
0000
0000
2002
0000
0000
3003
0000
,  // measure 26
0220
0330
0010
1000
,  // measure 27
0100
0001
0100
1000
,  // measure 28
2002
3003
0001
0100
,  // measure 29
1000
0100
0001
0010
,  // measure 30
0220
0330
0100
0010
,  // measure 31
0001
0100
0010
1000
,  // measure 32
2002
3003
0001
0010
,  // measure 33
0100
0001
0100
1000
,  // measure 34
2002
3003
0001
0100
,  // measure 35
0020
1000
0100
1030
,  // measure 36
2002
3003
0001
0010
,  // measure 37
0200
0010
1000
0310
,  // measure 38
2002
3003
0001
0100
,  // measure 39
0020
1000
0100
1030
,  // measure 40
2002
3003
1000
0100
,  // measure 41
2000
0010
0001
3100
,  // measure 42
1001
0010
0001
0200
,  // measure 43
0000
0310
1000
0001
,  // measure 44
1000
0100
0010
0002
,  // measure 45
0000
1003
0001
0100
,  // measure 46
0110
0000
0000
0000
;

//---------------dance-single - Oni-91----------------
#NOTES:
     dance-single:
     :
     Medium:
     5:
     0.267450,0.257770,0.158341,0.530909,0.000000,201.000000,184.000000,17.000000,57.000000,0.000000,0.000000,0.267450,0.257770,0.158341,0.530909,0.000000,201.000000,184.000000,17.000000,57.000000,0.000000,0.000000:
// measure 0
1000
0000
0001
0000
0100
0000
0010
0100
,  // measure 1
0000
0001
1000
0001
,  // measure 2
2002
0000
3003
0000
1000
0100
1000
0000
,  // measure 3
0001
0100
0220
0330
,  // measure 4
2002
0000
3003
0000
1000
0001
1000
0000
,  // measure 5
0001
0010
0220
0330
,  // measure 6
2002
3003
0001
1000
,  // measure 7
0010
0100
0001
0010
,  // measure 8
0220
0000
0330
0000
0010
0001
1000
0000
,  // measure 9
0001
1000
0001
2000
0000
0000
3001
0000
,  // measure 10
2002
0000
3003
0000
0001
0100
0001
0000
,  // measure 11
0100
1000
0100
0001
,  // measure 12
2002
0000
3003
0000
1000
0100
1000
0000
,  // measure 13
0100
0001
0100
1000
,  // measure 14
0220
0000
0330
0000
0010
1000
0010
0000
,  // measure 15
0100
0001
0010
0100
,  // measure 16
0220
0000
0330
0000
0010
0001
0010
0000
,  // measure 17
0001
1000
0001
2000
0000
0000
3001
0000
,  // measure 18
0110
0000
0002
2000
0000
0000
3003
0000
,  // measure 19
1001
0000
2000
0200
0000
0000
3300
0000
,  // measure 20
0100
0000
0010
0001
0000
0001
0010
0000
,  // measure 21
0001
0100
1000
0100
,  // measure 22
0001
0000
1000
0001
0000
0001
1000
0000
,  // measure 23
0100
0001
0100
1000
,  // measure 24
0001
1000
0001
2000
0000
3001
0000
0000
,  // measure 25
0210
0000
0000
0020
0000
0000
0330
0000
,  // measure 26
2002
3003
0001
1000
,  // measure 27
0200
0302
0203
2300
,  // measure 28
0002
3003
0001
0100
,  // measure 29
2000
3200
0302
2003
,  // measure 30
0002
3003
0001
0010
,  // measure 31
0200
0320
0032
2003
,  // measure 32
0020
3030
0010
1000
,  // measure 33
0002
2003
3002
0203
,  // measure 34
0020
0000
0330
0000
0010
0000
1000
0010
,  // measure 35
1000
0100
0001
0100
,  // measure 36
2002
0000
3003
0000
0001
0000
0100
0001
,  // measure 37
0100
1000
0100
0001
,  // measure 38
0220
0000
0330
0000
0010
0000
1000
0001
,  // measure 39
1000
0001
0010
0100
,  // measure 40
0220
0000
0330
0000
0010
0000
0001
0010
,  // measure 41
0001
1000
0100
0010
,  // measure 42
0100
0000
0010
0000
0001
0000
1000
0001
,  // measure 43
0000
0001
1000
0000
0001
0000
0100
0010
,  // measure 44
0000
0010
0100
0000
0010
0000
1000
0001
,  // measure 45
0000
0001
1000
0000
0100
0000
0010
0100
,  // measure 46
0010
0100
0000
0000
0000
0000
0000
0000
;
