#VERSION:0.83;
#TITLE:LUV CAN SAVE U;
#SUBTITLE:;
#ARTIST:長沼英樹;
#TITLETRANSLIT:;
#SUBTITLETRANSLIT:;
#ARTISTTRANSLIT:HIDEKI NAGANUMA;
#GENRE:;
#ORIGIN:;
#CREDIT:;
#BANNER:LUV CAN SAVE U.png;
#BACKGROUND:LUV CAN SAVE U-bg.png;
#PREVIEWVID:;
#JACKET:;
#CDIMAGE:;
#DISCIMAGE:;
#LYRICSPATH:;
#CDTITLE:;
#MUSIC:LUV CAN SAVE U.mp3;
#OFFSET:-6.870000;
#SAMPLESTART:40.492550;
#SAMPLELENGTH:13.714287;
#SELECTABLE:YES;
#BPMS:0.000=140.000;
#STOPS:;
#DELAYS:;
#WARPS:;
#TIMESIGNATURES:0.000=4=4;
#TICKCOUNTS:0.000=4;
#COMBOS:0.000=1;
#SPEEDS:0.000=1.000=0.000=0;
#SCROLLS:0.000=1.000;
#FAKES:;
#LABELS:0.000=Song Start;
#BGCHANGES:;
#KEYSOUNDS:;
#ATTACKS:
;

//---------------dance-single - Oni-91----------------
#NOTEDATA:;
#CHARTNAME:;
#STEPSTYPE:dance-single;
#DESCRIPTION:Oni-91;
#CHARTSTYLE:;
#DIFFICULTY:Hard;
#METER:7;
#RADARVALUES:0.414578,0.496403,0.225089,0.257245,0.229109,361.000000,333.000000,28.000000,32.000000,0.000000,0.000000,0.000000,0.000000,0.000000,0.414578,0.496403,0.225089,0.257245,0.229109,361.000000,333.000000,28.000000,32.000000,0.000000,0.000000,0.000000,0.000000,0.000000;
#CREDIT:Oni-91;
#NOTES:
// measure 0
1000
0000
0000
0100
0000
0000
2000
0000
0000
0000
3001
0000
0000
0001
0000
0000
,  // measure 1
0100
0000
0000
0010
0000
0000
0200
0000
0000
0000
0301
0000
0000
1000
0000
0000
,  // measure 2
0100
0000
0000
0010
0000
0000
0002
0000
0000
0000
0013
0000
0000
0001
0000
0000
,  // measure 3
1000
0000
0000
0001
0000
0000
0200
0000
0000
0000
0310
0000
0000
1000
0000
0000
,  // measure 4
0001
0000
0000
0010
0000
0000
2000
0000
0000
0000
3010
0000
0000
0001
0000
0000
,  // measure 5
1000
0000
0000
0010
0000
0000
0002
0000
0000
0000
0013
0000
0000
1000
0000
0000
,  // measure 6
1010
0000
0000
0101
0000
0000
2001
0000
0000
0000
3100
0000
0000
1000
0000
0000
,  // measure 7
0001
0000
0000
0100
0000
0000
0002
0000
0000
0000
1003
0000
0000
0001
0000
0000
,  // measure 8
1000
0010
1000
0000
0001
0100
0010
0000
,  // measure 9
1000
0000
0001
0000
0000
0010
0000
0000
0100
0000
0000
0000
1001
0000
0000
0000
,  // measure 10
0010
0000
0100
0000
0010
0000
1000
0000
0001
0000
0000
1000
0000
0000
0100
0000
,  // measure 11
0000
1000
0001
0000
0010
0001
0100
0000
,  // measure 12
0010
1000
0100
0000
0010
0001
1000
0000
,  // measure 13
0001
0000
0100
0000
0000
0010
0000
0000
1000
0000
0000
0000
1001
0000
0000
0000
,  // measure 14
0001
0000
0100
0000
0000
0001
0000
0000
1000
0000
0000
0100
0000
0000
1000
0000
,  // measure 15
0001
0100
0101
0000
1000
0100
1100
0000
,  // measure 16
0001
0100
0001
0010
0200
0000
1300
0001
,  // measure 17
0000
0001
0100
0010
0100
0000
0010
1000
,  // measure 18
0000
0100
0010
0001
0000
0001
1000
0000
,  // measure 19
0110
2002
3003
0000
,  // measure 20
1000
0000
0000
0100
0000
0000
1100
0000
0000
0000
1000
0000
0000
0001
0000
0000
,  // measure 21
0100
0000
0000
0001
0000
0000
0101
0000
0000
0000
0100
0000
0000
0010
0000
0000
,  // measure 22
1000
0000
0000
0001
0000
0000
1001
0000
0000
0000
1000
0000
0000
0100
0000
0000
,  // measure 23
0010
0000
0000
0100
0000
0000
0110
0000
0000
0000
0010
0000
0001
0000
1000
0000
,  // measure 24
0001
0000
0001
0100
0000
0000
0101
0000
0000
0000
0001
0000
0000
1000
0000
0000
,  // measure 25
0100
0000
0100
0010
0000
0000
0110
0000
0000
0000
0100
0000
0000
1000
0000
0000
,  // measure 26
0001
0000
1000
0001
0000
0000
1001
0000
0000
0000
1000
0000
0000
0010
0000
0000
,  // measure 27
0100
0000
0001
0100
0000
0000
0101
0000
0000
0000
0001
0000
1000
0000
0000
0000
,  // measure 28
0120
0001
0100
1000
,  // measure 29
0032
0000
1000
2003
0000
0000
3020
0000
,  // measure 30
0230
1000
0010
0001
,  // measure 31
0320
0000
0100
0230
0000
0000
0302
0000
,  // measure 32
2003
0010
0001
0100
,  // measure 33
3002
0010
0100
0010
,  // measure 34
2003
0010
0001
0100
,  // measure 35
0002
0000
0000
3003
,  // measure 36
1000
0100
1000
0001
0100
0010
0200
0000
,  // measure 37
0000
0000
0001
0000
0000
0001
0000
0000
0001
0000
0000
0000
0301
0000
0000
0000
,  // measure 38
0001
0000
0100
0000
0010
0000
1000
0000
0100
0000
0000
1000
0000
0000
2200
0000
,  // measure 39
0000
3300
0010
0001
1000
0001
0100
0000
,  // measure 40
0001
1000
0001
0100
0010
0100
0002
0000
,  // measure 41
0000
0000
1000
0000
0000
1000
0000
0000
1000
0000
0000
0000
1003
0000
0000
0000
,  // measure 42
0001
0000
0100
0000
0000
0010
0000
0000
1000
0000
0000
0100
0000
0000
0010
0000
,  // measure 43
0001
1000
0001
0000
0100
0010
0100
0000
,  // measure 44
1010
0000
0000
0000
0100
0000
0000
0000
0001
0000
0010
0000
0000
0001
0000
0000
,  // measure 45
1000
0000
0000
0000
0010
0000
0000
0000
1000
0000
0001
0000
0000
0010
0000
0000
,  // measure 46
0001
0000
0000
0000
0100
0000
0000
0000
0010
0000
1000
0000
0000
0100
0000
0000
,  // measure 47
0010
0000
0000
0000
0100
0000
0000
0000
1000
0000
0001
0000
0000
1000
0000
0000
,  // measure 48
0001
0220
0330
1001
,  // measure 49
0001
0000
0000
0100
0000
0000
0001
0000
0000
0000
1000
0000
0000
0100
0000
0000
,  // measure 50
0010
0000
0000
0100
0000
0000
0010
0000
0000
0000
0001
0000
0000
1000
0000
0000
,  // measure 51
0001
0000
0000
0100
0000
0000
0010
0000
0000
0000
1000
0000
0000
0001
0000
0000
,  // measure 52
0100
0000
0000
0001
0000
0000
1000
0000
0000
0000
0100
0000
0000
0010
0000
0000
,  // measure 53
0100
0000
0000
1000
0000
0000
0001
0000
0000
0000
0100
0000
0010
0000
1000
0000
,  // measure 54
0100
0000
0000
0010
0000
0000
0100
0000
0000
0000
0010
0000
0001
0000
1000
0000
,  // measure 55
1001
0000
0000
1001
0000
0000
1001
0000
0000
0000
0001
0000
0100
0000
0010
0000
,  // measure 56
0110
0000
0000
0110
0000
0000
0110
0000
0000
0000
0010
0000
1000
0000
0001
0000
,  // measure 57
1000
0000
1000
0000
1000
0010
1000
0000
,  // measure 58
0001
0000
0001
0000
0001
0010
0001
0000
,  // measure 59
0100
0000
0100
0000
0100
0010
0100
0000
,  // measure 60
0010
0000
0010
0000
0010
1000
0010
0000
,  // measure 61
1000
0000
0100
0000
0010
0001
0100
0000
,  // measure 62
0001
0000
0100
0000
0010
1000
0010
0000
,  // measure 63
1000
0000
0100
0000
0010
0000
0001
0000
0100
0000
0000
0010
0000
0000
0100
0000
,  // measure 64
0002
0200
0300
2000
,  // measure 65
3003
0000
0000
0000
;

//---------------dance-single - Oni-91----------------
#NOTEDATA:;
#CHARTNAME:;
#STEPSTYPE:dance-single;
#DESCRIPTION:Oni-91;
#CHARTSTYLE:;
#DIFFICULTY:Medium;
#METER:6;
#RADARVALUES:0.349118,0.365770,0.120584,0.273323,0.008039,304.000000,289.000000,15.000000,34.000000,0.000000,0.000000,0.000000,0.000000,0.000000,0.349118,0.365770,0.120584,0.273323,0.008039,304.000000,289.000000,15.000000,34.000000,0.000000,0.000000,0.000000,0.000000,0.000000;
#CREDIT:Oni-91;
#NOTES:
// measure 0
1000
0000
0001
0000
0100
0010
0100
0000
,  // measure 1
0001
0000
1000
0000
0001
0010
0001
0000
,  // measure 2
1000
0000
0100
0000
1000
0010
0100
0000
,  // measure 3
0001
0000
0100
0000
0010
1000
0001
1000
,  // measure 4
0100
0000
0010
0000
0100
0010
0001
0000
,  // measure 5
0100
0000
0010
0000
0100
0010
1000
0000
,  // measure 6
0001
0000
1000
0000
0001
0100
0010
0000
,  // measure 7
1000
0100
0010
0000
0001
0100
0001
0000
,  // measure 8
2001
0001
0010
0100
,  // measure 9
0001
0010
0200
3300
,  // measure 10
1000
0000
0100
0010
0001
0000
0100
0000
,  // measure 11
0010
0000
0100
0010
0100
0010
0100
0000
,  // measure 12
1002
0100
0010
0010
,  // measure 13
0100
1000
0200
0303
,  // measure 14
0010
0000
1000
0100
0010
0000
0001
0000
,  // measure 15
2001
0000
0000
0001
0000
0000
0002
0000
0000
0000
0000
0000
3003
0000
0000
0000
,  // measure 16
1000
0000
0100
0000
1000
0000
0001
0200
,  // measure 17
0000
0000
0310
0000
0100
0000
0010
2000
,  // measure 18
0000
0000
3100
0000
0010
0000
0001
1000
,  // measure 19
0001
0220
0330
0000
,  // measure 20
0100
0000
1001
0000
0100
0000
0010
1000
,  // measure 21
0100
0000
0010
0000
0100
0000
0010
0001
,  // measure 22
1000
0000
1001
0000
0001
0000
0100
0010
,  // measure 23
1000
0000
0100
0000
1000
0000
0100
0010
,  // measure 24
0001
0000
0010
0001
0000
0010
0001
0100
,  // measure 25
0010
0000
0010
1000
0000
1000
0001
0100
,  // measure 26
0010
0000
0100
0000
0001
0010
0001
0000
,  // measure 27
1000
0000
0100
0000
0010
0001
0100
0000
,  // measure 28
2001
0000
0010
0000
0002
3003
0000
0000
,  // measure 29
0002
0000
0000
2003
0000
0000
3100
0000
,  // measure 30
0120
0000
0001
0000
0200
0330
0000
0000
,  // measure 31
0020
0000
0000
0032
0000
0000
0103
0000
,  // measure 32
2000
0010
0001
0100
,  // measure 33
3002
0100
0010
1000
,  // measure 34
0203
1000
0010
0001
,  // measure 35
0320
0100
0001
0130
,  // measure 36
1001
0000
1000
0001
0200
0000
0300
0000
,  // measure 37
0010
0000
0100
0001
0020
0000
0030
0000
,  // measure 38
0100
0000
0010
0001
2000
0000
3000
0000
,  // measure 39
0010
0000
1000
0000
0001
1000
0001
0000
,  // measure 40
0100
0000
0010
1000
0002
0000
0003
0000
,  // measure 41
1000
0000
0100
0010
0002
0000
0003
0000
,  // measure 42
0100
0000
0010
0000
1000
0001
1000
0000
,  // measure 43
0010
0100
2002
3003
,  // measure 44
0001
0100
0001
0100
,  // measure 45
0010
1000
0010
1000
,  // measure 46
0001
1000
0100
0010
,  // measure 47
0001
0000
1000
0000
0001
1000
0001
1000
,  // measure 48
0001
0220
0330
0000
,  // measure 49
1001
0000
0110
0000
0010
1000
0001
0000
,  // measure 50
1000
0000
0100
0000
0010
0100
0010
0001
,  // measure 51
0010
0000
1001
0000
0001
0100
0001
0000
,  // measure 52
1000
0000
0010
0000
0100
0010
1000
0010
,  // measure 53
0100
0000
0001
1000
0000
0001
0010
0100
,  // measure 54
0010
0000
0001
1000
0000
1000
0100
0010
,  // measure 55
0001
0000
0000
0001
0000
0000
0002
0000
0000
0000
0000
0000
1003
0000
0001
0000
,  // measure 56
1000
0000
0010
0000
1000
0001
1000
0001
,  // measure 57
0100
0010
0100
0010
,  // measure 58
1000
0001
1000
0001
,  // measure 59
1000
0100
1000
0100
,  // measure 60
0010
0001
0010
0001
,  // measure 61
1000
0001
0100
0010
,  // measure 62
1000
0100
0010
0001
,  // measure 63
1000
0001
0100
0010
,  // measure 64
2002
0003
0000
0001
,  // measure 65
3001
0000
0000
0000
;

//---------------dance-single - Oni-91----------------
#NOTEDATA:;
#CHARTNAME:;
#STEPSTYPE:dance-single;
#DESCRIPTION:Oni-91;
#CHARTSTYLE:;
#DIFFICULTY:Easy;
#METER:4;
#RADARVALUES:0.250355,0.261265,0.080389,0.192934,0.000000,218.000000,208.000000,10.000000,24.000000,0.000000,0.000000,0.000000,0.000000,0.000000,0.250355,0.261265,0.080389,0.192934,0.000000,218.000000,208.000000,10.000000,24.000000,0.000000,0.000000,0.000000,0.000000,0.000000;
#CREDIT:Oni-91;
#NOTES:
// measure 0
1000
0100
0010
0010
,  // measure 1
0001
0100
0010
0010
,  // measure 2
1000
0001
0100
0100
,  // measure 3
0001
1000
0100
0100
,  // measure 4
1000
0100
0010
0100
,  // measure 5
1000
0001
0100
0001
,  // measure 6
0100
0010
0001
0010
,  // measure 7
1000
0001
2002
3003
,  // measure 8
1000
0100
1000
0000
,  // measure 9
0001
0100
0001
0000
,  // measure 10
1000
0100
0010
0001
,  // measure 11
0100
0010
1000
0001
,  // measure 12
0010
0010
0010
0000
,  // measure 13
0100
0100
0100
0000
,  // measure 14
0010
0001
1000
0100
,  // measure 15
0010
0100
1000
0001
,  // measure 16
1001
0000
1000
0010
,  // measure 17
0100
0000
0010
0100
,  // measure 18
0001
0000
1000
0001
,  // measure 19
2002
3003
0000
0000
,  // measure 20
1001
0000
0001
0000
,  // measure 21
0100
0001
1000
0100
,  // measure 22
0010
0000
0100
0010
,  // measure 23
0001
1000
0001
0100
,  // measure 24
0010
0000
0100
0010
,  // measure 25
1000
0010
0100
0001
,  // measure 26
1000
0100
0010
0001
,  // measure 27
0100
0001
0100
0010
,  // measure 28
1002
0000
0000
0000
,  // measure 29
0203
0000
0000
0320
0000
0000
2030
0000
,  // measure 30
3200
0000
0000
0000
,  // measure 31
2300
0000
0000
3002
0000
0000
2003
0000
,  // measure 32
3002
0000
0000
0000
,  // measure 33
0203
0000
0000
0000
,  // measure 34
0302
0000
0000
0000
,  // measure 35
2000
0000
0000
3003
,  // measure 36
1000
0001
0100
0000
,  // measure 37
0001
1000
0100
0000
,  // measure 38
1000
0100
0010
0001
,  // measure 39
1000
0001
1000
0000
,  // measure 40
0001
0100
0010
0000
,  // measure 41
1000
0100
0010
0000
,  // measure 42
1000
0000
0001
1000
,  // measure 43
2002
0000
0000
3003
,  // measure 44
0001
0001
0100
0100
,  // measure 45
0010
0010
1000
1000
,  // measure 46
0001
0010
0100
1000
,  // measure 47
1000
0100
0010
0001
,  // measure 48
2002
3003
0000
0000
,  // measure 49
0001
0100
0010
0100
,  // measure 50
0001
1000
0100
1000
,  // measure 51
0001
0010
0100
0010
,  // measure 52
0100
1000
0001
1000
,  // measure 53
0100
0010
0100
1000
,  // measure 54
0010
0100
0010
1000
,  // measure 55
0100
0010
0001
0100
,  // measure 56
0001
1000
0002
0003
,  // measure 57
1001
0001
0100
0001
,  // measure 58
1000
0100
1000
0100
,  // measure 59
0010
0001
0100
0010
,  // measure 60
1000
0001
0100
0010
,  // measure 61
1000
1000
0100
0100
,  // measure 62
0010
0010
0001
0001
,  // measure 63
2002
0000
0000
0000
,  // measure 64
3003
0210
0000
0010
,  // measure 65
0310
0000
0000
0000
;

//---------------dance-single - Oni-91----------------
#NOTEDATA:;
#CHARTNAME:;
#STEPSTYPE:dance-single;
#DESCRIPTION:Oni-91;
#CHARTSTYLE:;
#DIFFICULTY:Beginner;
#METER:1;
#RADARVALUES:0.133216,0.182885,0.024117,0.000000,0.000000,116.000000,113.000000,3.000000,0.000000,0.000000,0.000000,0.000000,0.000000,0.000000,0.133216,0.182885,0.024117,0.000000,0.000000,116.000000,113.000000,3.000000,0.000000,0.000000,0.000000,0.000000,0.000000,0.000000;
#CREDIT:Oni-91;
#NOTES:
// measure 0
1001
0000
0000
0000
,  // measure 1
0001
0000
0100
0000
,  // measure 2
0001
0000
0000
0000
,  // measure 3
1000
0000
0100
0000
,  // measure 4
1000
0000
0000
0000
,  // measure 5
0001
0000
0100
0000
,  // measure 6
0010
0000
1000
0000
,  // measure 7
0001
0000
1000
0000
,  // measure 8
1001
0000
0000
0000
,  // measure 9
0100
0000
0001
0000
,  // measure 10
1000
0000
1000
0000
,  // measure 11
0100
0000
0100
0000
,  // measure 12
0010
0000
0000
0000
,  // measure 13
0001
0000
0010
0000
,  // measure 14
0100
0000
0010
0000
,  // measure 15
0001
0000
0000
0000
,  // measure 16
1001
0000
0000
0000
,  // measure 17
1000
0000
0000
0000
,  // measure 18
0010
0000
0000
0000
,  // measure 19
0100
0100
0000
0000
,  // measure 20
1000
0000
0100
0000
,  // measure 21
1000
0000
0001
0000
,  // measure 22
0100
0000
0001
0000
,  // measure 23
1000
0000
0000
0000
,  // measure 24
0001
0000
0010
0000
,  // measure 25
0001
0000
1000
0000
,  // measure 26
0010
0000
0100
0000
,  // measure 27
0010
0000
0000
0000
,  // measure 28
0001
0000
0000
0000
,  // measure 29
0100
0000
0001
0000
,  // measure 30
1000
0000
0000
0000
,  // measure 31
0100
0000
0010
0000
,  // measure 32
0001
0000
0000
0000
,  // measure 33
0100
0000
0000
0000
,  // measure 34
0010
0000
0000
0000
,  // measure 35
1000
0000
0000
0000
,  // measure 36
0001
0000
0001
0000
,  // measure 37
1000
0000
1000
0000
,  // measure 38
0001
0000
1000
0000
,  // measure 39
0001
0000
0000
0000
,  // measure 40
0100
0100
0100
0000
,  // measure 41
0010
0010
0010
0000
,  // measure 42
0100
0000
0010
0000
,  // measure 43
0100
0000
0000
0000
,  // measure 44
1000
0000
0001
0000
,  // measure 45
1000
0000
0001
0000
,  // measure 46
0100
0000
0010
0000
,  // measure 47
0100
0000
0010
0000
,  // measure 48
0100
0100
0000
0000
,  // measure 49
0001
0000
1000
0000
,  // measure 50
0100
0000
0010
0000
,  // measure 51
0001
0000
0100
0000
,  // measure 52
0010
0000
0010
0000
,  // measure 53
0010
0000
0100
0000
,  // measure 54
0001
0000
1000
0000
,  // measure 55
0100
0000
0010
0000
,  // measure 56
0001
0000
0000
0000
,  // measure 57
1000
0000
1000
0000
,  // measure 58
0100
0000
0100
0000
,  // measure 59
1000
0000
0001
0000
,  // measure 60
0100
0000
0010
0000
,  // measure 61
0100
0000
0100
0000
,  // measure 62
0001
0000
0001
0000
,  // measure 63
1000
0000
0001
0000
,  // measure 64
0100
0000
0000
0100
,  // measure 65
0100
0000
0000
0000
;
