#TITLE:LOVE IS TIMING;
#SUBTITLE:;
#ARTIST:3tempo produced by Sota Fujimori;
#TITLETRANSLIT:;
#SUBTITLETRANSLIT:;
#ARTISTTRANSLIT:;
#GENRE:;
#CREDIT:;
#BANNER:LOVE IS TIMING.png;
#BACKGROUND:LOVE IS TIMING-bg.png;
#LYRICSPATH:;
#CDTITLE:;
#MUSIC:LOVE IS TIMING.mp3;
#OFFSET:-8.330000;
#SAMPLESTART:82.180000;
#SAMPLELENGTH:14.760000;
#SELECTABLE:YES;
#BPMS:0.000000=129.979996
;
#STOPS:
;
#BGCHANGES:;
#KEYSOUNDS:;
#ATTACKS:;

//---------------dance-single - Oni-91----------------
#NOTES:
     dance-single:
     :
     Hard:
     7:
     0.420388,0.415648,0.209570,0.244499,0.034928,337.000000,313.000000,24.000000,28.000000,0.000000,0.000000,0.420388,0.415648,0.209570,0.244499,0.034928,337.000000,313.000000,24.000000,28.000000,0.000000,0.000000:
// measure 0
1000
0000
0101
0000
1000
0000
0001
0010
,  // measure 1
0100
0000
1001
0000
0010
0000
1000
0010
,  // measure 2
1000
0000
0001
0000
0010
0000
0100
0020
,  // measure 3
0001
0001
0001
0031
,  // measure 4
1000
0000
0000
0000
0101
0000
0000
0000
0010
0000
0000
0010
1000
0000
0000
0000
,  // measure 5
0001
0000
1000
0100
0010
0100
1000
0000
,  // measure 6
0001
0000
0000
0000
1001
0000
0000
0000
0100
0000
0000
0001
0100
0000
0000
0000
,  // measure 7
0010
1000
0001
0010
0100
0000
0010
0001
,  // measure 8
1000
0000
0000
0000
0001
0000
0000
0000
1000
0000
0000
0001
1000
0000
0001
0000
,  // measure 9
1000
0000
0110
0000
0010
0000
1000
0100
,  // measure 10
0001
0000
0000
0000
0110
0000
0000
0000
0010
0000
0000
0001
1000
0000
0001
0000
,  // measure 11
0100
0000
0000
0000
0000
0000
0001
0000
1000
0000
0001
0000
1000
0000
0000
0001
0000
0000
1001
0000
0000
0000
0000
0000
,  // measure 12
0001
1000
1000
0001
0100
0010
1000
0000
,  // measure 13
0010
0100
0001
0000
1000
0100
0010
0000
,  // measure 14
0100
0100
0100
0010
0001
1000
0010
0000
,  // measure 15
0100
0001
1000
0000
0011
0000
1000
0100
,  // measure 16
0010
0010
0010
0000
0001
1000
0001
0000
,  // measure 17
0100
0010
1000
0001
0010
0100
0010
0000
,  // measure 18
0001
0001
0001
0000
1000
0001
0100
0000
,  // measure 19
0010
0000
1001
0000
0100
0010
0100
0010
,  // measure 20
0200
0000
0000
0000
0001
0000
0000
0301
0000
0000
0000
0000
1001
0000
0000
0000
,  // measure 21
1000
0100
0010
0001
0200
0000
0320
0000
,  // measure 22
1030
0010
0000
0100
0002
0000
1003
0100
,  // measure 23
0010
0000
0100
0000
1000
0001
0100
0001
,  // measure 24
1000
0000
0011
0000
0010
0001
0100
0000
,  // measure 25
0010
0100
0001
1000
0200
0000
2300
0000
,  // measure 26
3001
0100
0000
1000
0100
0001
0000
1000
,  // measure 27
0100
0000
0010
0000
0001
1000
1001
0000
,  // measure 28
0020
1000
0000
0001
0100
1030
0000
0100
,  // measure 29
0002
0010
0000
1000
0100
0100
0103
0000
,  // measure 30
2000
0010
0000
0001
0010
3100
0000
0001
,  // measure 31
0200
1000
0000
0010
0001
0001
0301
0000
,  // measure 32
1000
0200
0000
0320
0001
0031
0010
0000
,  // measure 33
0001
0200
0000
0320
1000
1030
0001
0000
,  // measure 34
1000
0100
0010
0100
1000
0000
0101
0000
,  // measure 35
0010
0100
0001
1000
0001
0000
1001
0000
,  // measure 36
0220
0000
0300
0000
,  // measure 37
2000
0000
0030
0000
,  // measure 38
0002
0000
3000
0000
,  // measure 39
2000
0000
0003
0000
0001
0001
3001
0000
,  // measure 40
1001
0000
0001
0010
0200
0000
0001
0000
,  // measure 41
0310
0001
0100
0010
0000
1000
0010
0100
,  // measure 42
0001
0000
0100
0010
2000
0000
0010
0000
,  // measure 43
3001
1000
0100
0010
0000
0100
1000
0001
,  // measure 44
0100
0010
0100
0001
0200
0000
1000
0000
,  // measure 45
0310
0100
0001
1000
0000
0001
1000
0100
,  // measure 46
0100
0000
0010
0001
0101
0000
1010
0000
,  // measure 47
0010
1000
0002
2000
0000
0000
3003
0000
,  // measure 48
0110
0000
0010
1000
0100
0000
0110
0000
,  // measure 49
0010
0001
1000
0002
0000
0103
0010
1000
,  // measure 50
0100
0000
0010
0001
1000
0000
1001
0000
,  // measure 51
0001
0100
1000
0200
0000
0310
0100
0001
,  // measure 52
1000
0100
0010
0100
1000
0000
0011
0000
,  // measure 53
0100
1000
0010
0200
0000
1300
0100
0010
,  // measure 54
1000
0001
0010
0001
1000
0000
0101
0000
,  // measure 55
0010
0000
1000
0000
0100
0000
0010
0000
0100
0000
0000
0000
1000
0001
0000
0000
,  // measure 56
1001
0000
0000
0000
;

//---------------dance-single - Oni-91----------------
#NOTES:
     dance-single:
     :
     Medium:
     6:
     0.374233,0.366748,0.130981,0.323088,0.000000,300.000000,285.000000,15.000000,37.000000,0.000000,0.000000,0.374233,0.366748,0.130981,0.323088,0.000000,300.000000,285.000000,15.000000,37.000000,0.000000,0.000000:
// measure 0
0010
0000
1000
0000
0001
0000
0100
0001
,  // measure 1
1000
0000
0100
0000
0010
0000
0001
0100
,  // measure 2
0010
0000
0100
0000
0010
0000
1000
0001
,  // measure 3
2000
0010
0002
3003
,  // measure 4
0100
0000
1001
0000
1000
0100
0010
0001
,  // measure 5
0010
0000
0001
0000
0100
0000
0010
1000
,  // measure 6
0100
0000
1000
0000
0001
0100
0010
1000
,  // measure 7
0100
0000
0010
0000
0100
0100
0010
0001
,  // measure 8
0100
0000
1001
0000
0010
1000
0001
0010
,  // measure 9
0100
0000
0010
0000
0001
0000
1000
0100
,  // measure 10
1000
0000
0001
0000
0100
0010
0100
0010
,  // measure 11
1000
0001
2002
3003
,  // measure 12
1000
1000
1000
0000
0001
0001
0001
0000
,  // measure 13
1000
0001
0100
0000
0010
0100
0001
0000
,  // measure 14
0100
0001
1000
0000
1000
0100
0010
0000
,  // measure 15
0100
0000
0010
0000
0001
1000
0001
0000
,  // measure 16
0100
0100
0010
0000
1000
0001
0100
0000
,  // measure 17
0001
0001
0010
0000
0100
0010
0001
0000
,  // measure 18
1000
0001
1000
0000
0010
0100
0001
0000
,  // measure 19
1000
0000
0100
0000
0010
0001
1000
0001
,  // measure 20
0200
1300
0200
0301
,  // measure 21
1000
0100
0010
0000
0001
0100
0010
0000
,  // measure 22
2000
3010
0002
0103
,  // measure 23
0001
0010
0001
0100
0010
0000
1001
0000
,  // measure 24
1000
0100
0000
0010
0001
0010
0000
0001
,  // measure 25
0100
0000
0010
0000
1000
0001
0100
0001
,  // measure 26
0010
0000
0100
0000
0010
0001
0100
0000
,  // measure 27
0010
0000
1000
0000
0001
1000
1001
0000
,  // measure 28
0102
0000
0010
0000
1000
1000
1003
0000
,  // measure 29
2010
0000
0001
0000
0100
0100
3100
0000
,  // measure 30
0210
0000
0001
0000
1000
1000
1300
0000
,  // measure 31
1020
0000
0001
0000
0100
0100
0130
0000
,  // measure 32
0100
0010
1000
0000
0001
0010
0100
0000
,  // measure 33
0020
0000
0032
0000
1003
0001
1000
0000
,  // measure 34
0001
0100
0010
0000
1000
0010
0100
0000
,  // measure 35
0020
0000
2030
0000
3100
0100
0100
0000
,  // measure 36
2002
0000
3000
0000
,  // measure 37
0200
0000
0003
0000
,  // measure 38
0020
0000
0300
0000
,  // measure 39
2000
3030
0200
0300
,  // measure 40
1001
0000
0001
0010
0002
0000
2003
0000
,  // measure 41
3001
0000
0100
0010
0000
0010
0100
0000
,  // measure 42
0001
0000
1000
0100
0020
0000
0230
0000
,  // measure 43
1300
0001
1000
0002
0000
0000
0103
0000
,  // measure 44
0001
0000
1000
0010
0200
0000
0302
0000
,  // measure 45
1003
0000
0001
0010
0000
0001
1000
0100
,  // measure 46
1000
0000
0010
0100
0001
0000
1001
0000
,  // measure 47
0100
1000
0001
0020
0000
0000
0130
0000
,  // measure 48
1001
0000
0001
0200
0001
0000
0310
0000
,  // measure 49
0100
1000
0001
2000
0000
0000
3010
0100
,  // measure 50
0001
0000
1000
0100
2000
0000
0010
0000
,  // measure 51
3001
0010
0001
0200
0000
0000
0310
0100
,  // measure 52
0010
0000
1000
0100
0020
0000
0001
0000
,  // measure 53
0130
0010
0001
2000
0000
3010
0100
0001
,  // measure 54
0100
0000
0010
1000
0100
0000
1002
0000
,  // measure 55
0103
0100
0010
1000
0001
1000
0001
0000
,  // measure 56
1001
0000
0000
0000
;

//---------------dance-single - Oni-91----------------
#NOTES:
     dance-single:
     :
     Easy:
     4:
     0.253231,0.293399,0.148446,0.261963,0.000000,203.000000,186.000000,17.000000,30.000000,0.000000,0.000000,0.253231,0.293399,0.148446,0.261963,0.000000,203.000000,186.000000,17.000000,30.000000,0.000000,0.000000:
// measure 0
0001
0100
0001
0000
,  // measure 1
1000
0100
1000
0000
,  // measure 2
0001
0010
0100
0010
,  // measure 3
1001
1001
0220
0330
,  // measure 4
1001
0000
0001
0010
,  // measure 5
0100
0010
0001
1000
,  // measure 6
0010
0000
0100
0010
,  // measure 7
0100
0010
1000
0001
,  // measure 8
1000
0000
0001
0010
,  // measure 9
0100
0010
0001
1000
,  // measure 10
0010
0000
0100
0010
,  // measure 11
1000
0001
2002
3003
,  // measure 12
1000
0001
0200
0300
,  // measure 13
0010
0100
0002
0003
,  // measure 14
1000
0100
0020
0130
,  // measure 15
0010
0001
2000
3001
,  // measure 16
1000
0001
0100
0000
,  // measure 17
0010
0100
0001
0000
,  // measure 18
1000
0100
2000
3001
,  // measure 19
0001
0100
0220
0330
,  // measure 20
1001
1001
1001
0000
,  // measure 21
0001
0100
0010
1000
,  // measure 22
0100
0100
0100
0000
,  // measure 23
0010
0001
0100
0010
,  // measure 24
1000
0001
1000
0000
,  // measure 25
0001
0010
0100
0010
,  // measure 26
0100
1000
0001
0000
,  // measure 27
0100
0010
2002
3003
,  // measure 28
1001
1001
0001
0100
,  // measure 29
0010
1000
0200
0300
,  // measure 30
0010
0010
0001
1000
,  // measure 31
0010
0100
2002
3003
,  // measure 32
0001
0001
0100
0010
,  // measure 33
1000
0100
0020
0030
,  // measure 34
0001
0001
1000
0010
,  // measure 35
1000
0001
0010
0100
,  // measure 36
1002
0000
0000
0000
,  // measure 37
2003
0000
0000
0000
,  // measure 38
3002
0000
0000
0000
,  // measure 39
0203
0000
0020
0330
,  // measure 40
1001
1000
0100
0100
,  // measure 41
1000
0001
0100
0000
,  // measure 42
0001
0010
0100
0100
,  // measure 43
0010
0001
1000
0000
,  // measure 44
0010
1000
0100
0100
,  // measure 45
0010
0001
1000
0000
,  // measure 46
0001
0010
0100
0100
,  // measure 47
1000
0001
2002
3003
,  // measure 48
1000
0010
1000
2000
,  // measure 49
3001
0100
0020
0030
,  // measure 50
0100
0010
1000
2000
,  // measure 51
3100
0010
0002
0003
,  // measure 52
0010
0001
0100
0200
,  // measure 53
0310
1000
0001
0000
,  // measure 54
1000
0100
0010
0002
,  // measure 55
1003
0001
0100
0010
,  // measure 56
1001
0000
0000
0000
;

//---------------dance-single - Oni-91----------------
#NOTES:
     dance-single:
     :
     Beginner:
     1:
     0.148446,0.195599,0.139714,0.017464,0.000000,119.000000,103.000000,16.000000,2.000000,0.000000,0.000000,0.148446,0.195599,0.139714,0.017464,0.000000,119.000000,103.000000,16.000000,2.000000,0.000000,0.000000:
// measure 0
1000
0000
0001
0000
,  // measure 1
0100
0000
0000
0000
,  // measure 2
0010
0000
0100
0000
,  // measure 3
0110
0000
0000
0000
,  // measure 4
1000
0000
0100
0000
,  // measure 5
1000
0000
1000
0000
,  // measure 6
0001
0000
0100
0000
,  // measure 7
0001
0000
0000
0000
,  // measure 8
0100
0000
0010
0000
,  // measure 9
0100
0000
0001
0000
,  // measure 10
1000
0000
0100
0000
,  // measure 11
2002
0000
3003
0000
,  // measure 12
1000
0000
0100
0000
,  // measure 13
1000
0000
1000
0000
,  // measure 14
0001
0000
0100
0000
,  // measure 15
0001
0000
0000
0000
,  // measure 16
1000
0000
0001
0000
,  // measure 17
0010
0000
0100
0000
,  // measure 18
0010
0000
0001
0000
,  // measure 19
1000
0000
0001
0000
,  // measure 20
1001
0000
0110
0000
,  // measure 21
0100
0000
0001
0000
,  // measure 22
1001
0000
0110
0000
,  // measure 23
0100
0000
0010
0000
,  // measure 24
0110
0000
1001
0000
,  // measure 25
1000
0000
0100
0000
,  // measure 26
0110
0000
1001
0000
,  // measure 27
1000
0000
0001
0000
,  // measure 28
1001
0000
1000
0000
,  // measure 29
0100
0000
1000
0000
,  // measure 30
0001
0000
0100
0000
,  // measure 31
0010
0000
0010
0000
,  // measure 32
0010
0000
0100
0000
,  // measure 33
0001
0000
1000
0000
,  // measure 34
0100
0000
0010
0000
,  // measure 35
0001
0000
0001
0000
,  // measure 36
1001
0000
0000
0000
,  // measure 37
1000
0000
0000
0000
,  // measure 38
0100
0000
0010
0000
,  // measure 39
0001
0000
1000
0000
,  // measure 40
1001
0000
0000
0000
,  // measure 41
0001
0000
0100
0000
,  // measure 42
0001
0000
1000
0000
,  // measure 43
0100
0000
0010
0000
,  // measure 44
0100
0000
0000
0000
,  // measure 45
0010
0000
0001
0000
,  // measure 46
1000
0000
0001
0000
,  // measure 47
1000
0000
0010
0000
,  // measure 48
0110
0000
0000
0000
,  // measure 49
0100
0000
0001
0000
,  // measure 50
1000
0000
0100
0000
,  // measure 51
0010
0000
0001
0000
,  // measure 52
1001
0000
0000
0000
,  // measure 53
1000
0000
0010
0000
,  // measure 54
0100
0000
0001
0000
,  // measure 55
1000
0000
0010
0010
,  // measure 56
0110
0000
0000
0000
;
