#VERSION:0.83;
#TITLE:L'amour dans le lycee;
#SUBTITLE:(High School Love -Bossa Arr.-);
#ARTIST:Studio Bongo Mango feat. Tomoko Kataoka;
#TITLETRANSLIT:;
#SUBTITLETRANSLIT:;
#ARTISTTRANSLIT:;
#GENRE:;
#ORIGIN:;
#CREDIT:;
#BANNER:L'amour dans le lycee (High School Love -Bossa Arr.-).png;
#BACKGROUND:L'amour dans le lycee (High School Love -Bossa Arr.-)-bg.png;
#PREVIEWVID:;
#JACKET:;
#CDIMAGE:;
#DISCIMAGE:;
#LYRICSPATH:;
#CDTITLE:;
#MUSIC:L'amour dans le lycee (High School Love -Bossa Arr.-).mp3;
#OFFSET:-6.030000;
#SAMPLESTART:43.509693;
#SAMPLELENGTH:12.000000;
#SELECTABLE:YES;
#BPMS:0.000=160.000;
#STOPS:;
#DELAYS:;
#WARPS:;
#TIMESIGNATURES:0.000=4=4;
#TICKCOUNTS:0.000=4;
#COMBOS:0.000=1;
#SPEEDS:0.000=1.000=0.000=0;
#SCROLLS:0.000=1.000;
#FAKES:;
#LABELS:0.000=Song Start;
#BGCHANGES:;
#KEYSOUNDS:;
#ATTACKS:
;

//---------------dance-single - ----------------
#NOTEDATA:;
#CHARTNAME:Oni-91;
#STEPSTYPE:dance-single;
#DESCRIPTION:;
#CHARTSTYLE:;
#DIFFICULTY:Hard;
#METER:7;
#RADARVALUES:0.450408,0.441836,0.218191,0.207281,0.027274,289.000000,269.000000,20.000000,19.000000,0.000000,0.000000,0.000000,0.000000,0.000000,0.450408,0.441836,0.218191,0.207281,0.027274,289.000000,269.000000,20.000000,19.000000,0.000000,0.000000,0.000000,0.000000,0.000000;
#CREDIT:Oni-91;
#NOTES:
// measure 0
0001
0000
0000
0010
0000
0100
0010
0000
,  // measure 1
0001
0000
1000
0001
0000
1000
0001
0000
,  // measure 2
0100
0000
0010
1000
0000
1000
0100
0000
,  // measure 3
0010
0000
0100
0010
0001
0000
1000
0000
,  // measure 4
0002
0000
0000
0000
0103
0010
1000
0100
,  // measure 5
0000
0100
1000
0000
0001
0000
1000
0000
,  // measure 6
0200
0000
0000
0000
0310
0001
1000
0001
,  // measure 7
0100
0000
0020
0200
0000
0000
0330
0000
,  // measure 8
1001
0000
0001
1000
0000
0001
0010
0100
,  // measure 9
0010
0001
0100
0010
,  // measure 10
1000
0000
0101
0000
0000
1001
0000
0000
,  // measure 11
1100
0000
0000
0110
0000
0000
0011
0000
,  // measure 12
0002
0000
0000
0000
1003
0100
0010
0001
,  // measure 13
0100
0010
1000
0001
,  // measure 14
2000
0000
0000
0000
3001
0100
0010
1000
,  // measure 15
0100
0010
0001
2000
0002
0000
3003
0000
,  // measure 16
1001
0000
0001
0100
0000
0010
1000
0000
,  // measure 17
1001
0000
1000
0100
0000
0010
0001
0000
,  // measure 18
0110
0000
0010
0001
0000
0100
0010
0000
,  // measure 19
0110
0000
0010
2000
0000
0000
3000
0000
,  // measure 20
1001
0000
0001
0010
0100
0000
0010
0000
,  // measure 21
1001
0000
0001
0100
0010
1000
0100
0010
,  // measure 22
0100
0000
0000
0000
0010
0000
0002
0000
0000
1000
0000
0000
1003
0000
0000
0000
,  // measure 23
0010
0000
0000
0000
1000
0000
0200
0000
0000
0010
0000
0000
0310
0000
0000
0000
,  // measure 24
0010
0000
0000
0000
0001
0000
2000
0000
0000
0001
0000
0000
3001
0000
0000
0000
,  // measure 25
0100
0010
0100
0010
0100
0000
0000
0000
0000
0000
0000
0000
0000
0000
0000
0000
,  // measure 26
0001
0000
0101
0000
0100
0010
1000
0100
,  // measure 27
0000
0010
0100
0010
0001
0000
1000
0000
,  // measure 28
0001
0100
0010
0002
0000
0013
1000
0001
,  // measure 29
1000
0000
0100
0000
0010
0001
0100
0001
,  // measure 30
1000
0000
0001
0010
0000
0100
0010
0001
,  // measure 31
1000
0000
0010
0000
1000
0100
0010
0000
,  // measure 32
0100
0000
1000
0001
0000
1001
0000
1000
,  // measure 33
0010
0000
1000
0100
0010
0001
0100
0020
,  // measure 34
0000
0000
1030
0000
0001
0010
0100
1000
,  // measure 35
0000
0001
0100
0010
1000
0000
0001
0000
,  // measure 36
1000
0100
0010
2000
0000
3010
0001
1000
,  // measure 37
0001
0000
1000
0100
0010
0001
0100
0010
,  // measure 38
1000
0000
0001
0100
0000
0010
0000
0100
,  // measure 39
0001
0200
0010
0301
,  // measure 40
1001
0000
0001
1000
0000
0010
0000
0100
,  // measure 41
0001
2000
0100
3100
,  // measure 42
1001
0000
0001
0100
0000
0010
1000
0001
,  // measure 43
0010
0000
0100
0010
0001
0000
1001
0000
,  // measure 44
0110
0000
0010
1000
0000
1000
0001
0000
,  // measure 45
0010
0000
0001
1000
0001
0000
1000
0000
,  // measure 46
0100
0000
0010
0001
0000
0100
0010
0000
,  // measure 47
1000
0010
0100
0001
0100
0000
0001
0000
,  // measure 48
1001
0000
1000
0100
0000
0010
0100
0000
,  // measure 49
1000
0000
0001
0100
0010
0000
0100
0000
,  // measure 50
0001
0000
0010
0001
0000
1000
0100
0000
,  // measure 51
0010
0100
1000
0001
0100
0000
0010
0000
,  // measure 52
1001
0000
1000
0100
0020
0000
0001
0000
,  // measure 53
0200
0000
0000
0000
,  // measure 54
0330
0000
0000
0000
;

//---------------dance-single - Oni-91----------------
#NOTEDATA:;
#CHARTNAME:;
#STEPSTYPE:dance-single;
#DESCRIPTION:Oni-91;
#CHARTSTYLE:;
#DIFFICULTY:Medium;
#METER:4;
#RADARVALUES:0.349105,0.353469,0.218191,0.272738,0.000000,224.000000,204.000000,20.000000,25.000000,0.000000,0.000000,0.000000,0.000000,0.000000,0.349105,0.353469,0.218191,0.272738,0.000000,224.000000,204.000000,20.000000,25.000000,0.000000,0.000000,0.000000,0.000000,0.000000;
#CREDIT:Oni-91;
#NOTES:
// measure 0
1000
0000
0000
2200
0000
0000
3300
0000
,  // measure 1
0001
0000
0000
0202
0000
0000
0303
0000
,  // measure 2
1000
0000
0000
0001
0000
0000
1000
0000
,  // measure 3
0010
0000
0000
0100
0000
0000
0010
0000
,  // measure 4
1000
0000
0000
0100
0000
0000
0010
0000
,  // measure 5
0001
0000
0000
0100
0001
0000
1000
0000
,  // measure 6
0100
0000
0000
0010
0000
0000
0100
0000
,  // measure 7
1001
0000
0000
2002
0000
0000
3003
0000
,  // measure 8
0001
0000
1000
0100
0000
0000
1000
0000
,  // measure 9
0001
0000
0100
0001
0000
0000
1000
0000
,  // measure 10
0100
0000
0010
0000
0000
0010
0000
0000
,  // measure 11
0001
0000
0000
0001
0000
0000
1000
0000
,  // measure 12
0001
0000
1000
0100
0000
0100
1000
0000
,  // measure 13
0001
0100
0010
1000
,  // measure 14
0001
0000
0100
0001
0000
0001
0100
0000
,  // measure 15
0001
1000
0001
0200
0000
0000
0300
0000
,  // measure 16
1002
0000
0000
0100
0000
0000
0103
0000
,  // measure 17
2000
0000
0000
0100
0000
0000
3100
0000
,  // measure 18
0020
0000
0000
0100
0000
0000
0130
0000
,  // measure 19
2001
0000
0000
0002
0000
0000
3003
0000
,  // measure 20
0201
0000
0000
0010
0000
0000
0301
0000
,  // measure 21
0020
0000
0000
0100
0000
0000
1030
0000
,  // measure 22
0001
0000
0001
1000
0000
1000
0100
0000
,  // measure 23
0010
0000
0010
0100
0000
0100
0010
0000
,  // measure 24
0001
0000
1000
0001
0000
1000
0001
0000
,  // measure 25
0100
0100
0100
0000
0000
0000
0000
0000
,  // measure 26
0010
0000
1001
0000
0100
0000
0001
0010
,  // measure 27
0000
0001
0000
1000
0001
0000
1000
0000
,  // measure 28
0010
0000
0100
0001
2000
0000
0000
0100
,  // measure 29
3100
0000
0010
0000
0001
1000
0001
0000
,  // measure 30
0100
0000
0001
1000
0000
0100
0000
0010
,  // measure 31
0000
0100
1000
0000
0001
0000
0100
0000
,  // measure 32
0001
1100
1000
0101
,  // measure 33
0001
0000
1000
0001
0200
0000
0300
0000
,  // measure 34
2002
0000
3003
0000
1000
0000
0100
1000
,  // measure 35
0000
0001
0000
0100
0001
0000
1000
0000
,  // measure 36
0010
0100
0000
1001
0000
0000
1000
0100
,  // measure 37
1000
0001
0100
0010
,  // measure 38
1000
0000
0100
1000
0000
0100
0000
2100
,  // measure 39
0000
0001
0002
3003
,  // measure 40
1001
0000
0100
0001
0000
0100
0000
0102
,  // measure 41
0000
0100
2000
3003
,  // measure 42
1001
0000
0100
0010
0000
0100
0000
1002
,  // measure 43
0000
1000
1000
1003
,  // measure 44
1001
0000
0001
0100
0000
0100
0001
0000
,  // measure 45
1000
0100
0010
0001
,  // measure 46
1000
0000
0001
0010
0000
0010
0001
0000
,  // measure 47
0100
0010
1000
0001
,  // measure 48
1000
0000
0100
0010
0000
0010
0001
0000
,  // measure 49
0100
0001
0100
0010
,  // measure 50
1000
0000
0001
1000
0000
1000
0010
0000
,  // measure 51
1000
0100
0010
0001
,  // measure 52
1001
0000
0000
1000
0000
0000
0001
0000
,  // measure 53
0220
0000
0000
0000
,  // measure 54
0330
0000
0000
0000
;

//---------------dance-single - Oni-91----------------
#NOTEDATA:;
#CHARTNAME:;
#STEPSTYPE:dance-single;
#DESCRIPTION:Oni-91;
#CHARTSTYLE:;
#DIFFICULTY:Easy;
#METER:2;
#RADARVALUES:0.182345,0.235646,0.152733,0.065457,0.000000,117.000000,103.000000,14.000000,6.000000,0.000000,0.000000,0.000000,0.000000,0.000000,0.182345,0.235646,0.152733,0.065457,0.000000,117.000000,103.000000,14.000000,6.000000,0.000000,0.000000,0.000000,0.000000,0.000000;
#CREDIT:Oni-91;
#NOTES:
// measure 0
1000
0000
0100
0000
,  // measure 1
1000
0000
0001
1000
,  // measure 2
0001
0000
0000
0000
,  // measure 3
0010
0000
0100
0000
,  // measure 4
0010
0000
0000
0000
,  // measure 5
1000
0000
0001
1000
,  // measure 6
0001
0000
0000
0000
,  // measure 7
1001
0000
0000
0000
,  // measure 8
0110
0000
0100
0000
,  // measure 9
0010
0000
1000
0001
,  // measure 10
1000
0000
0000
0000
,  // measure 11
0001
0000
0000
0000
,  // measure 12
0010
0000
0000
0000
,  // measure 13
0100
0000
1000
0001
,  // measure 14
1000
0000
0001
0000
,  // measure 15
0100
0000
0010
0100
,  // measure 16
0110
0000
0000
0000
,  // measure 17
1001
0000
0000
0000
,  // measure 18
0110
0000
0000
0000
,  // measure 19
1001
0000
0000
0000
,  // measure 20
1001
0000
0000
0000
,  // measure 21
0110
0000
0000
0000
,  // measure 22
0001
0000
1000
0000
,  // measure 23
0001
0000
0100
0000
,  // measure 24
0010
0000
0000
0000
,  // measure 25
2002
3003
0000
0000
,  // measure 26
1000
1000
1000
0000
,  // measure 27
0001
0000
0100
0000
,  // measure 28
0010
0000
0100
0010
,  // measure 29
0100
0000
0001
0000
,  // measure 30
1000
0000
0100
0000
,  // measure 31
0010
0000
0001
0000
,  // measure 32
1000
0000
0001
1000
,  // measure 33
0001
0000
2002
3003
,  // measure 34
0000
0110
0100
0010
,  // measure 35
0100
0000
0010
0000
,  // measure 36
1000
0000
0001
1000
,  // measure 37
0001
0000
1000
0000
,  // measure 38
0100
0000
0010
0010
,  // measure 39
0010
0000
0100
0000
,  // measure 40
1000
0000
0001
0001
,  // measure 41
0001
0000
0100
0000
,  // measure 42
0010
0000
1000
1000
,  // measure 43
1000
0000
0110
0000
,  // measure 44
1001
0000
0000
0000
,  // measure 45
0001
0000
0100
0000
,  // measure 46
0001
0000
1000
0000
,  // measure 47
0100
0000
0010
0010
,  // measure 48
0010
0000
0100
0000
,  // measure 49
0010
0000
0001
0000
,  // measure 50
1000
0000
0001
0000
,  // measure 51
0100
0000
0010
0000
,  // measure 52
2002
0000
0000
0000
,  // measure 53
0000
0000
0000
0000
,  // measure 54
3003
0000
0000
0000
;

//---------------dance-single - Oni-91----------------
#NOTEDATA:;
#CHARTNAME:;
#STEPSTYPE:dance-single;
#DESCRIPTION:Oni-91;
#CHARTSTYLE:;
#DIFFICULTY:Beginner;
#METER:1;
#RADARVALUES:0.126239,0.170189,0.076367,0.000000,0.000000,81.000000,74.000000,7.000000,0.000000,0.000000,0.000000,0.000000,0.000000,0.000000,0.126239,0.170189,0.076367,0.000000,0.000000,81.000000,74.000000,7.000000,0.000000,0.000000,0.000000,0.000000,0.000000,0.000000;
#CREDIT:Oni-91;
#NOTES:
// measure 0
1001
0000
0000
0000
,  // measure 1
0001
0000
1000
0000
,  // measure 2
0001
0000
0000
0000
,  // measure 3
0100
0000
0000
0000
,  // measure 4
0010
0000
0100
0000
,  // measure 5
0010
0000
0000
0000
,  // measure 6
1000
0000
0001
0000
,  // measure 7
0100
0000
0000
0000
,  // measure 8
1001
0000
0000
0000
,  // measure 9
0001
0000
0010
0000
,  // measure 10
0100
0000
0000
0000
,  // measure 11
0010
0000
0000
0000
,  // measure 12
0100
0000
0010
0000
,  // measure 13
0001
0000
1000
0000
,  // measure 14
0001
0000
0000
0000
,  // measure 15
0100
0000
0000
0000
,  // measure 16
0001
0000
0000
0000
,  // measure 17
1000
0000
0000
0000
,  // measure 18
0100
0000
0000
0000
,  // measure 19
0010
0000
0000
0000
,  // measure 20
1001
0000
0000
0000
,  // measure 21
1000
0000
0000
0000
,  // measure 22
0001
0000
0000
0000
,  // measure 23
0100
0000
0000
0000
,  // measure 24
0001
0000
0000
0000
,  // measure 25
1001
0000
0000
0000
,  // measure 26
0110
0000
0000
0000
,  // measure 27
0100
0000
0001
0000
,  // measure 28
1000
0000
0001
0000
,  // measure 29
1000
0000
0000
0000
,  // measure 30
0001
0000
0000
0000
,  // measure 31
1000
0000
0100
0000
,  // measure 32
0010
0000
0001
0000
,  // measure 33
1000
0000
0001
0001
,  // measure 34
0000
1001
0000
0000
,  // measure 35
1000
0000
0000
0000
,  // measure 36
0001
0000
0100
0000
,  // measure 37
0001
0000
0000
0000
,  // measure 38
1001
0000
0000
0000
,  // measure 39
1000
0000
0100
0000
,  // measure 40
1000
0000
0000
0000
,  // measure 41
0001
0000
0100
0000
,  // measure 42
0001
0000
0000
0000
,  // measure 43
0010
0000
0100
0000
,  // measure 44
0010
0000
0000
0000
,  // measure 45
0001
0000
1000
0000
,  // measure 46
0001
0000
1000
0000
,  // measure 47
0010
0000
0100
0000
,  // measure 48
0010
0000
0000
0000
,  // measure 49
1000
0000
0000
0000
,  // measure 50
0001
0000
1000
0000
,  // measure 51
0001
0000
0100
0000
,  // measure 52
0010
0000
0000
0000
;
