#TITLE:Koi wa dou? Moro Hadou OK Houteishiki!!;
#SUBTITLE:;
#ARTIST:Ave New Project feat. Saori Sakura;
#TITLETRANSLIT:;
#SUBTITLETRANSLIT:;
#ARTISTTRANSLIT:;
#GENRE:;
#CREDIT:;
#BANNER:Koi wa dou Moro Hadou OK Houteishiki!!.png;
#BACKGROUND:Koi wa dou Moro Hadou OK Houteishiki!!-bg.png;
#LYRICSPATH:;
#CDTITLE:;
#MUSIC:Koi wa dou Moro Hadou OK Houteishiki!!.mp3;
#OFFSET:-7.510000;
#SAMPLESTART:71.748451;
#SAMPLELENGTH:15.000000;
#SELECTABLE:YES;
#BPMS:0.000000=256.000000
,200.000000=128.000000
,240.000000=256.000000
;
#STOPS:
;
#BGCHANGES:;
#KEYSOUNDS:;
#ATTACKS:;

//---------------dance-single - Oni-91----------------
#NOTES:
     dance-single:
     :
     Hard:
     9:
     0.676043,0.856830,0.395858,0.296893,0.026990,526.000000,482.000000,44.000000,33.000000,0.000000,0.000000,0.676043,0.856830,0.395858,0.296893,0.026990,526.000000,482.000000,44.000000,33.000000,0.000000,0.000000:
// measure 0
1001
0000
0000
0000
0010
0000
1000
0002
,  // measure 1
0000
0000
1000
1003
,  // measure 2
0001
0000
0100
0000
0010
0100
0010
0200
,  // measure 3
0000
0000
0001
0301
,  // measure 4
0100
0000
0001
0000
1000
0000
0001
1000
,  // measure 5
0000
0001
0000
1000
0000
0010
0100
0000
,  // measure 6
0001
0000
0010
0000
0001
0010
0100
1000
,  // measure 7
0000
1100
0000
0011
0000
1001
0000
0000
,  // measure 8
0110
0000
0010
0000
0100
0000
0001
2000
,  // measure 9
0000
0010
0001
3100
,  // measure 10
0010
0000
0100
0000
0010
0001
1000
0002
,  // measure 11
0000
1000
1000
1003
,  // measure 12
0001
0100
0001
0000
1000
0010
1000
0000
,  // measure 13
0010
0000
1000
0100
0000
0010
0001
1000
,  // measure 14
0001
0000
1000
0000
0010
1000
0010
0100
,  // measure 15
0000
0010
0100
0001
0000
1000
0001
0000
,  // measure 16
1001
0000
0000
1010
0000
0000
0101
0000
,  // measure 17
0000
0011
0000
0010
0001
0000
1001
0000
,  // measure 18
1000
0000
0100
0000
0010
0000
0001
0100
,  // measure 19
0000
0010
0000
0100
0010
0100
0010
0000
,  // measure 20
1000
0000
0100
0000
1000
0000
0001
0100
,  // measure 21
0001
0100
0010
0000
0100
0001
1000
0000
,  // measure 22
0001
0011
0010
0110
,  // measure 23
0100
0000
1100
0000
1000
0001
0100
0000
,  // measure 24
0010
0000
0100
0000
0001
1000
0000
1001
,  // measure 25
0000
0011
0000
0010
0100
0000
0010
0001
,  // measure 26
1000
0000
0001
1000
,  // measure 27
0001
1000
0000
0001
0000
0000
0000
0000
,  // measure 28
1000
0001
0100
0010
,  // measure 29
0100
0010
0000
0100
0000
0000
0000
0000
,  // measure 30
0010
1000
0010
0000
1000
0000
0001
0000
,  // measure 31
0010
0001
0000
0010
0000
0000
0001
0000
,  // measure 32
1001
1000
0010
0100
,  // measure 33
0010
1000
0100
0000
0010
0100
0010
0002
,  // measure 34
0000
0000
0003
0000
1000
0000
0001
0100
,  // measure 35
0000
0000
0100
0000
0010
0000
1000
0100
,  // measure 36
0000
0000
0010
0001
1000
0000
0001
1000
,  // measure 37
0001
0100
0000
0010
0100
0010
0200
0000
,  // measure 38
0300
0000
0010
1000
,  // measure 39
0100
0000
1000
0000
0100
0010
0100
0010
,  // measure 40
0000
0001
1000
0001
1000
0000
0010
0200
,  // measure 41
0000
0300
1001
0000
,  // measure 42
1000
0000
0100
0000
0010
0100
1000
0000
,  // measure 43
0001
0000
0100
0000
0010
0100
0001
0000
,  // measure 44
1000
0000
0010
1000
0000
0010
1000
0001
,  // measure 45
0000
0010
0001
0000
1000
0001
1000
0000
,  // measure 46
0001
0000
0100
0000
0010
1000
0000
0010
,  // measure 47
0000
0100
0000
0001
0100
0000
0001
0000
,  // measure 48
1000
0100
0010
0100
0010
0001
1000
0001
,  // measure 49
0000
1000
0001
1000
0001
0000
0110
0000
,  // measure 50
2002
0000
3000
0100
0200
0000
0303
0000
,  // measure 51
0220
0000
0030
0001
0001
0010
0002
0303
,  // measure 52
2002
0000
3000
1000
1003
0000
0001
0100
,  // measure 53
0220
0000
0000
0000
0330
0100
0010
0000
1001
0000
0000
1000
0001
1000
0001
0000
,  // measure 54
1001
0000
1000
0010
0001
0010
0100
0000
,  // measure 55
0001
0010
0100
0001
0100
1000
1001
0000
,  // measure 56
1000
0010
0001
0100
0001
0010
0100
0001
,  // measure 57
0010
0000
0100
0000
0010
0100
0010
0000
2002
0000
0000
0000
3003
0000
0000
0000
,  // measure 58
1000
0000
0001
1000
0001
1000
0010
0000
0220
0000
0000
0000
0330
0000
0000
0000
,  // measure 59
0110
1010
1001
0011
,  // measure 60
0100
0000
1000
0000
0001
0000
0100
0001
,  // measure 61
0000
0100
0001
0000
1000
0001
1000
0000
,  // measure 62
0010
0000
0100
0010
0100
0001
1000
0001
,  // measure 63
0000
0001
0010
0000
0100
0000
0010
0000
,  // measure 64
0001
0000
1000
0000
0001
0000
0100
0010
,  // measure 65
0000
0100
0010
0000
1000
0000
0001
0000
,  // measure 66
1000
0000
0100
0000
0010
0001
0010
0100
,  // measure 67
0000
0110
0000
0011
0000
1001
0000
0000
,  // measure 68
1000
0000
0010
0000
0100
0000
0010
1000
,  // measure 69
0000
1000
0001
0000
0010
0001
0100
0010
,  // measure 70
1000
0000
0001
0000
0010
0001
0010
0100
,  // measure 71
0000
0100
0010
0000
0100
1000
0001
0000
,  // measure 72
1000
0000
0010
0000
0100
0000
0010
1000
,  // measure 73
0000
0001
0100
0000
0001
0000
1000
0000
,  // measure 74
0001
0000
0010
0000
0001
0010
0100
1000
,  // measure 75
0000
0001
0100
0010
0000
1000
0100
0000
,  // measure 76
1000
0001
1000
0001
1000
0000
0010
0100
,  // measure 77
0010
0200
0020
0000
0000
0000
0330
0000
,  // measure 78
0100
0010
0100
0010
0000
0000
1000
0001
,  // measure 79
2000
0002
0000
0000
0000
0000
3003
0000
,  // measure 80
1000
0100
1000
0100
0000
0010
0000
0100
,  // measure 81
0000
0010
0001
1000
0001
0000
1000
0000
,  // measure 82
0001
0100
0010
0100
0000
0001
0000
0100
,  // measure 83
0000
0010
1000
0100
0010
0000
0110
0000
,  // measure 84
0100
1000
0001
1000
0000
0001
0000
0100
,  // measure 85
0000
0010
1000
0100
0010
0000
0001
0000
,  // measure 86
1000
0100
0010
0001
0000
1000
0000
0001
,  // measure 87
0000
0100
0010
0000
1010
0000
0101
0000
,  // measure 88
0001
0100
0001
0000
1000
0010
0100
0000
,  // measure 89
0010
1000
0100
0000
0010
0001
0010
0000
,  // measure 90
0001
0010
0100
1000
0000
0001
0000
1000
,  // measure 91
0001
0100
0010
0000
0100
0001
1000
0000
,  // measure 92
0001
1000
0001
1000
0000
0010
0000
0100
,  // measure 93
0000
0010
0100
0000
0010
0100
0010
0000
,  // measure 94
1000
0100
0010
0001
0000
0011
0000
1100
,  // measure 95
0000
1000
0001
0100
0010
1000
0001
0000
,  // measure 96
2002
0000
3003
0220
,  // measure 97
0000
0330
1001
0100
,  // measure 98
0220
0000
0000
0330
,  // measure 99
2002
0000
0000
0000
,  // measure 100
0000
3003
0000
0000
;

//---------------dance-single - Oni-91----------------
#NOTES:
     dance-single:
     :
     Medium:
     7:
     0.430560,0.631348,0.215922,0.242913,0.000000,335.000000,311.000000,24.000000,27.000000,0.000000,0.000000,0.430560,0.631348,0.215922,0.242913,0.000000,335.000000,311.000000,24.000000,27.000000,0.000000,0.000000:
1000
0000
0000
0000
0001
0000
0000
1000
,
0000
0001
0010
0100
,
0010
0000
0100
0000
1000
0000
0000
0001
,
0000
1000
0001
0000
,
1000
0010
0100
0000
,
0001
0010
0100
0000
,
0010
0001
1000
0001
,
0100
0010
1000
0001
,
1000
0000
0000
0000
0001
0000
0000
1000
,
0000
0001
0010
0100
,
0010
0000
0100
1000
,
0001
0000
1000
0010
,
0100
0000
0010
1000
,
0010
1000
0001
0000
,
1000
0100
0010
0001
,
0100
0010
1000
0001
,
1002
0000
0000
1000
0000
0000
1000
0000
,
0000
2000
0000
0000
3003
0000
0000
0000
,
1000
0000
0100
0000
0010
0000
0000
0100
,
0000
0010
0001
0000
,
1000
0000
0001
0000
0100
0000
0000
0010
,
0000
0100
0001
0000
,
1000
0020
0000
0001
,
0000
1000
0000
0100
,
0130
0100
0010
0000
,
1000
0001
1000
0001
,
0010
0000
0100
0000
,
0010
0000
0001
1000
,
0001
1000
0010
0100
,
0010
0000
1000
0000
,
0001
0010
0100
0010
,
0001
0000
1000
0000
,
0001
0100
0010
1000
,
0010
0100
0001
1000
,
0002
0003
1000
0001
,
1000
0000
0100
0000
,
0010
0000
0100
0010
,
0100
0000
0010
0000
,
0001
1000
0001
1000
,
0010
0000
0100
0000
,
0010
0100
0010
0100
,
0001
0000
1001
0000
,
1001
0000
0001
0000
,
0100
0010
0100
0000
,
0010
1000
0100
0010
,
0100
0000
0010
0000
,
0100
0010
0001
0000
,
1000
0001
1000
0000
,
0001
0000
0000
0000
1000
0000
0001
1000
,
0000
0001
1000
0001
1000
0000
0000
0000
,
0201
0000
0000
0010
0020
0000
0330
0000
,
2001
0000
0000
0100
0200
0000
3300
0000
,
2001
0000
0000
0010
0020
0000
3030
0000
,
1002
0000
0000
1000
1003
0000
0110
0000
,
1001
0000
1000
0000
0100
0010
0001
0000
,
0010
0001
1000
0001
0100
0000
0010
0000
,
0100
0000
0010
0000
1000
0001
1000
0100
,
0010
0000
0100
0010
0200
0000
0300
0000
,
1000
0001
1000
0002
2000
0000
3003
0000
,
2010
0001
0100
3001
,
1001
0000
0000
0000
0001
0000
0000
0100
,
0000
0010
1000
0100
,
0010
0000
0100
0000
0010
0000
0000
0100
,
0000
0010
0001
1000
,
0001
0000
1000
0010
,
0100
0010
1000
0000
,
0001
0010
0100
0000
,
0010
0001
1000
0000
,
1001
0000
0000
0000
1000
0000
0000
0010
,
0000
1000
0010
0100
,
0001
0000
0010
0000
0001
0000
0000
1000
,
0000
0100
1000
0000
,
0001
0010
0001
0000
,
1000
0100
1000
0000
,
0001
0010
0001
0010
,
0100
1000
0100
1000
,
1001
0000
0000
1001
0000
0000
1001
0000
,
0000
2002
0000
0000
0000
0000
3003
0000
,
0110
0000
0000
0110
0000
0000
0110
0000
,
0000
0220
0000
0000
0000
0000
0330
0000
,
0010
0100
0010
0000
,
1000
0001
1000
0000
,
0001
0010
0001
0000
,
1000
0100
1000
0000
,
0001
0100
0010
0000
,
1000
0010
0100
0000
,
0010
1000
0001
1000
,
0100
0010
0001
0000
,
1000
0100
0010
0000
,
0100
0010
0100
0000
,
0010
0001
1000
0000
,
0001
0100
0001
0000
,
1000
0010
1000
0010
,
0100
0001
0100
0001
,
1000
0000
0001
0000
,
1000
0001
0100
0010
,
0220
0000
0330
2002
,
0000
3003
1000
0001
,
2002
0000
0000
3003
,
2002
0000
0000
0000
,
0000
3003
0000
0000
;

//---------------dance-single - Oni-91----------------
#NOTES:
     dance-single:
     :
     Easy:
     5:
     0.366297,0.496059,0.215922,0.170939,0.000000,285.000000,261.000000,24.000000,19.000000,0.000000,0.000000,0.366297,0.496059,0.215922,0.170939,0.000000,285.000000,261.000000,24.000000,19.000000,0.000000,0.000000:
1000
0000
0000
0000
0001
0000
0000
0001
,
0000
0000
0001
0000
,
0100
0001
0100
0010
,
1000
0000
0100
0000
,
0010
0001
0010
0000
,
0100
1000
0100
0000
,
1000
0000
0001
0000
,
1000
0001
1000
0000
,
0010
0000
0000
0000
0100
0000
0000
0100
,
0000
0000
0100
0000
,
0010
1000
0001
1000
,
0100
0000
0010
0000
,
0100
0010
0100
0000
,
0001
1000
0001
0000
,
1000
0010
0100
0000
,
0010
0100
0001
0000
,
1000
0000
0000
1000
0000
0000
0001
0000
,
0000
0001
0000
0000
0000
0000
0000
0000
,
1000
0000
0001
0000
,
0100
0010
0100
0000
,
0010
0000
1000
0000
,
0001
1000
0001
0000
,
1000
0100
0010
0000
,
0100
0010
0001
0000
,
1000
0001
1000
0001
,
0100
0010
0100
0000
,
2001
0000
0001
0000
,
0010
0000
0010
0000
,
3010
1000
0100
0010
,
0001
0000
1000
0000
,
1002
0000
1000
0000
,
0100
0000
0100
0000
,
0103
0001
0010
0100
,
1000
0000
0002
0000
,
0003
0000
1000
0000
,
0001
0000
0100
0010
,
0100
0000
0010
0000
,
1000
0000
0001
1000
,
0001
0000
1000
0000
,
0100
0010
0001
0010
,
0001
0000
1000
0000
,
0001
1000
1001
0000
,
0110
0000
0010
0000
,
1000
0010
1000
0000
,
0001
0100
0001
0100
,
0010
0000
0100
0000
,
0010
1000
0001
0000
,
1000
0001
1000
0000
,
0001
0000
0000
1000
0000
0000
1002
0000
,
0000
0100
0103
0000
,
0110
0000
1001
0000
,
0110
0000
1001
0000
,
0110
0000
1001
0000
,
0110
0000
1001
0000
,
1000
0100
0010
0001
,
0100
0010
1000
1000
,
1000
0100
0001
0100
,
1000
0001
0100
0000
,
0010
0100
2002
3003
,
0210
1000
0010
0301
,
1001
0000
0000
0000
0001
0000
0000
1000
,
0000
0000
0001
1000
,
0001
1000
0100
0000
,
0010
0100
0010
0000
,
0100
0000
1000
0000
,
0001
0100
0001
0000
,
1000
0010
0100
0000
,
0010
0100
0010
0000
,
1001
0000
0000
0000
1000
0000
0000
0001
,
0000
0000
1000
0000
,
0001
0010
0001
0000
,
1000
0000
0001
0000
,
1000
0000
0001
0000
,
1000
0010
1000
0000
,
0010
0100
0010
0000
,
0100
0001
0100
0000
,
0001
0000
0000
1000
0000
0000
0001
0000
,
0000
2002
0000
0000
0000
0000
3003
0000
,
0010
0000
0000
0100
0000
0000
0010
0000
,
0000
0220
0000
0000
0000
0000
0330
0000
,
0010
0000
1000
0000
,
0001
1000
0001
0000
,
1000
0000
0001
0000
,
0010
0001
0010
0000
,
0100
0000
1000
0000
,
0001
1000
0001
0000
,
1000
0010
0100
0000
,
0010
0100
0001
0000
,
1000
0000
0100
0000
,
0010
0100
1000
0000
,
0001
0000
0100
0000
,
0010
0100
0001
0000
,
1000
0100
0010
0000
,
0100
0010
0001
0000
,
1000
0001
1000
0001
,
0100
0010
0100
0000
,
2002
0000
3003
2002
,
0000
3003
1001
0000
,
0220
0000
0000
0330
,
2002
0000
0000
0000
,
0000
3003
0000
0000
;

//---------------dance-single - Oni-91----------------
#NOTES:
     dance-single:
     :
     Beginner:
     3:
     0.203070,0.356272,0.116958,0.017994,0.000000,158.000000,145.000000,13.000000,2.000000,0.000000,0.000000,0.203070,0.356272,0.116958,0.017994,0.000000,158.000000,145.000000,13.000000,2.000000,0.000000,0.000000:
1000
0000
0000
0000
,
0001
0000
0000
0000
,
1000
0000
0010
0000
,
0100
0000
0000
0000
,
0010
0000
0000
0000
,
1000
0000
0000
0000
,
0001
0000
0010
0000
,
0100
0000
1000
0000
,
0100
0000
0000
0000
,
0010
0000
0000
0000
,
0001
0000
1000
0000
,
0001
0000
0000
0000
,
1000
0000
0000
0000
,
0010
0000
0000
0000
,
0100
0000
0010
0000
,
0100
0000
0010
0000
,
0100
0000
0000
0000
,
0000
0000
0000
0000
,
1001
0000
0000
0000
,
1000
0000
0000
0000
,
0100
0000
0000
0000
,
0010
0000
0000
0000
,
0100
0000
0000
0000
,
1000
0000
0001
0000
,
1000
0000
0000
0000
,
0001
0000
1000
0000
,
1001
0000
0000
0000
,
0001
0000
0000
0000
,
0100
0000
0010
0000
,
0100
0000
0000
0000
,
0010
0000
0000
0000
,
1000
0000
0000
0000
,
0001
0000
1000
0000
,
0001
0000
1000
0000
,
0100
0000
0000
0000
,
0010
0000
0000
0000
,
0001
0000
1000
0000
,
0001
0000
0000
0000
,
1000
0000
0000
0000
,
0010
0000
0000
0000
,
0100
0000
0001
0000
,
0100
0000
0000
0000
,
1001
0000
0000
0000
,
0110
0000
0000
0000
,
0010
0000
1000
0000
,
0001
0000
1000
0000
,
0100
0000
0000
0000
,
0110
0000
0000
0000
,
0010
0000
0001
0000
,
1000
0000
0000
0000
,
1001
0000
0001
0000
,
0100
0000
0010
0010
,
0010
0000
1000
0000
,
0001
0000
1000
0000
,
1001
0000
0001
0000
,
1000
0000
1000
1000
,
1000
0000
0001
0000
,
1000
0000
0100
0000
,
0010
0000
0100
0000
,
1001
0000
0000
0000
,
1001
0000
0000
0000
,
1000
0000
0000
0000
,
0001
0000
0100
0000
,
0001
0000
0000
0000
,
1000
0000
0000
0000
,
0001
0000
0000
0000
,
0010
0000
0001
0000
,
1000
0000
0100
0000
,
1000
0000
0000
0000
,
0001
0000
0000
0000
,
1000
0000
0010
0000
,
0100
0000
0000
0000
,
0010
0000
0000
0000
,
0100
0000
0000
0000
,
0001
0000
1000
0000
,
0001
0000
1000
0000
,
0100
0000
0000
0000
,
0010
0000
0000
0000
,
0100
0000
0000
0000
,
1000
0000
0000
0000
,
0001
0000
0001
0000
,
1000
0000
1000
0000
,
0001
0000
1000
0000
,
0001
0000
0000
0000
,
1000
0000
1000
0000
,
0001
0000
0001
0000
,
1000
0000
0001
0000
,
1000
0000
0000
0000
,
0010
0000
0010
0000
,
0100
0000
0100
0000
,
0010
0000
0100
0000
,
0010
0000
0000
0000
,
1000
0000
1000
0000
,
0001
0000
0001
0000
,
1000
0000
0100
0000
,
0010
0000
0001
0000
,
1001
0000
0000
1001
,
0000
0000
1001
0000
,
2002
0000
0000
0000
,
3003
0000
0000
0000
;
