#TITLE:純愛ホスト☆午前5時;
#SUBTITLE:;
#ARTIST:上野圭一郎とEIICHI;
#TITLETRANSLIT:JUNAI HOST GOZEN 5 JI;
#SUBTITLETRANSLIT:;
#ARTISTTRANSLIT:Keiichi Ueno & EIICHI;
#GENRE:;
#CREDIT:;
#BANNER:JUNAI HOST GOZEN 5 JI.png;
#BACKGROUND:JUNAI HOST GOZEN 5 JI-bg.png;
#LYRICSPATH:;
#CDTITLE:;
#MUSIC:JUNAI HOST GOZEN 5 JI.mp3;
#OFFSET:-4.030000;
#SAMPLESTART:88.580002;
#SAMPLELENGTH:13.240000;
#SELECTABLE:YES;
#BPMS:0.000000=135.000000
,108.000000=138.000000
,112.000000=141.000000
,116.000000=143.000000
,120.000000=145.000000
;
#STOPS:
;
#BGCHANGES:;
#KEYSOUNDS:;
#ATTACKS:;

//---------------dance-single - ----------------
#NOTES:
     dance-single:
     :
     Hard:
     7:
     0.478308,0.505528,0.327264,0.335655,0.188806,399.000000,360.000000,39.000000,40.000000,0.000000,0.000000,0.478308,0.505528,0.327264,0.335655,0.188806,399.000000,360.000000,39.000000,40.000000,0.000000,0.000000:
// measure 0
0001
0000
0000
0010
0001
0000
1000
0001
,  // measure 1
0100
1000
0000
0100
0000
0001
0000
1000
,  // measure 2
0100
0000
0010
0001
1000
0001
0000
2002
,  // measure 3
0000
0000
0000
3003
,  // measure 4
0101
0000
0000
1000
0010
1000
0100
0000
,  // measure 5
0010
0000
0000
0100
0010
0000
0001
0000
,  // measure 6
1000
0000
0000
0001
0100
0010
1000
0000
,  // measure 7
0001
0000
1000
0001
0010
0000
0100
0010
,  // measure 8
0001
0000
0100
0001
0000
1000
0010
0100
,  // measure 9
0001
0000
1000
0000
0010
1000
0100
0010
,  // measure 10
0100
0010
0010
0001
0001
1000
1000
0002
,  // measure 11
0200
0000
0000
0303
,  // measure 12
1001
0000
1000
0100
0000
0010
0100
0010
,  // measure 13
0001
0000
1000
0000
0010
0100
0010
1000
,  // measure 14
0001
0000
1000
0001
0000
1000
0100
0000
,  // measure 15
0010
0000
0001
0010
0001
0000
1000
0010
,  // measure 16
0100
0000
0001
1000
0000
0100
0010
0100
,  // measure 17
1000
0000
0001
0000
0100
0000
0010
1000
,  // measure 18
2002
0000
0000
0000
3003
0000
0000
0000
0001
0000
0000
1000
0000
0000
0001
0000
,  // measure 19
1000
0000
0010
0000
0100
0000
0001
1000
,  // measure 20
0000
0001
0010
0001
0000
1000
0100
0010
,  // measure 21
0001
0000
1000
0000
0010
0100
0000
0010
,  // measure 22
0000
0100
0001
0000
1000
0001
1000
0000
,  // measure 23
0001
0010
0000
0010
0001
0000
1100
0000
,  // measure 24
1000
0000
0010
0000
0000
0000
0010
0000
0100
0000
0000
0001
0000
0000
1000
0000
,  // measure 25
0002
0000
0000
0010
0023
0000
0000
0100
,  // measure 26
0130
0010
0100
1000
0001
0000
1001
0000
,  // measure 27
0220
0000
0000
0330
,  // measure 28
2002
0000
0000
3003
,  // measure 29
2020
3030
0202
0303
,  // measure 30
0011
1100
1010
0101
,  // measure 31
2002
0000
0000
0000
3003
1001
0000
0000
,  // measure 32
0220
0000
0000
0000
0330
0110
0000
0000
,  // measure 33
0022
0000
0000
0000
0033
0011
0000
0000
,  // measure 34
1100
0000
0000
1001
0000
0000
0202
0000
0303
0000
0000
0100
0001
0000
1000
0000
,  // measure 35
0001
0000
0000
0000
0100
0000
0000
0000
0010
0000
1000
0000
0000
0001
0000
0000
,  // measure 36
1000
0100
0010
0001
0100
0000
1001
0000
,  // measure 37
0001
0000
0100
0000
0001
0000
1000
0001
0000
0000
1000
0000
0100
0000
0010
0000
,  // measure 38
0100
0000
0000
0010
0001
0000
0010
0000
0001
0000
0000
0000
1000
0000
0010
0000
,  // measure 39
0100
0000
0000
0010
0000
0000
2000
0000
0002
0000
0000
0000
3003
0000
0000
0000
,  // measure 40
1000
0000
0001
0000
0000
0100
0000
0000
0001
0000
0000
1000
0000
0000
0100
0000
,  // measure 41
0010
0000
0001
0000
0000
0010
0000
0000
0100
0000
0000
1000
0000
0000
0001
0000
,  // measure 42
1000
0000
0010
0000
0000
0100
0000
0000
1000
0000
0000
0100
0000
0000
0001
0000
,  // measure 43
0101
0000
0000
0000
1001
0000
0000
0000
1100
0000
0000
0001
1000
0000
0001
0000
,  // measure 44
0200
0000
0001
0000
0000
0001
0000
0000
0010
0000
0000
0010
0000
0000
0310
0000
,  // measure 45
2000
0000
0100
0000
0000
0100
0000
0000
0001
0000
0000
0001
0000
0000
3001
0000
,  // measure 46
0020
0000
1000
0000
0000
1000
0000
0000
0100
0000
0000
0100
0000
0000
0130
0000
,  // measure 47
0010
0001
1000
0100
0010
0100
1000
0001
,  // measure 48
1000
2002
0000
3003
,  // measure 49
1000
0000
0001
0000
0100
0000
0010
0200
0000
0000
0001
0000
0301
0000
1000
0000
,  // measure 50
0100
0000
0001
0000
0100
0000
1000
0002
0000
0000
0000
0000
0103
0000
0001
0000
,  // measure 51
1000
0000
1000
0000
0001
0000
1000
0002
0000
0000
0010
0000
0013
0000
0100
0000
,  // measure 52
0110
0000
0000
0011
0000
0000
1001
0000
0000
0000
0000
1000
0100
0000
0010
0000
,  // measure 53
0001
0000
1000
0000
0001
0000
1000
0002
0000
0000
0100
0000
0000
0000
1003
0000
,  // measure 54
0100
0000
0010
0000
0100
0000
0010
0002
0000
0000
1000
0000
0000
0000
0013
0000
,  // measure 55
0100
0000
0010
0000
0001
0000
1000
0020
0000
0000
0130
0000
0010
0000
1000
0000
,  // measure 56
0200
0000
0000
0000
0300
0000
1000
0002
2000
0000
0000
0000
3003
0000
0000
0000
,  // measure 57
0011
0000
0000
0000
1100
0000
0000
0000
1001
0000
0000
0110
0000
0000
1001
0000
,  // measure 58
1000
0000
0100
0000
0000
0001
0000
0000
0100
0000
0000
1000
0000
0000
0001
0000
,  // measure 59
1000
0000
0010
0000
0000
0001
0000
0000
0010
0000
0000
1000
0000
0000
0010
0000
,  // measure 60
1000
0000
0100
0000
0000
0010
0000
0000
0001
0000
0000
0100
0000
0000
0010
0000
,  // measure 61
0101
0000
0000
0000
0011
0000
0000
0000
1100
0000
0000
0010
0001
0000
0100
0000
,  // measure 62
0010
0000
1000
0000
0100
1000
0000
0000
0001
0000
0000
0010
0000
0000
0001
0000
,  // measure 63
1000
0000
0001
0000
0100
0001
0000
0000
0100
0000
0000
0010
0000
0000
1000
0000
,  // measure 64
0100
0000
1000
0000
0001
0010
0000
0000
0100
0000
0000
0010
0000
0000
0100
0000
,  // measure 65
1000
0100
1000
0100
0010
0001
0010
0001
,  // measure 66
1000
0000
0010
0000
0100
0000
0001
0000
0100
0000
0000
0000
0010
0000
1000
0001
;

//---------------dance-single - Oni-91----------------
#NOTES:
     dance-single:
     :
     Challenge:
     8:
     0.581402,0.617867,0.310481,0.369220,0.348242,485.000000,448.000000,37.000000,44.000000,0.000000,0.000000,0.581402,0.617867,0.310481,0.369220,0.348242,485.000000,448.000000,37.000000,44.000000,0.000000,0.000000:
// measure 0
1001
0000
0000
1000
0010
0000
0100
0001
,  // measure 1
0010
0200
0000
0001
0000
0010
0000
1000
,  // measure 2
1300
0000
0001
0100
0010
1010
0000
2002
,  // measure 3
0000
0000
0000
3003
,  // measure 4
1001
0000
0001
0010
1000
0010
0100
0000
,  // measure 5
0010
0000
0001
0100
1000
0100
0010
1000
,  // measure 6
0001
0000
1000
0100
0000
0010
0001
1000
,  // measure 7
0100
0000
0010
0100
1000
0001
0100
0010
,  // measure 8
1000
0000
0001
0010
0100
0001
0100
0000
,  // measure 9
0010
0000
0001
1000
0100
0001
0100
1000
,  // measure 10
0001
0000
1000
0100
1000
0000
0001
0010
0001
0000
1000
0010
1000
0000
0001
2000
,  // measure 11
0002
0000
0000
3003
,  // measure 12
1001
0000
0001
0100
0010
0100
0001
1000
,  // measure 13
0100
0000
0000
0000
0010
0000
0100
0000
1000
0000
0000
0001
0100
0000
0001
0000
,  // measure 14
1000
0000
0001
1000
0100
0010
0100
1000
,  // measure 15
0001
0000
0000
1000
0000
0000
0100
0000
0001
0000
1000
0000
0010
0000
0001
0000
,  // measure 16
0100
0000
0000
0010
1000
0000
0001
0000
0100
0000
0001
0000
0010
0000
0100
0000
,  // measure 17
0020
0000
0031
0010
0001
1000
0010
0100
,  // measure 18
0220
0000
0000
0000
0330
0000
0000
0000
1000
0000
0000
0100
0000
0000
0010
0000
,  // measure 19
1001
0000
0001
0100
1000
0200
0000
0310
,  // measure 20
0000
0100
0001
1000
0100
0010
0100
1000
,  // measure 21
0002
0000
0013
0100
0010
0011
0000
1100
,  // measure 22
0000
0000
1000
0000
0001
0000
0100
0001
0000
1000
0010
0000
0100
0000
0001
0000
,  // measure 23
2000
0000
3001
0010
0100
0010
0001
0100
,  // measure 24
0020
0000
0000
0000
0130
0000
0010
0000
1000
0000
0000
0100
0000
0000
1000
0000
,  // measure 25
1002
0000
0000
0100
0203
0000
0000
1000
,  // measure 26
1300
0100
0001
1000
0100
0000
1100
0000
,  // measure 27
2002
0000
0000
3003
,  // measure 28
0022
0000
0000
0033
,  // measure 29
2200
3300
2002
3003
,  // measure 30
1010
0011
1010
1001
,  // measure 31
1000
0000
0001
0000
1000
0000
0002
2000
0000
0000
3003
0000
0000
0000
0000
0000
,  // measure 32
0100
0000
0010
0000
0100
0000
0020
0200
0000
0000
0330
0000
0000
0000
0000
0000
,  // measure 33
1000
0000
0100
0000
0010
0000
0001
0010
0000
0000
0001
0000
0100
0000
0010
0000
,  // measure 34
0110
0000
0000
1001
0000
0000
0220
0000
0330
0000
0000
0001
1000
0000
0001
0000
,  // measure 35
1000
0000
0100
0000
0010
0000
0001
0020
0000
0000
0100
0000
0000
0100
0000
0000
,  // measure 36
0130
0000
1000
0000
0010
0000
0100
0002
0000
0000
1000
0000
0000
1000
0000
0000
,  // measure 37
1003
0000
0010
0000
0100
0000
0001
0200
0000
0000
0310
0000
0100
0000
0001
0000
,  // measure 38
1000
0000
0000
0100
0010
0000
0100
0000
1000
0000
0001
0000
0100
0000
0000
0000
,  // measure 39
0001
0000
0000
0100
0000
0000
0010
0000
2020
0000
0000
0000
3030
0000
0000
0000
,  // measure 40
1000
0000
0100
0000
0000
1000
0000
0000
0001
0000
0010
0100
0000
0000
0010
0000
,  // measure 41
0001
0000
0100
0000
0000
1000
0000
0000
0100
0000
0010
0100
0000
0000
0001
0000
,  // measure 42
1000
0000
0100
0000
0000
0010
0000
0000
0001
0000
1000
0100
0000
0000
1000
0000
,  // measure 43
0101
0000
0000
0000
1010
0000
0000
0000
0110
0000
0000
1010
0000
0000
0101
0000
,  // measure 44
0100
0000
0001
0000
1000
0100
0000
0100
0010
0000
0100
0000
1000
0000
0001
0000
,  // measure 45
0100
0000
1000
0000
0100
0001
0000
0001
0010
0000
0100
0000
0010
0000
0001
0000
,  // measure 46
1000
0000
0100
0000
0001
0100
0000
0100
1000
0000
0001
0000
0100
0000
1000
0000
,  // measure 47
0001
0000
0010
0000
1000
0000
0001
0000
1000
0001
1000
0001
0100
0010
0100
0010
,  // measure 48
0100
2002
0000
3003
,  // measure 49
1000
0000
0100
0000
1000
0000
0001
0200
0000
0000
0310
0000
0100
0000
0001
1000
,  // measure 50
0001
0000
0010
0000
0100
0000
0010
0002
0000
0000
1003
0000
0001
0000
0100
0000
,  // measure 51
0010
1000
0001
0000
1000
0000
0001
0020
0000
0000
0130
0000
0010
0000
0001
0000
,  // measure 52
1100
0000
0000
1001
0000
0000
0202
0000
0303
0000
0000
0001
0100
0000
0010
0000
,  // measure 53
1000
0000
0100
0000
0010
0000
0001
0010
0000
0001
0100
0000
0010
0000
1000
0010
,  // measure 54
0100
0000
0001
0000
1000
0000
0100
1000
0000
0010
0100
0000
0001
0000
1000
0100
,  // measure 55
0010
0000
0100
0000
1000
0000
0001
0020
0000
0000
0130
0000
0010
0000
0001
0000
,  // measure 56
2000
0000
0000
0000
3000
0000
0001
0200
0002
0000
0000
0000
0303
0000
0000
0000
,  // measure 57
1000
0000
0100
0000
0010
0001
0000
1000
0100
0000
0000
0110
0000
0000
1001
0000
,  // measure 58
1000
0000
0010
0000
1000
0010
0000
0010
0100
0000
0001
0000
1000
0000
0100
0000
,  // measure 59
0010
0000
0100
0000
1000
0010
0000
0100
0001
0000
1000
0010
1000
0000
0001
0000
,  // measure 60
0010
0000
0001
0000
1000
0010
0000
0100
0001
0000
0000
0100
0000
0000
0001
0000
,  // measure 61
1001
0000
1000
0000
1100
0000
0000
0001
0100
0000
0000
0001
0010
0000
0100
0000
,  // measure 62
0010
0000
0001
0000
1000
0010
0000
0010
1000
0000
0000
0001
0000
0000
1000
0000
,  // measure 63
0001
0000
0010
0000
0001
1000
0000
1000
0100
0000
0010
0001
0010
0000
0001
0000
,  // measure 64
0001
0000
0010
0000
0001
1000
0000
0010
0100
0000
0000
0001
0000
0000
1000
0000
,  // measure 65
1001
0000
0000
0001
0000
0000
0100
0000
0010
0100
0000
0000
0001
0000
0001
0000
,  // measure 66
1000
0100
1000
0100
1000
0000
0001
0100
0001
0000
0000
0000
1000
0000
0001
1000
;

//---------------dance-single - Oni-91----------------
#NOTES:
     dance-single:
     :
     Medium:
     6:
     0.397991,0.449358,0.243350,0.201393,0.062935,332.000000,303.000000,29.000000,24.000000,0.000000,0.000000,0.397991,0.449358,0.243350,0.201393,0.062935,332.000000,303.000000,29.000000,24.000000,0.000000,0.000000:
// measure 0
0010
0000
0000
1000
0001
0000
1000
0000
,  // measure 1
0100
0010
0000
0100
0000
1000
0000
0001
,  // measure 2
1000
0000
0010
0000
0100
0010
0000
0220
,  // measure 3
0000
0000
0000
0330
,  // measure 4
1001
0000
0000
1000
0001
0000
0010
0000
,  // measure 5
0001
0000
0100
0010
1000
0000
0001
0000
,  // measure 6
1000
0000
0001
0010
0000
0100
1000
0000
,  // measure 7
0001
0000
0010
0001
0100
0000
0010
1000
,  // measure 8
0001
0000
1000
0100
0000
1000
0001
0000
,  // measure 9
0100
0000
0010
0100
0010
0000
1000
0000
,  // measure 10
0001
0010
0001
0000
1000
0100
1000
0000
,  // measure 11
2002
0000
0000
3003
,  // measure 12
1010
0000
0001
0000
0100
0001
0000
1000
,  // measure 13
0100
0000
0010
0000
0100
0010
0001
0000
,  // measure 14
1000
0000
0001
1000
0000
0010
0100
0010
,  // measure 15
1000
0000
0001
0000
0100
0010
1000
0000
,  // measure 16
0001
0000
0010
0001
0000
1000
0100
0010
,  // measure 17
0100
0000
0010
0000
0001
0000
1000
0002
,  // measure 18
2000
0000
0000
0000
3003
0000
0000
0000
1000
0000
0000
0001
0000
0000
1000
0000
,  // measure 19
0001
0000
0100
0000
0010
0000
1000
0100
,  // measure 20
0001
0100
1000
0001
,  // measure 21
0100
0000
0010
0000
1000
0000
0001
0010
,  // measure 22
1000
0000
0010
0000
0100
0010
0001
0000
,  // measure 23
1000
0000
0001
0000
0100
0010
1000
0000
,  // measure 24
0001
0010
0100
0000
0010
0001
1000
0000
,  // measure 25
0001
0000
0000
0001
0100
0000
0000
0100
,  // measure 26
0010
0000
1000
0001
1000
0000
0001
0000
,  // measure 27
2001
0000
0000
0000
,  // measure 28
3200
0000
0000
0000
,  // measure 29
0320
0000
0032
0000
,  // measure 30
1003
0001
0110
1001
,  // measure 31
0220
0000
0000
0000
0000
0330
0000
0000
,  // measure 32
2002
0000
0000
0000
0000
3003
0000
0000
,  // measure 33
0220
0000
0000
0000
0000
0330
0000
0000
,  // measure 34
1000
0000
0000
0001
0000
0000
2002
0000
0000
0000
0000
0000
3003
0000
0000
0000
,  // measure 35
1001
0000
1000
0010
0001
0000
0010
0000
,  // measure 36
0100
0000
0001
0010
1000
0000
0010
0000
,  // measure 37
0100
0000
1000
0100
0010
0000
0100
0000
,  // measure 38
1000
0000
0010
0100
0002
0000
0010
0000
,  // measure 39
1000
0100
2000
3003
,  // measure 40
0110
0000
0001
1000
0001
0000
1000
0100
,  // measure 41
0010
0000
0001
0100
0010
0000
1000
0001
,  // measure 42
1000
0000
0000
0000
0010
0000
0100
0000
0001
0000
0000
1000
0000
0000
0001
0000
,  // measure 43
1000
0100
0110
1001
,  // measure 44
0001
0000
0100
0010
1000
0000
0010
1000
,  // measure 45
0010
0000
0100
0001
0010
0000
0100
0010
,  // measure 46
0100
0000
0000
0000
0010
0000
0001
0000
1000
0000
0000
0001
0000
0000
0100
0000
,  // measure 47
0010
0100
0010
0000
1000
0001
1000
0001
,  // measure 48
1000
0220
0000
0330
,  // measure 49
1001
0000
0000
0000
1000
0000
0000
0001
0000
0000
1000
0000
0100
0000
0000
0000
,  // measure 50
0010
0000
0001
0000
0100
0000
0000
0001
0000
0000
1000
0000
0010
0000
0000
0000
,  // measure 51
1000
0000
0001
0000
1000
0000
0000
0100
0000
0000
0010
0000
0001
0000
0100
0000
,  // measure 52
0110
0000
0000
1001
0000
0000
0220
0000
0000
0000
0000
0000
0330
0000
0000
0000
,  // measure 53
0010
0000
1000
0100
0010
0000
0100
0000
,  // measure 54
0010
0001
0100
0001
1000
0000
0010
0000
,  // measure 55
0100
0000
0010
1000
0001
0000
1000
0000
,  // measure 56
0001
0000
0010
0001
0100
0000
0010
0000
,  // measure 57
1010
0101
1001
0110
,  // measure 58
0001
0000
0000
0000
0010
0000
0000
0000
0001
0000
0000
1000
0000
0000
0001
0000
,  // measure 59
1000
0000
0000
0000
0100
0000
0000
0000
0010
0000
0000
0100
0000
0000
0010
0000
,  // measure 60
0001
0000
0000
0000
1000
0000
0000
0000
0010
0000
0000
0100
0000
0000
0010
0000
,  // measure 61
1000
0101
0010
1100
,  // measure 62
1000
0000
0000
0000
0001
0000
0000
0000
0100
0000
0000
0010
0000
0000
0100
0000
,  // measure 63
0010
0000
0000
0000
1000
0000
0000
0000
0001
0000
0000
1000
0000
0000
0001
0000
,  // measure 64
1000
0000
0000
0000
0100
0000
0000
0000
0010
0000
0000
0100
0000
0000
0010
0000
,  // measure 65
0100
0110
0010
1001
,  // measure 66
1000
0000
0001
0000
1000
0000
0001
0000
0100
0000
0000
0000
0010
0000
0000
0110
;

//---------------dance-single - Oni-91----------------
#NOTES:
     dance-single:
     :
     Easy:
     3:
     0.239754,0.281111,0.117479,0.268524,0.000000,200.000000,186.000000,14.000000,32.000000,0.000000,0.000000,0.239754,0.281111,0.117479,0.268524,0.000000,200.000000,186.000000,14.000000,32.000000,0.000000,0.000000:
// measure 0
1000
0000
0001
0100
,  // measure 1
0010
1000
0100
0010
,  // measure 2
0200
0000
0010
1000
,  // measure 3
0020
0000
0000
0330
,  // measure 4
1000
0000
0001
0100
,  // measure 5
0001
0000
1000
0000
,  // measure 6
0001
0000
1000
0100
,  // measure 7
1000
0000
0001
0000
,  // measure 8
0010
0000
0100
0010
,  // measure 9
0001
0000
0100
0000
,  // measure 10
0010
0100
0010
1000
,  // measure 11
2002
0000
0000
3003
,  // measure 12
0001
0000
1000
0100
,  // measure 13
0010
0000
0100
0000
,  // measure 14
1000
0000
0001
0100
,  // measure 15
0010
0000
0100
0010
,  // measure 16
1000
0000
0001
1000
,  // measure 17
0100
0000
0010
0000
,  // measure 18
0220
0000
0000
0330
,  // measure 19
0010
0000
0001
1000
,  // measure 20
0001
0000
0100
0000
,  // measure 21
0010
0000
1000
0001
,  // measure 22
1000
0000
0001
0000
,  // measure 23
0100
0010
0100
0000
,  // measure 24
0010
1000
0010
1000
,  // measure 25
0002
0000
2003
0000
,  // measure 26
3100
0010
0100
0010
,  // measure 27
2002
0000
0000
3003
,  // measure 28
0220
0000
0000
0330
,  // measure 29
2002
3003
0220
0330
,  // measure 30
1000
0001
0100
0010
,  // measure 31
2002
0000
3003
0000
,  // measure 32
0220
0000
0330
0000
,  // measure 33
1001
0000
0110
0000
,  // measure 34
2002
0000
3003
0000
,  // measure 35
0001
0000
1000
0000
,  // measure 36
0010
0100
0010
0000
,  // measure 37
1000
0001
0010
0100
,  // measure 38
0010
0001
0100
0000
,  // measure 39
0010
1000
0001
0000
,  // measure 40
1000
0100
1000
0000
,  // measure 41
0001
0100
0001
0000
,  // measure 42
1000
0010
1000
0001
,  // measure 43
0020
0000
0130
0010
,  // measure 44
0001
1000
0001
0000
,  // measure 45
1000
0010
0100
0000
,  // measure 46
0010
1000
0001
1000
,  // measure 47
0200
0000
2300
0000
,  // measure 48
3010
2002
0000
3003
,  // measure 49
0001
0100
0001
0000
,  // measure 50
1000
0010
1000
0000
,  // measure 51
0001
1000
0100
0010
,  // measure 52
0001
0100
0010
0000
,  // measure 53
0100
0010
0100
0000
,  // measure 54
0001
1000
0001
0000
,  // measure 55
1000
0100
0010
0001
,  // measure 56
1000
0001
0100
0000
,  // measure 57
0010
1000
2002
3003
,  // measure 58
0001
1000
0100
0000
,  // measure 59
0010
0001
1000
0000
,  // measure 60
0001
1000
0001
0100
,  // measure 61
0020
0000
1030
0010
,  // measure 62
1000
0001
1000
0000
,  // measure 63
0001
1000
0100
0000
,  // measure 64
0010
0001
1000
0010
,  // measure 65
0100
0100
0010
0010
,  // measure 66
1000
0001
1000
2002
,  // measure 67
3003
0000
0000
0000
;

//---------------dance-single - Oni-91----------------
#NOTES:
     dance-single:
     :
     Beginner:
     1:
     0.145051,0.224050,0.117479,0.000000,0.000000,121.000000,107.000000,14.000000,0.000000,0.000000,0.000000,0.145051,0.224050,0.117479,0.000000,0.000000,121.000000,107.000000,14.000000,0.000000,0.000000,0.000000:
// measure 0
1000
0000
0000
0000
,  // measure 1
0001
0000
0100
0000
,  // measure 2
0001
0000
0000
0000
,  // measure 3
1001
0000
0000
0000
,  // measure 4
1000
0000
0000
0000
,  // measure 5
0001
0000
0000
0000
,  // measure 6
0100
0000
0010
0000
,  // measure 7
0100
0000
0000
0000
,  // measure 8
0001
0000
0000
0000
,  // measure 9
1000
0000
0000
0000
,  // measure 10
0100
0000
0010
0010
,  // measure 11
0010
0000
0000
0000
,  // measure 12
0100
0000
1000
0000
,  // measure 13
0001
0000
0000
0000
,  // measure 14
0100
0000
0001
0000
,  // measure 15
1000
0000
0000
0000
,  // measure 16
0001
0000
1000
0000
,  // measure 17
0001
0000
0010
0000
,  // measure 18
0100
0000
0000
0000
,  // measure 19
1001
0000
0000
0000
,  // measure 20
1000
0000
0001
0000
,  // measure 21
1000
0000
0000
0000
,  // measure 22
0100
0000
0010
0000
,  // measure 23
0100
0000
0100
0000
,  // measure 24
0010
0000
0010
0000
,  // measure 25
0001
0000
0000
0000
,  // measure 26
1000
0000
0001
0000
,  // measure 27
1001
0000
0000
0000
,  // measure 28
1001
0000
0000
0000
,  // measure 29
1001
0000
1001
0000
,  // measure 30
1001
0000
0000
0000
,  // measure 31
0110
0000
0000
0000
,  // measure 32
1001
0000
0000
0000
,  // measure 33
0110
0000
0000
0000
,  // measure 34
1001
0000
0000
0000
,  // measure 35
1000
0000
0000
0000
,  // measure 36
1000
0000
0001
0000
,  // measure 37
0100
0000
0010
0000
,  // measure 38
0100
0000
0100
0000
,  // measure 39
0001
0001
0001
0000
,  // measure 40
1001
0000
0000
0000
,  // measure 41
0001
0000
1000
0000
,  // measure 42
0100
0000
0010
0000
,  // measure 43
0001
0000
0000
0000
,  // measure 44
1000
0000
0001
0000
,  // measure 45
0100
0000
0010
0000
,  // measure 46
1000
0000
0001
0000
,  // measure 47
1000
0000
0000
0000
,  // measure 48
0000
0110
0000
0000
,  // measure 49
1001
0000
0000
0000
,  // measure 50
0001
0000
1000
0000
,  // measure 51
0100
0000
0010
0000
,  // measure 52
0100
0000
0000
0000
,  // measure 53
0010
0000
0001
0000
,  // measure 54
1000
0000
0001
0000
,  // measure 55
0100
0000
0010
0000
,  // measure 56
0100
0000
0000
0000
,  // measure 57
0001
0000
1000
0000
,  // measure 58
0001
0000
0001
0000
,  // measure 59
1000
0000
1000
0000
,  // measure 60
0100
0000
0100
0000
,  // measure 61
0010
0000
0100
0000
,  // measure 62
0010
0000
0010
0000
,  // measure 63
0100
0000
0100
0000
,  // measure 64
1000
0000
1000
0000
,  // measure 65
0001
0000
0001
0000
,  // measure 66
1000
0000
0001
0001
;
