#TITLE:It's Killing Me;
#SUBTITLE:;
#ARTIST:DJ Toxic;
#TITLETRANSLIT:;
#SUBTITLETRANSLIT:;
#ARTISTTRANSLIT:;
#GENRE:;
#CREDIT:;
#BANNER:It's Killing Me.png;
#BACKGROUND:It's Killing Me-bg.png;
#LYRICSPATH:;
#CDTITLE:;
#MUSIC:It's Killing Me.mp3;
#OFFSET:-8.349999;
#SAMPLESTART:70.000000;
#SAMPLELENGTH:13.320000;
#SELECTABLE:YES;
#BPMS:0.000000=144.052994
;
#STOPS:
;
#BGCHANGES:;
#KEYSOUNDS:;
#ATTACKS:;

//---------------dance-single - Oni-91----------------
#NOTES:
     dance-single:
     :
     Hard:
     7:
     0.403797,0.466249,0.118153,0.136330,0.131786,311.000000,298.000000,13.000000,15.000000,0.000000,0.000000,0.403797,0.466249,0.118153,0.136330,0.131786,311.000000,298.000000,13.000000,15.000000,0.000000,0.000000:
// measure 0
1000
0100
0010
0001
,  // measure 1
1000
0010
0100
0001
,  // measure 2
1000
0001
1000
0001
,  // measure 3
0100
0010
0100
0010
,  // measure 4
1001
0000
1000
0100
0010
0000
0100
0000
,  // measure 5
1000
0000
0001
0100
0010
0000
0100
0000
,  // measure 6
0001
0000
1000
0100
0001
0000
0100
0000
,  // measure 7
1000
0000
0010
0100
0001
0000
1000
0000
,  // measure 8
0001
0010
0001
0010
0100
0000
0010
0000
,  // measure 9
0001
0100
0001
0100
0010
0000
1000
0000
,  // measure 10
0010
1000
0100
0001
0100
0000
1000
0010
,  // measure 11
0100
0001
0100
1000
0100
1000
0100
0001
,  // measure 12
1000
0000
0001
0010
0100
1000
0100
0010
,  // measure 13
0001
0000
0100
0001
0100
0001
1000
0100
,  // measure 14
1000
0000
0001
0010
0100
0001
0100
1000
,  // measure 15
0010
0000
0100
0010
1000
0100
1000
0001
,  // measure 16
0100
0010
0100
0010
1000
0100
0010
0000
,  // measure 17
0100
0010
0100
1000
0001
0100
0010
0000
,  // measure 18
1000
0010
0100
0001
0100
0010
1000
0100
,  // measure 19
2002
0000
0000
3003
,  // measure 20
0220
0000
0000
0000
,  // measure 21
0330
0000
0000
0000
0000
0000
0000
0000
0010
0000
0000
0001
0000
0000
0010
0000
,  // measure 22
0001
0000
1000
0000
0001
1000
0000
2002
,  // measure 23
0000
0000
0000
0000
3003
0000
0000
0000
0001
0000
0000
0100
0000
0000
0001
0000
,  // measure 24
2002
0000
0000
0000
,  // measure 25
3003
0000
0000
0000
0000
0000
0000
0000
0010
0000
0000
0100
0000
0000
0010
0000
,  // measure 26
0100
0000
0010
0000
1000
0001
0000
2002
,  // measure 27
0000
0000
0000
3003
,  // measure 28
1001
0000
0000
0000
,  // measure 29
1001
0000
0000
0000
0001
0000
0000
0000
1000
0000
0000
1000
0000
0000
1000
0000
,  // measure 30
0001
0000
0000
0001
0000
0000
0001
0000
0010
0000
0000
0010
0000
0000
0010
0000
,  // measure 31
0100
0000
0000
0100
0000
0000
0100
0000
1000
0000
0000
1000
0000
0000
1000
0000
,  // measure 32
0001
0000
0000
1000
0000
0000
0100
0000
1000
0000
0000
0001
0000
0000
0100
0000
,  // measure 33
1010
0000
1000
0100
0010
0001
1000
0100
,  // measure 34
1000
0001
0100
0001
0100
0010
1000
0100
,  // measure 35
0010
0001
0010
0001
1000
0100
1000
0100
,  // measure 36
1000
0001
0100
0010
0220
0000
0330
0000
,  // measure 37
1001
0000
0000
0000
1000
0000
0010
0000
1000
0000
0000
0001
0000
0000
0100
0000
,  // measure 38
0010
0000
0100
0000
0001
0000
1000
0000
0100
0000
0000
0010
0000
0000
0100
0000
,  // measure 39
0010
0000
0000
0001
0000
0000
0001
0000
1000
0000
0000
0010
0000
0000
0010
0000
,  // measure 40
0100
0000
0000
0001
0000
0000
1000
0000
0100
0000
0000
1000
0000
0000
0001
0000
,  // measure 41
0200
0000
0000
0000
0310
0000
0100
0000
0010
0000
0000
1000
0000
0000
0001
0000
,  // measure 42
1000
0000
0100
0000
0010
0000
0001
0000
0100
0000
0000
0010
0000
0000
0100
0000
,  // measure 43
0010
0000
0000
1000
0000
0000
0100
0000
0010
0000
0000
0001
0000
0000
0100
0000
,  // measure 44
0001
0000
0000
1000
0000
0000
0100
0000
1000
0000
1000
0000
1000
0000
0001
0000
,  // measure 45
0010
0000
0100
0000
0010
0000
0001
0000
1000
0000
0001
1000
0000
0000
0001
0000
,  // measure 46
0100
0000
0001
0100
0000
0000
0010
0000
1000
0000
0000
0010
0000
0000
1000
0000
,  // measure 47
0100
0010
0001
0010
0100
0010
0001
1000
,  // measure 48
0001
0000
0100
0000
1000
0000
0100
0000
0010
0000
0000
1000
0000
0000
0001
0000
,  // measure 49
0100
0010
0100
0010
1000
0100
0010
0001
,  // measure 50
0100
0001
0100
0001
1000
0100
1000
0100
,  // measure 51
1000
0000
0000
0100
0000
0000
0010
0000
0001
0000
0000
0100
0000
0000
0010
0000
,  // measure 52
1000
0000
0000
0001
0000
0000
1000
0000
0001
0000
0000
0100
0000
0000
0010
0000
,  // measure 53
0220
0000
0000
0000
,  // measure 54
0000
0000
0000
0000
,  // measure 55
0000
0000
0000
0000
,  // measure 56
0000
0000
0000
0330
,  // measure 57
0110
0000
0000
0000
;

//---------------dance-single - Oni-91----------------
#NOTES:
     dance-single:
     :
     Medium:
     5:
     0.327192,0.362638,0.118153,0.109064,0.095431,252.000000,239.000000,13.000000,12.000000,0.000000,0.000000,0.327192,0.362638,0.118153,0.109064,0.095431,252.000000,239.000000,13.000000,12.000000,0.000000,0.000000:
// measure 0
1000
0100
1000
0100
,  // measure 1
0010
0001
0010
0001
,  // measure 2
1000
0001
1000
0001
,  // measure 3
0100
0010
0100
0010
,  // measure 4
0101
0001
1000
0100
,  // measure 5
0010
0000
0001
0000
0010
0001
1000
0000
,  // measure 6
0001
0100
0010
1000
,  // measure 7
0100
0000
1000
0000
0001
1000
0001
1000
,  // measure 8
0100
0010
0100
1000
,  // measure 9
0001
0000
0100
0000
0010
0000
1000
0010
,  // measure 10
0100
0010
1000
0100
,  // measure 11
0010
0000
0100
0000
0010
0001
1000
0001
,  // measure 12
0100
0000
0010
0000
0100
0001
1000
0000
,  // measure 13
0001
0000
1000
0000
0100
0010
0100
0000
,  // measure 14
0010
0000
0001
0000
1000
0010
0100
0000
,  // measure 15
0001
0000
1000
0000
0100
0010
0001
0010
,  // measure 16
0100
0000
0010
0000
0001
1000
0010
0000
,  // measure 17
0100
0000
0010
0000
1000
0001
1000
0000
,  // measure 18
0001
0000
0100
0000
0010
1000
0100
0000
,  // measure 19
2002
0000
0000
3003
,  // measure 20
0220
0000
0000
0000
,  // measure 21
0330
0000
0001
1000
,  // measure 22
0001
0000
0100
0000
0010
1000
0000
2002
,  // measure 23
0000
0000
0000
0000
3003
0000
0000
0000
0001
0000
0000
0001
0000
0000
0002
0000
,  // measure 24
2000
0000
0000
0000
,  // measure 25
3003
0000
1000
0100
,  // measure 26
0010
0000
0100
0000
1000
0001
0000
2002
,  // measure 27
0000
0000
0000
0000
,  // measure 28
3003
0000
0000
0000
,  // measure 29
1001
0001
1000
0100
,  // measure 30
0010
0000
0000
0000
0100
0000
0000
0000
0010
0000
0000
0100
0000
0000
0010
0000
,  // measure 31
0100
0000
0000
0000
1000
0000
0000
0000
0001
0000
0000
1000
0000
0000
0001
0000
,  // measure 32
1000
0000
0000
0000
0010
0000
0000
0000
0100
0000
0000
0001
0000
0000
0100
0000
,  // measure 33
0001
1000
0100
0010
,  // measure 34
0100
0000
0000
0000
1000
0000
0000
0000
0001
0000
0000
1000
0000
0000
0001
0000
,  // measure 35
1000
0000
0000
0000
0010
0000
0000
0000
0100
0000
0000
0010
0000
0000
0100
0000
,  // measure 36
0001
0000
0000
0100
0000
0000
0001
0000
1000
0000
0000
0001
0000
0000
1000
0000
,  // measure 37
0100
0000
0010
0100
1000
0000
0001
0000
,  // measure 38
1000
0000
0001
0100
0010
0000
1000
0000
,  // measure 39
0001
0000
0000
0100
0000
0000
0001
0000
1000
0000
0000
0100
0000
0000
1000
0000
,  // measure 40
0001
0000
0010
0001
0100
0000
1001
0000
,  // measure 41
1000
0000
0010
0100
0001
0000
0010
0000
,  // measure 42
0001
0000
0000
0010
0000
0000
0001
0000
1000
0000
0000
0000
1001
0000
0000
0000
,  // measure 43
0001
0000
0100
0010
1000
0000
0100
0010
,  // measure 44
0001
0000
0000
1000
0000
0000
0100
0000
0010
0000
0000
0001
0000
0000
0100
0000
,  // measure 45
0010
0000
1000
0010
0100
0000
1001
0000
,  // measure 46
0001
0010
0100
0010
0001
0000
1001
0000
,  // measure 47
1000
0000
0000
1000
0000
0000
1000
0000
0100
0000
0000
0100
0000
0000
0100
0000
,  // measure 48
0010
0000
0000
0010
0000
0000
0010
0000
0001
0000
0000
0001
0000
0000
0001
0000
,  // measure 49
1000
0000
0001
0100
0010
0000
1001
0000
,  // measure 50
0001
0000
1000
0100
0010
0000
1001
0000
,  // measure 51
1000
0000
0000
0100
0000
0000
1000
0000
0100
0000
0000
0010
0000
0000
0100
0000
,  // measure 52
0010
0000
0000
0001
0000
0000
0010
0000
0001
0000
0000
1000
0000
0000
0002
0000
,  // measure 53
2000
0000
0000
0000
,  // measure 54
0000
0000
0000
0000
,  // measure 55
0000
0000
0000
0000
,  // measure 56
0000
0000
0000
3003
,  // measure 57
1001
0000
0000
0000
;

//---------------dance-single - Oni-91----------------
#NOTES:
     dance-single:
     :
     Easy:
     4:
     0.227217,0.362638,0.154508,0.109064,0.000000,175.000000,158.000000,17.000000,12.000000,0.000000,0.000000,0.227217,0.362638,0.154508,0.109064,0.000000,175.000000,158.000000,17.000000,12.000000,0.000000,0.000000:
// measure 0
2000
0000
0000
0000
,  // measure 1
0000
0000
0000
0000
,  // measure 2
3200
0000
0000
0000
,  // measure 3
0320
0000
0000
0000
,  // measure 4
0031
0010
0100
0000
,  // measure 5
0010
0001
0100
0000
,  // measure 6
0010
1000
0010
1000
,  // measure 7
0001
1000
0100
0000
,  // measure 8
0010
0001
0100
0001
,  // measure 9
1000
0010
0100
0000
,  // measure 10
0010
0100
0010
0100
,  // measure 11
0001
1000
0001
1000
,  // measure 12
1001
0001
0010
0100
,  // measure 13
0001
0100
1000
0001
,  // measure 14
1000
0010
0001
0010
,  // measure 15
1000
0100
0010
0100
,  // measure 16
0010
0001
1000
0001
,  // measure 17
1000
0001
0100
0010
,  // measure 18
1000
0100
1000
0001
,  // measure 19
2002
0000
0000
3003
,  // measure 20
0220
0000
0000
0000
,  // measure 21
0330
0000
0000
0000
,  // measure 22
0001
0000
1000
0000
0001
0001
0000
0002
,  // measure 23
0000
0003
1000
0001
,  // measure 24
0200
0000
0000
0000
,  // measure 25
0300
0000
0001
0010
,  // measure 26
0100
0000
0010
0000
0100
0100
0000
0200
,  // measure 27
0000
0000
0000
0000
,  // measure 28
0300
0000
0000
0000
,  // measure 29
0010
0000
0001
0000
,  // measure 30
1000
0000
0001
0000
,  // measure 31
0100
0000
0001
0000
,  // measure 32
1000
0000
0010
0000
,  // measure 33
0110
0000
1010
0000
,  // measure 34
1100
0000
0011
0000
,  // measure 35
0101
0000
0110
0000
,  // measure 36
1001
1001
0110
0110
,  // measure 37
1001
0001
1000
0100
,  // measure 38
0010
0100
1000
0000
,  // measure 39
0001
0100
0010
0100
,  // measure 40
0001
1000
0100
0000
,  // measure 41
0010
0001
1000
0100
,  // measure 42
0010
0100
1000
0001
,  // measure 43
1000
0010
0001
0100
,  // measure 44
0001
0010
1000
0001
,  // measure 45
1001
1000
0100
0001
,  // measure 46
1000
0010
0001
0100
,  // measure 47
0001
0100
1000
0001
,  // measure 48
1000
0010
1000
0100
,  // measure 49
0010
0100
0010
1000
,  // measure 50
0100
0001
0100
0010
,  // measure 51
0001
0100
0001
0010
,  // measure 52
1000
0001
0100
1000
,  // measure 53
2002
0000
0000
0000
,  // measure 54
0000
0000
0000
0000
,  // measure 55
0000
0000
0000
0000
,  // measure 56
0000
0000
0000
3003
,  // measure 57
1001
0000
0000
0000
;

//---------------dance-single - Oni-91----------------
#NOTES:
     dance-single:
     :
     Beginner:
     1:
     0.110363,0.207222,0.072709,0.000000,0.000000,85.000000,77.000000,8.000000,0.000000,0.000000,0.000000,0.110363,0.207222,0.072709,0.000000,0.000000,85.000000,77.000000,8.000000,0.000000,0.000000,0.000000:
// measure 0
0000
0000
0000
0000
,  // measure 1
0000
0000
0000
0000
,  // measure 2
0000
0000
0000
0000
,  // measure 3
0000
0000
0000
0000
,  // measure 4
1001
0000
0000
0000
,  // measure 5
1000
0000
0001
0000
,  // measure 6
1000
0000
0000
0000
,  // measure 7
0001
0000
0010
0000
,  // measure 8
0001
0000
0000
0000
,  // measure 9
1000
0000
0010
0000
,  // measure 10
1000
0000
0000
0000
,  // measure 11
0010
0000
0100
0000
,  // measure 12
0010
0000
0100
0000
,  // measure 13
0001
0000
1000
0000
,  // measure 14
0100
0000
1000
0000
,  // measure 15
0001
0000
0000
0000
,  // measure 16
1000
0000
0100
0000
,  // measure 17
1000
0000
0001
0000
,  // measure 18
1000
0000
0010
0000
,  // measure 19
0100
0000
0000
0000
,  // measure 20
1001
0000
0000
0000
,  // measure 21
0000
0000
0000
0000
,  // measure 22
0000
0000
0000
0000
,  // measure 23
0000
0000
0000
0000
,  // measure 24
0110
0000
0000
0000
,  // measure 25
0000
0000
0000
0000
,  // measure 26
0000
0000
0000
0000
,  // measure 27
0000
0000
0000
0000
,  // measure 28
1001
0000
0000
0000
,  // measure 29
0110
0000
0000
0000
,  // measure 30
0010
0000
0000
0000
,  // measure 31
0100
0000
0000
0000
,  // measure 32
0001
0000
0000
0000
,  // measure 33
1000
0000
0000
0000
,  // measure 34
0100
0000
0000
0000
,  // measure 35
0010
0000
0001
0000
,  // measure 36
1000
1000
1000
0000
,  // measure 37
1001
0000
0000
0000
,  // measure 38
0001
0000
0100
0000
,  // measure 39
0001
0000
1000
0000
,  // measure 40
0100
0000
0010
0000
,  // measure 41
0100
0000
0100
0000
,  // measure 42
0010
0000
0001
0000
,  // measure 43
1000
0000
0001
0000
,  // measure 44
1001
0000
0000
0000
,  // measure 45
1000
0000
0001
0000
,  // measure 46
1000
0000
0010
0000
,  // measure 47
0100
0100
0100
0000
,  // measure 48
0010
0010
0010
0000
,  // measure 49
0100
0000
0001
0000
,  // measure 50
1000
0000
0100
0000
,  // measure 51
1000
1000
1000
0000
,  // measure 52
0001
0001
0001
0001
,  // measure 53
0001
0000
0000
0000
,  // measure 54
0000
0000
0000
0000
,  // measure 55
0000
0000
0000
0000
,  // measure 56
0000
0000
0000
0000
,  // measure 57
1001
0000
0000
0000
;
