#VERSION:0.83;
#TITLE:Insane Techniques;
#SUBTITLE:;
#ARTIST:kors k;
#TITLETRANSLIT:;
#SUBTITLETRANSLIT:;
#ARTISTTRANSLIT:;
#GENRE:;
#ORIGIN:;
#CREDIT:;
#BANNER:Insane Techniques.png;
#BACKGROUND:Insane Techniques-bg.png;
#PREVIEWVID:;
#JACKET:;
#CDIMAGE:;
#DISCIMAGE:;
#LYRICSPATH:;
#CDTITLE:;
#MUSIC:Insane Techniques.mp3;
#OFFSET:-6.600000;
#SAMPLESTART:95.367111;
#SAMPLELENGTH:13.150688;
#SELECTABLE:YES;
#DISPLAYBPM:146.000000;
#BPMS:0.000=146.000,
8.000=219.000,
13.000=438.000,
17.000=657.000,
23.000=146.000,
212.000=219.000,
214.000=328.500,
216.000=492.750,
218.000=985.500,
226.000=146.000;
#STOPS:23.000=0.411,
226.000=2.466;
#DELAYS:;
#WARPS:;
#TIMESIGNATURES:0.000=4=4;
#TICKCOUNTS:0.000=4;
#COMBOS:0.000=1;
#SPEEDS:0.000=1.000=0.000=0;
#SCROLLS:0.000=1.000;
#FAKES:;
#LABELS:0.000=Song Start;
#BGCHANGES:-16.000=Insane Techniques.avi=1.000=1=0=0=StretchNoLoop==CrossFade==,
297.500=Insane Techniques-bg.png=1.000=1=0=1===CrossFade==,
99999=-nosongbg-=1.000=0=0=0 // don't automatically add -songbackground-
;
#KEYSOUNDS:;
#ATTACKS:
;

//---------------dance-single - Oni-91----------------
#NOTEDATA:;
#CHARTNAME:;
#STEPSTYPE:dance-single;
#DESCRIPTION:Oni-91;
#CHARTSTYLE:;
#DIFFICULTY:Hard;
#METER:9;
#RADARVALUES:0.539845,0.708547,0.254045,0.285800,0.361220,476.000000,444.000000,32.000000,36.000000,0.000000,0.000000,0.000000,0.000000,0.000000,0.539845,0.708547,0.254045,0.285800,0.361220,476.000000,444.000000,32.000000,36.000000,0.000000,0.000000,0.000000,0.000000,0.000000;
#CREDIT:Oni-91;
#DISPLAYBPM:146.000000;
#NOTES:
// measure 0
0200
0000
0000
0000
,  // measure 1
0000
0000
0000
0000
,  // measure 2
0020
0000
0000
0000
,  // measure 3
0000
0000
0000
0000
,  // measure 4
0000
0000
0000
0000
,  // measure 5
0000
0000
0000
0330
,  // measure 6
1001
0000
0000
0001
1000
0000
0001
0000
0100
0000
0000
0000
0001
0000
0000
0000
,  // measure 7
1000
0000
0000
0100
1000
0000
0001
0000
0010
0000
0000
0000
0001
0000
0100
0000
,  // measure 8
0001
0000
0000
0100
0010
0000
1000
0000
0001
0000
0000
0000
1000
0000
0100
0000
,  // measure 9
0010
0100
1000
0002
0000
0103
0000
0100
,  // measure 10
0001
0000
0000
0001
1000
0000
0100
0000
0020
0000
0032
0000
0023
0000
0032
0000
,  // measure 11
0013
0001
1000
0020
0032
0023
1030
0001
,  // measure 12
0010
0000
0100
0000
0010
0001
1000
0000
2002
0000
0000
0000
3003
0000
0000
0000
,  // measure 13
0001
0100
0020
1000
2000
0000
3030
0000
,  // measure 14
0010
0000
1000
0000
0001
0000
0000
0010
0000
0100
0000
0000
0010
0000
0001
0000
,  // measure 15
1000
0000
0010
0000
0100
0000
0001
1000
0000
0001
0000
0000
1000
0000
0100
0000
,  // measure 16
0001
0000
0100
0000
0010
0000
0000
0001
0000
0100
0000
0000
0010
0000
1000
0000
,  // measure 17
0001
0000
0010
0000
0001
0000
1000
0100
0000
1000
0100
0000
0010
0000
0001
0000
,  // measure 18
1000
0000
0001
0000
0100
0000
0000
0001
0000
1000
0000
0000
0001
0000
0010
0000
,  // measure 19
0100
0000
0010
0000
0001
0000
1000
0010
0000
0100
0000
0001
1000
0000
0000
0000
,  // measure 20
0101
0000
0000
0011
0000
0000
0110
0000
0000
1100
0000
0000
1001
0000
0110
0000
,  // measure 21
2002
0000
0000
3003
,  // measure 22
0001
0000
1000
0000
0100
0100
0000
1000
0000
0001
0000
0000
0100
0000
0000
0000
,  // measure 23
0001
0000
1000
0000
0010
0010
0000
1000
0001
0000
0010
0000
1000
0000
0010
0000
,  // measure 24
0001
0000
1000
0000
0001
0001
0000
0100
0000
0010
0000
0000
1000
0000
0000
0000
,  // measure 25
0010
0000
1000
0000
0010
0010
0000
1000
0001
0000
0010
0100
0010
0000
0001
0000
,  // measure 26
2001
0000
0000
0000
3001
0000
0000
1000
0000
0001
0000
0000
0100
0000
0010
0000
,  // measure 27
0100
0000
0001
0000
1000
0100
0000
0010
0001
0000
1000
0000
1001
0000
0000
0000
,  // measure 28
0210
1000
0010
0001
,  // measure 29
0310
0000
0100
0000
0001
0000
1000
0000
0001
1000
0001
1000
0001
1000
0001
1000
,  // measure 30
0002
0000
0000
0000
,  // measure 31
0000
0000
0000
0000
,  // measure 32
0203
0000
0000
0000
,  // measure 33
0320
0000
0000
0000
,  // measure 34
1030
0001
0000
0001
0010
0000
0010
0001
,  // measure 35
0000
0001
0100
0000
0100
0010
0000
0010
,  // measure 36
1000
0000
0001
0010
0000
0100
1000
0000
,  // measure 37
0001
1000
0000
0001
0100
1000
0100
0010
,  // measure 38
1001
0100
0000
0001
0100
0000
0010
1000
,  // measure 39
0000
0001
0010
0000
0100
0010
0000
0001
,  // measure 40
0100
0000
0100
0010
0000
1000
0001
0000
,  // measure 41
0100
0001
0000
1000
0100
0010
0001
0100
,  // measure 42
0101
0001
0000
0001
1000
0000
1000
0100
,  // measure 43
0000
0100
0001
0000
0001
0010
0000
0010
,  // measure 44
1000
0000
1000
0100
0000
0010
0001
0000
,  // measure 45
0220
0000
0000
0330
,  // measure 46
1001
0000
0000
1000
0000
0000
0001
0000
0100
0000
0010
0000
1000
0000
0100
0000
,  // measure 47
0010
0000
0100
0010
0000
0100
0010
0000
0001
0000
1000
0000
0001
0000
0100
0000
,  // measure 48
0010
0000
0000
1000
0000
0000
0001
0000
1000
0000
0100
0000
0010
0000
0100
0000
,  // measure 49
0010
0000
0001
1000
0000
0001
1000
0000
0010
0100
0010
0200
0020
0000
0330
0000
,  // measure 50
0001
0000
1000
0100
0000
1000
0100
0000
0010
0001
0010
0000
0001
0000
1000
0000
,  // measure 51
0001
0000
0100
0001
0000
0100
0001
0000
1000
0000
0110
0000
1001
0000
0000
0000
,  // measure 52
1001
0000
0000
0101
0000
0000
1010
0000
0000
1100
0000
0000
0011
0000
1100
0000
,  // measure 53
2002
0000
0000
0000
,  // measure 54
0000
0000
0000
0000
,  // measure 55
0000
0000
0000
0000
,  // measure 56
0000
0000
3003
0000
,  // measure 57
0010
0000
1000
0001
0000
1000
0001
0000
0010
0000
0001
0000
0100
0000
0010
0000
,  // measure 58
1000
0000
0001
0100
0000
0001
0100
0000
0001
1000
0001
0000
1000
0000
0100
0000
,  // measure 59
0010
0000
0001
1000
0000
0001
0100
0000
0001
1000
0001
1000
0001
0000
0100
0000
,  // measure 60
0010
0000
1000
0000
0100
0000
1000
0000
0001
1000
0001
1000
0100
0000
0010
0000
,  // measure 61
0100
0000
1000
0001
0000
0001
0100
0000
0010
0000
0100
0000
0001
0000
1000
0000
,  // measure 62
0001
0000
0010
0001
0000
1000
0100
0000
1000
0001
0100
0000
0010
0000
1000
0000
,  // measure 63
0010
0000
0100
0001
0000
0100
0001
0000
1000
0001
0010
0000
0100
0000
0010
0000
,  // measure 64
0001
0100
1010
0101
2002
0000
3003
0000
,  // measure 65
0010
0000
1000
0000
1100
0000
0000
0000
0010
0001
1000
0000
0010
0000
0100
0000
,  // measure 66
0001
0000
0100
0000
0110
0000
0010
0000
1000
0001
0010
0001
0010
0000
0001
0000
,  // measure 67
1000
0000
0100
0000
1001
0000
0100
0000
0010
1000
0100
0010
0001
0000
0010
0000
,  // measure 68
0002
0000
0000
0000
2003
3020
0230
0302
,  // measure 69
1003
0000
0001
0010
0000
0001
0100
0000
0010
1000
0100
1000
0001
0000
0010
0000
,  // measure 70
0100
0000
1000
0001
0000
0100
0010
0000
1000
0001
0000
0100
0000
0001
0010
0001
,  // measure 71
0100
1000
0100
0001
0100
0010
0100
0001
,  // measure 72
1000
0000
0001
1000
0001
1000
0001
1000
0100
0000
0010
0000
0001
0000
1000
0000
,  // measure 73
2002
0000
0000
0000
,  // measure 74
0000
0000
0000
3003
0000
0000
0000
0000
;

//---------------dance-single - Oni-91----------------
#NOTEDATA:;
#CHARTNAME:;
#STEPSTYPE:dance-single;
#DESCRIPTION:Oni-91;
#CHARTSTYLE:;
#DIFFICULTY:Medium;
#METER:7;
#RADARVALUES:0.399213,0.501888,0.150839,0.293739,0.039695,352.000000,333.000000,19.000000,37.000000,0.000000,0.000000,0.000000,0.000000,0.000000,0.399213,0.501888,0.150839,0.293739,0.039695,352.000000,333.000000,19.000000,37.000000,0.000000,0.000000,0.000000,0.000000,0.000000;
#CREDIT:Oni-91;
#DISPLAYBPM:146.000000;
#NOTES:
// measure 0
2000
0000
0000
0000
,  // measure 1
0000
0000
0000
0000
,  // measure 2
0002
0000
0000
0000
,  // measure 3
0000
0000
0000
0000
,  // measure 4
0000
0000
0000
0000
,  // measure 5
0000
0000
0000
3003
,  // measure 6
1001
0000
0001
1000
0200
0000
0300
0000
,  // measure 7
0011
0000
0001
0100
0020
0000
0030
0000
,  // measure 8
1010
0000
0100
0001
2000
0000
3000
0000
,  // measure 9
0001
0010
0100
2000
0000
0010
0000
0001
,  // measure 10
3001
0000
1100
0000
1000
1000
0001
0001
,  // measure 11
0100
0010
1000
0100
0100
0100
1000
0000
,  // measure 12
0001
0100
0010
0100
0001
0000
1001
0000
,  // measure 13
1000
0020
0130
0010
0200
0000
0300
0000
,  // measure 14
1001
0000
0100
0000
0010
0100
0001
0010
,  // measure 15
0100
0000
0011
0000
0100
1000
0001
1000
,  // measure 16
0010
0000
0101
0000
0010
1000
0001
1000
,  // measure 17
0100
0010
0100
0000
1000
0001
1000
0000
,  // measure 18
0110
0000
1001
0000
0001
0010
0100
0000
,  // measure 19
0010
0001
0100
0000
0010
1000
1001
0000
,  // measure 20
1000
0000
0000
0100
0000
0000
0010
0000
0000
0001
0000
0000
1000
0000
0001
0000
,  // measure 21
0200
0000
0000
0300
,  // measure 22
0010
1000
1010
0000
0100
0001
0010
0000
,  // measure 23
0001
1000
0001
1000
0010
0100
0010
0000
,  // measure 24
1000
0100
1100
0000
0010
0001
0100
0000
,  // measure 25
0001
0100
0010
1000
0100
0001
0100
0010
,  // measure 26
0002
0000
1003
0000
0010
1000
0001
0000
,  // measure 27
1000
0100
0010
0001
0100
1000
0100
0000
,  // measure 28
0020
1000
0100
1000
,  // measure 29
0130
0010
0100
0001
1000
0001
1000
0001
,  // measure 30
0200
0000
0000
0000
,  // measure 31
0000
0000
0000
0000
,  // measure 32
0320
0000
0000
0000
,  // measure 33
2030
0000
0000
0000
,  // measure 34
3002
0000
0000
0000
,  // measure 35
0023
0000
0230
0000
,  // measure 36
2300
0000
0000
0010
,  // measure 37
3002
0000
0200
0303
,  // measure 38
1001
0000
0000
1000
0100
0000
1000
0100
,  // measure 39
0000
0010
0001
0000
0010
0001
0000
1000
,  // measure 40
0001
0000
1000
0001
0000
0100
0010
0000
,  // measure 41
0100
0010
0000
0100
0001
1000
0001
0000
,  // measure 42
1000
2000
0000
3100
0200
0000
0310
0020
,  // measure 43
0000
0031
0002
0000
1003
2000
0000
3010
,  // measure 44
0020
0000
0130
0200
0000
0001
0301
0000
,  // measure 45
2002
0000
0000
3003
,  // measure 46
1000
0000
0100
0000
1000
0100
0010
0001
,  // measure 47
0100
0000
0001
0000
0100
0010
1000
0100
,  // measure 48
0010
0000
0100
0000
0010
0001
0100
0001
,  // measure 49
0100
0000
0010
0000
0100
0001
1000
0100
,  // measure 50
1000
0000
0001
0000
0100
0010
1000
1000
,  // measure 51
0001
0000
1000
0001
0001
0010
0001
0000
,  // measure 52
1000
0000
0000
0001
0000
0000
1000
0000
0000
0010
0000
0000
0100
0000
0010
0000
,  // measure 53
0200
0000
0000
0000
,  // measure 54
0000
0000
0000
0000
,  // measure 55
0000
0000
0000
0000
,  // measure 56
0000
0000
0300
0000
,  // measure 57
0001
0000
0000
1000
0000
0000
0001
0000
1000
0000
0100
0000
0010
0000
0001
0000
,  // measure 58
0100
0000
0000
0001
0000
0000
0100
0000
0001
0000
1000
0000
0100
0000
0010
0000
,  // measure 59
0100
0000
0000
0010
0000
0000
0100
0000
0010
0000
0001
0000
1000
0000
0001
0000
,  // measure 60
0100
0010
0100
0010
1000
0001
1000
0100
,  // measure 61
0010
0000
0000
0010
0000
0000
0010
0000
0001
0000
1000
0000
0001
0000
0000
0000
,  // measure 62
0100
0000
0000
0100
0000
0000
0100
0000
0001
0000
1000
0000
0001
0000
1000
0000
,  // measure 63
0010
0000
0000
1000
0000
0000
0001
0000
1000
0000
0100
0000
0010
0000
0100
0000
,  // measure 64
0010
0010
0001
1000
2002
0000
3003
0000
,  // measure 65
1000
0100
1000
0000
0001
0100
0001
0100
,  // measure 66
0001
1000
0001
0000
1000
0100
0010
0001
,  // measure 67
0100
0010
0100
0000
0010
1000
0001
1000
,  // measure 68
0002
0000
0000
0000
1000
1000
2000
3003
,  // measure 69
0110
0000
1001
0000
0001
0100
0010
0000
,  // measure 70
1000
0100
1000
0000
2002
0000
0000
3003
,  // measure 71
0001
1000
0001
1000
0001
1000
0001
1000
,  // measure 72
0010
1000
0100
0010
0001
0100
0010
1000
,  // measure 73
0200
0000
0000
0000
,  // measure 74
0000
0000
0000
0300
0000
0000
0000
0000
;

//---------------dance-single - Oni-91----------------
#NOTEDATA:;
#CHARTNAME:;
#STEPSTYPE:dance-single;
#DESCRIPTION:Oni-91;
#CHARTSTYLE:;
#DIFFICULTY:Easy;
#METER:4;
#RADARVALUES:0.207546,0.324751,0.087328,0.254045,0.000000,183.000000,172.000000,11.000000,32.000000,0.000000,0.000000,0.000000,0.000000,0.000000,0.207546,0.324751,0.087328,0.254045,0.000000,183.000000,172.000000,11.000000,32.000000,0.000000,0.000000,0.000000,0.000000,0.000000;
#CREDIT:Oni-91;
#DISPLAYBPM:146.000000;
#NOTES:
// measure 0
0200
0000
0000
0000
,  // measure 1
0000
0000
0000
0000
,  // measure 2
0020
0000
0000
0000
,  // measure 3
0000
0000
0000
0000
,  // measure 4
0000
0000
0000
0000
,  // measure 5
0000
0000
0000
0330
,  // measure 6
1001
0100
0020
0030
,  // measure 7
1000
0100
2000
3000
,  // measure 8
0001
0010
0002
0003
,  // measure 9
0100
0010
1000
0100
,  // measure 10
0010
0100
0020
0030
,  // measure 11
0001
1000
0002
0003
,  // measure 12
0100
0001
1001
0110
,  // measure 13
2002
0000
3003
0000
,  // measure 14
0001
0100
0001
0000
,  // measure 15
1000
0100
0010
0001
,  // measure 16
0100
0010
0100
0000
,  // measure 17
0010
1000
0001
0000
,  // measure 18
1000
0001
0010
0000
,  // measure 19
0100
0010
0001
1000
,  // measure 20
2002
0000
0000
3003
,  // measure 21
0220
0000
0000
0330
,  // measure 22
0001
0001
1000
0100
,  // measure 23
0010
0010
0100
0000
,  // measure 24
0010
0001
1000
0001
,  // measure 25
0100
0100
0010
0000
,  // measure 26
1000
0100
1000
0001
,  // measure 27
0100
0100
0010
1000
,  // measure 28
2002
0000
0000
0000
,  // measure 29
0000
0000
0000
3003
,  // measure 30
0020
0000
0000
0000
,  // measure 31
0000
0000
0000
0000
,  // measure 32
0230
0000
0000
0000
,  // measure 33
0302
0000
0000
0000
,  // measure 34
2003
0000
0000
0000
,  // measure 35
0000
0000
0000
0000
,  // measure 36
3002
0000
0000
0000
,  // measure 37
0023
0000
0000
0000
,  // measure 38
0130
0000
0000
0000
,  // measure 39
0001
0000
1000
0000
,  // measure 40
0010
0000
0000
0000
,  // measure 41
0100
0000
0001
0000
,  // measure 42
1000
0000
0100
0000
,  // measure 43
0010
0000
0001
0000
,  // measure 44
1000
0001
1000
0001
,  // measure 45
2002
0000
0000
3003
,  // measure 46
0010
0100
0010
0100
,  // measure 47
0001
0100
0001
0100
,  // measure 48
0001
1000
0001
1000
,  // measure 49
0001
1000
0100
0000
,  // measure 50
0010
0001
1000
0000
,  // measure 51
0010
1000
0001
0000
,  // measure 52
0200
0000
0000
0000
,  // measure 53
0020
0000
0000
0000
,  // measure 54
0000
0000
0000
0000
,  // measure 55
0000
0000
0000
0000
,  // measure 56
0000
0000
0330
0000
,  // measure 57
1001
0001
0100
0001
,  // measure 58
1000
0100
0010
0000
,  // measure 59
0100
0010
0100
0010
,  // measure 60
0001
1000
0001
0000
,  // measure 61
1000
0010
0100
0001
,  // measure 62
0100
0001
1000
0000
,  // measure 63
0001
1000
0100
0010
,  // measure 64
0001
0001
0002
0003
,  // measure 65
1000
0010
2000
3000
,  // measure 66
0001
0100
0020
0030
,  // measure 67
0100
0010
1000
0100
,  // measure 68
0020
0000
0200
0330
,  // measure 69
1001
0001
0100
0010
,  // measure 70
1000
0100
0010
0001
,  // measure 71
1000
1000
0001
0001
,  // measure 72
1000
0010
0100
0001
,  // measure 73
2002
0000
0000
0000
,  // measure 74
0000
0000
0000
3003
0000
0000
0000
0000
;

//---------------dance-single - Oni-91----------------
#NOTEDATA:;
#CHARTNAME:;
#STEPSTYPE:dance-single;
#DESCRIPTION:Oni-91;
#CHARTSTYLE:;
#DIFFICULTY:Beginner;
#METER:1;
#RADARVALUES:0.123620,0.202839,0.119084,0.000000,0.000000,109.000000,94.000000,15.000000,0.000000,0.000000,0.000000,0.000000,0.000000,0.000000,0.123620,0.202839,0.119084,0.000000,0.000000,109.000000,94.000000,15.000000,0.000000,0.000000,0.000000,0.000000,0.000000,0.000000;
#CREDIT:Oni-91;
#DISPLAYBPM:146.000000;
#NOTES:
// measure 0
1001
0000
0000
0000
,  // measure 1
0000
0000
0000
0000
,  // measure 2
0000
0000
0000
0000
,  // measure 3
0000
0000
0000
0000
,  // measure 4
0000
0000
0000
0000
,  // measure 5
0000
0000
0000
0000
,  // measure 6
0001
0000
0000
0000
,  // measure 7
1000
0000
0000
0000
,  // measure 8
0001
0000
0100
0000
,  // measure 9
0010
0000
1000
0000
,  // measure 10
0100
0000
0000
0000
,  // measure 11
0010
0000
0000
0000
,  // measure 12
0110
0000
0000
0000
,  // measure 13
0001
0000
0000
0000
,  // measure 14
1000
0000
0100
0000
,  // measure 15
1000
0000
0000
0000
,  // measure 16
0001
0000
0100
0000
,  // measure 17
0001
0000
0000
0000
,  // measure 18
1000
0000
0001
0000
,  // measure 19
1000
0000
0000
0000
,  // measure 20
0110
0000
0000
0000
,  // measure 21
1001
0000
0000
0000
,  // measure 22
1000
0000
0100
0000
,  // measure 23
0010
0000
0001
0000
,  // measure 24
1000
0000
0001
0000
,  // measure 25
1000
0000
0000
0000
,  // measure 26
0001
0000
0100
0000
,  // measure 27
0010
0000
1000
0000
,  // measure 28
0001
0000
1000
0000
,  // measure 29
0001
0000
0000
0000
,  // measure 30
1001
0000
0000
0000
,  // measure 31
0000
0000
0000
0000
,  // measure 32
0000
0000
0000
0000
,  // measure 33
0000
0000
0000
0000
,  // measure 34
0110
0000
0000
0000
,  // measure 35
0000
0000
0000
0000
,  // measure 36
1001
0000
0000
0000
,  // measure 37
0110
0000
0000
0000
,  // measure 38
1000
0000
0000
0000
,  // measure 39
0100
0000
0000
0000
,  // measure 40
0010
0000
0000
0000
,  // measure 41
0001
0000
0000
0000
,  // measure 42
0100
0000
0000
0000
,  // measure 43
0010
0000
0000
0000
,  // measure 44
0100
0000
0000
0000
,  // measure 45
1001
0000
0000
0000
,  // measure 46
0110
0000
0010
0000
,  // measure 47
0100
0000
0010
0000
,  // measure 48
1000
0000
0001
0000
,  // measure 49
1000
0000
0001
0000
,  // measure 50
1000
0000
0100
0000
,  // measure 51
0010
0000
0001
0000
,  // measure 52
1001
0000
0000
0000
,  // measure 53
1001
0000
0000
0000
,  // measure 54
0000
0000
0000
0000
,  // measure 55
0000
0000
0000
0000
,  // measure 56
0000
0000
0000
0000
,  // measure 57
1000
0000
1000
0000
,  // measure 58
0001
0000
0001
0000
,  // measure 59
0100
0000
0010
0000
,  // measure 60
0100
0000
0001
0000
,  // measure 61
1000
0000
1000
0000
,  // measure 62
0100
0000
0100
0000
,  // measure 63
0010
0000
0001
0000
,  // measure 64
1000
1000
1000
0000
,  // measure 65
1001
0000
0000
0000
,  // measure 66
0110
0000
0000
0000
,  // measure 67
0001
0000
1000
0000
,  // measure 68
0110
0000
0000
0000
,  // measure 69
0001
0000
0100
0000
,  // measure 70
0001
0000
1000
0000
,  // measure 71
0100
0000
0010
0000
,  // measure 72
0001
0000
1000
1000
,  // measure 73
1000
0000
0000
0000
;
