#VERSION:0.83;
#TITLE:I'll Have My Way With You, Frankie;
#SUBTITLE:;
#ARTIST:The Ark;
#TITLETRANSLIT:;
#SUBTITLETRANSLIT:;
#ARTISTTRANSLIT:;
#GENRE:;
#ORIGIN:;
#CREDIT:;
#BANNER:I'll Have My Way With You, Frankie.png;
#BACKGROUND:I'll Have My Way With You, Frankie-bg.png;
#PREVIEWVID:;
#JACKET:;
#CDIMAGE:;
#DISCIMAGE:;
#LYRICSPATH:;
#CDTITLE:;
#MUSIC:I'll Have My Way With You, Frankie.mp3;
#OFFSET:-6.420000;
#SAMPLESTART:24.439999;
#SAMPLELENGTH:11.630000;
#SELECTABLE:YES;
#DISPLAYBPM:170.000000:210.000000;
#BPMS:0.000=172.000,
8.000=167.000,
12.000=168.000,
16.000=170.000,
92.000=166.000,
102.000=172.000,
104.000=175.000,
108.000=180.000,
116.000=186.000,
118.000=191.000,
124.000=190.000,
131.000=220.000,
133.000=210.000,
165.000=213.000,
170.500=192.000,
171.000=172.000,
172.000=214.000,
177.000=210.000,
355.000=220.000,
356.000=210.000,
364.000=209.000,
391.000=220.000,
392.000=210.000,
394.000=200.000;
#STOPS:;
#DELAYS:;
#WARPS:;
#TIMESIGNATURES:0.000=4=4;
#TICKCOUNTS:0.000=4;
#COMBOS:0.000=1;
#SPEEDS:0.000=1.000=0.000=0;
#SCROLLS:0.000=1.000;
#FAKES:;
#LABELS:0.000=Song Start;
#BGCHANGES:;
#KEYSOUNDS:;
#ATTACKS:
;

//---------------dance-single - Oni-91----------------
#NOTEDATA:;
#CHARTNAME:;
#STEPSTYPE:dance-single;
#DESCRIPTION:Oni-91;
#CHARTSTYLE:;
#DIFFICULTY:Hard;
#METER:8;
#RADARVALUES:0.544395,0.598834,0.347808,0.385613,0.000000,504.000000,458.000000,46.000000,51.000000,0.000000,0.000000,0.000000,0.000000,0.000000,0.544395,0.598834,0.347808,0.385613,0.000000,504.000000,458.000000,46.000000,51.000000,0.000000,0.000000,0.000000,0.000000,0.000000;
#CREDIT:Oni-91;
#DISPLAYBPM:170.000000:210.000000;
#NOTES:
// measure 0
1000
0001
0010
0001
1000
0000
0010
0000
,  // measure 1
0100
0000
0010
0100
0001
0000
1000
0000
,  // measure 2
0001
0010
0100
0010
0001
0000
1000
0000
,  // measure 3
1100
0011
0101
1001
,  // measure 4
1000
0000
0001
0010
0001
0000
1000
0000
,  // measure 5
0010
1000
0010
0100
0001
0000
0100
0000
,  // measure 6
0010
1000
0001
0000
0010
0001
1000
0000
,  // measure 7
1010
0101
0011
1100
,  // measure 8
1001
0000
0001
0000
0100
0001
1000
0000
,  // measure 9
0001
1000
0100
0010
0100
0000
0010
0000
,  // measure 10
0100
0000
0010
0001
0100
0000
0010
0000
,  // measure 11
2010
0100
3002
0100
,  // measure 12
0023
0001
0230
1300
,  // measure 13
1001
0000
0001
0001
0001
0000
1000
0000
,  // measure 14
0001
0010
0100
1000
0100
0000
0011
0000
,  // measure 15
0000
0001
0010
0100
1000
0100
1000
0001
,  // measure 16
0200
0000
0000
0010
0010
0020
0330
0000
,  // measure 17
1010
0000
1000
0001
1000
0000
0001
0000
,  // measure 18
1000
0010
0100
0001
0100
0000
1010
0000
,  // measure 19
0000
1000
0010
0100
0001
0100
0010
1000
,  // measure 20
0002
0000
0000
1000
1000
2000
3003
0000
,  // measure 21
0001
0010
0100
0000
0010
0100
1000
0000
,  // measure 22
1000
0001
0100
0000
0010
0100
0001
0000
,  // measure 23
1002
1000
0100
0100
,  // measure 24
0010
0010
1000
1003
,  // measure 25
1001
0000
1001
0000
0001
0100
0001
0000
,  // measure 26
1000
0010
1000
0010
1000
0000
0202
0000
,  // measure 27
0303
0000
0011
0000
1000
0100
1000
0000
,  // measure 28
0001
0010
0100
1000
0001
0000
2002
0000
,  // measure 29
3003
0000
1001
0000
0010
0100
0001
0000
,  // measure 30
0100
0010
1000
0100
0010
0000
0220
0000
,  // measure 31
0330
0000
0011
0000
1000
0100
0010
0000
,  // measure 32
0100
0010
0001
1000
0001
0000
2002
0000
,  // measure 33
0000
0000
0000
0000
,  // measure 34
0000
0000
0000
0000
,  // measure 35
0000
0000
0000
0000
,  // measure 36
0000
0000
3003
0220
,  // measure 37
0000
0000
0000
0000
,  // measure 38
0330
0000
0000
0000
,  // measure 39
1000
0000
0001
0100
0001
0000
1000
0010
,  // measure 40
0000
0100
0001
0000
1000
0001
1000
0001
,  // measure 41
1000
0000
0001
0010
0001
0010
0001
0010
,  // measure 42
0100
1000
0100
1000
0100
1000
0001
0000
,  // measure 43
1000
0000
0010
1000
0000
1000
0001
0000
,  // measure 44
0000
1000
0100
0010
,  // measure 45
0001
0000
0010
0001
0000
1000
0100
0000
,  // measure 46
0000
0010
0100
1000
,  // measure 47
0001
0000
1000
0001
0000
0001
1000
0000
,  // measure 48
0000
0001
0100
0010
,  // measure 49
1000
2000
3010
0020
,  // measure 50
0130
0200
0301
0002
,  // measure 51
1003
0000
0001
0010
0000
0100
1000
0000
,  // measure 52
0001
0010
0001
0000
1000
0010
1000
0000
,  // measure 53
0001
0000
0100
0010
0000
1000
0001
0000
,  // measure 54
1000
0100
1000
0000
0001
0010
0001
0000
,  // measure 55
1000
0000
0001
0100
0000
0010
0100
0000
,  // measure 56
0010
1000
0001
0000
1000
0001
1000
0000
,  // measure 57
0001
0002
0013
0020
,  // measure 58
0130
0200
1300
2000
,  // measure 59
3010
1000
0001
0000
0010
0001
1000
0000
,  // measure 60
0001
1000
0100
0000
0010
0001
0100
0000
,  // measure 61
0020
1000
0100
0001
,  // measure 62
0100
0000
1000
0000
0100
0100
0130
0000
,  // measure 63
0010
1000
0100
0000
0010
0001
0100
0000
,  // measure 64
0001
1000
0001
0000
1000
0100
0010
0000
,  // measure 65
0002
0010
1000
0100
,  // measure 66
1000
0000
0010
0000
1000
1000
1003
0000
,  // measure 67
0001
0100
0001
0100
0010
1000
0010
1000
,  // measure 68
0001
1000
0001
1000
0001
0000
1001
0000
,  // measure 69
2000
0010
0001
0100
,  // measure 70
0001
0000
0010
0000
0001
0001
3001
0000
,  // measure 71
1000
0000
0001
0000
0010
0001
0100
0000
,  // measure 72
0010
0000
1000
0001
0000
1000
0001
0000
,  // measure 73
1000
0000
1001
0000
0000
0101
0000
0000
,  // measure 74
1010
0000
0000
0110
0000
0000
1001
0000
,  // measure 75
0110
0000
0000
0100
0001
0000
2002
0000
,  // measure 76
0003
0010
0001
3100
,  // measure 77
1000
0000
0001
0010
0100
0000
0220
0000
,  // measure 78
0300
0001
0100
0031
,  // measure 79
1001
0000
0000
1010
0000
0000
2002
0000
,  // measure 80
3000
0010
1000
0103
,  // measure 81
0220
0000
0330
0220
0000
0330
0220
0000
,  // measure 82
0300
0100
1000
0130
,  // measure 83
1010
0000
1000
0001
0000
0001
1000
0000
,  // measure 84
0001
0010
0100
0000
0010
0000
0001
0000
,  // measure 85
1000
0000
0010
1000
0000
1000
0001
0000
,  // measure 86
1000
0010
0100
0000
0010
0100
0001
0000
,  // measure 87
1000
0000
0001
0010
0000
0000
0022
0000
,  // measure 88
0030
0010
1000
0103
,  // measure 89
0101
0000
0000
1010
0000
0000
0220
0000
,  // measure 90
0000
0000
0000
0330
,  // measure 91
0010
1000
0010
0000
0100
0001
0100
0000
,  // measure 92
0001
0010
0001
0000
1000
0100
1000
0000
,  // measure 93
0001
1000
0002
0000
0103
0001
0100
0000
,  // measure 94
0010
1000
0100
0000
1000
0100
0010
0000
,  // measure 95
0001
0010
0100
0000
0010
0001
1000
0000
,  // measure 96
0001
0100
0010
0000
0100
0001
1000
0000
,  // measure 97
0001
1000
0002
0000
1003
0001
2000
0000
,  // measure 98
3001
0100
0010
1000
0001
0000
2002
0000
,  // measure 99
3003
0000
0000
0000
;

//---------------dance-single - Oni-91----------------
#NOTEDATA:;
#CHARTNAME:;
#STEPSTYPE:dance-single;
#DESCRIPTION:Oni-91;
#CHARTSTYLE:;
#DIFFICULTY:Medium;
#METER:7;
#RADARVALUES:0.455822,0.561407,0.347808,0.279758,0.000000,422.000000,376.000000,46.000000,37.000000,0.000000,0.000000,0.000000,0.000000,0.000000,0.455822,0.561407,0.347808,0.279758,0.000000,422.000000,376.000000,46.000000,37.000000,0.000000,0.000000,0.000000,0.000000,0.000000;
#CREDIT:Oni-91;
#DISPLAYBPM:170.000000:210.000000;
#NOTES:
// measure 0
1000
0001
0010
0100
,  // measure 1
0010
0000
0001
1000
0001
0000
0000
0000
,  // measure 2
1000
0000
0010
0100
0001
0000
0100
0000
,  // measure 3
0110
0110
1001
1001
,  // measure 4
0001
0000
1000
0100
1000
0000
0001
0000
,  // measure 5
0010
0000
0100
0010
0001
0000
0000
0000
,  // measure 6
1000
0000
0010
1000
0001
0000
1000
0000
,  // measure 7
1010
1010
0101
0101
,  // measure 8
1001
0000
0001
0010
1000
0000
0001
0000
,  // measure 9
0100
0010
0100
0000
0010
0000
0001
0000
,  // measure 10
1000
0000
0001
0100
1000
0000
0001
0000
,  // measure 11
0020
0000
2030
0000
,  // measure 12
3200
0000
0320
0130
,  // measure 13
1001
0000
1000
0001
1000
0000
0001
0000
,  // measure 14
0010
0100
0010
0100
0010
0000
1001
0000
,  // measure 15
0000
1000
0001
1000
0001
0000
0100
0000
,  // measure 16
0010
0000
0000
0100
0010
0100
0000
0000
,  // measure 17
0010
1000
0001
1000
,  // measure 18
0001
0010
0001
0010
0001
0000
1100
0000
,  // measure 19
0000
1000
0100
1000
0100
0000
0010
0000
,  // measure 20
0001
0000
0000
1000
0001
1000
0000
0000
,  // measure 21
0001
0010
0001
0000
1000
0100
1000
0000
,  // measure 22
0001
0100
0001
0000
1000
0010
1000
0000
,  // measure 23
2002
3003
0001
0010
,  // measure 24
0100
0010
0001
1000
,  // measure 25
0010
0100
0010
1000
,  // measure 26
0001
1000
0001
1000
0001
0000
2002
0000
,  // measure 27
3003
1000
0100
0010
,  // measure 28
0100
0010
0100
0010
0100
0000
0220
0000
,  // measure 29
0330
0010
0001
1000
,  // measure 30
0001
1000
0001
1000
0001
0000
2002
0000
,  // measure 31
3003
1000
0010
0100
,  // measure 32
0001
1000
0001
1000
0001
0000
2002
0000
,  // measure 33
0000
0000
0000
0000
,  // measure 34
0000
0000
0000
0000
,  // measure 35
0000
0000
0000
0000
,  // measure 36
0000
0000
3003
0220
,  // measure 37
0000
0000
0000
0000
,  // measure 38
0330
0000
0000
0000
,  // measure 39
1000
0000
0001
1000
0001
0000
1000
0000
,  // measure 40
0001
0010
0100
1000
,  // measure 41
0001
0000
1000
0010
1000
0000
0001
0100
,  // measure 42
0001
0000
0100
0010
0100
0000
0010
0000
,  // measure 43
1001
0000
0000
1000
0000
0000
2002
0000
,  // measure 44
3003
0001
0010
0100
,  // measure 45
0010
0000
0000
0001
0000
0000
2002
0000
,  // measure 46
3003
1000
0010
0100
,  // measure 47
0001
0000
0000
0100
0000
0000
0220
0000
,  // measure 48
0330
0010
1000
0001
,  // measure 49
1000
0100
0001
0100
,  // measure 50
1000
0100
0001
0100
,  // measure 51
0010
0000
0000
0100
0000
0000
2002
0000
,  // measure 52
3003
1000
0010
0100
,  // measure 53
0001
0000
0000
0100
0000
0000
0220
0000
,  // measure 54
0330
0010
0100
0001
,  // measure 55
1000
0000
0000
0100
0000
0000
2200
0000
,  // measure 56
3300
1000
0001
0100
,  // measure 57
2020
0000
0000
0030
,  // measure 58
0002
0000
0000
3003
,  // measure 59
1000
0100
0010
0100
,  // measure 60
0010
0001
0100
0010
,  // measure 61
1000
0000
0000
0000
1000
0001
1000
0000
,  // measure 62
0001
0010
0001
0000
0100
0001
0100
0000
,  // measure 63
1000
0010
0001
0010
,  // measure 64
1000
0100
0001
0100
,  // measure 65
1000
0000
0001
0000
1000
0100
1000
0000
,  // measure 66
0001
0010
0100
0000
0010
0001
1000
0000
,  // measure 67
0001
0100
0010
1000
,  // measure 68
0001
0010
0100
1000
,  // measure 69
0100
0000
0010
0000
0100
1000
0001
0000
,  // measure 70
1000
0001
0100
0000
0010
0100
0010
0000
,  // measure 71
1000
0001
1001
0000
,  // measure 72
1000
0100
1000
0000
0001
0100
0001
0000
,  // measure 73
1000
0000
1100
0000
0000
1100
0000
0000
,  // measure 74
0011
0000
0000
0011
0000
0000
1001
0000
,  // measure 75
1001
0000
0000
0001
0000
0000
0100
0000
,  // measure 76
0001
0100
0010
1000
,  // measure 77
0001
0000
0000
1000
0000
0000
0100
0000
,  // measure 78
0010
0100
1000
0001
,  // measure 79
1000
0000
0000
0001
0000
0000
1000
0000
,  // measure 80
0010
0100
0001
0100
,  // measure 81
0010
0000
0000
0100
0000
0000
0010
0000
,  // measure 82
0100
0001
0010
0100
,  // measure 83
0110
0000
0000
1001
0000
0000
0110
0000
,  // measure 84
0000
1000
0001
0100
,  // measure 85
0101
0000
0000
1010
0000
0000
0101
0000
,  // measure 86
0000
0001
0010
0100
,  // measure 87
0110
0000
0000
0110
0000
0000
0220
0000
,  // measure 88
0000
0000
0000
0330
,  // measure 89
1001
0000
0000
1001
0000
0000
2002
0000
,  // measure 90
0000
0000
0000
3003
,  // measure 91
1000
0001
1000
0001
,  // measure 92
0100
0010
0100
0010
,  // measure 93
1000
0100
0010
0000
0001
0000
0100
0000
,  // measure 94
0010
1000
0001
0000
1000
0000
0001
0000
,  // measure 95
1000
0100
1000
0000
0001
0010
0001
0000
,  // measure 96
1000
0010
1000
0000
0001
0100
0001
0000
,  // measure 97
1000
0001
1000
0000
0010
0100
0010
0000
,  // measure 98
1000
0001
1000
0001
1000
0000
2002
0000
,  // measure 99
3003
0000
0000
0000
;

//---------------dance-single - Oni-91----------------
#NOTEDATA:;
#CHARTNAME:;
#STEPSTYPE:dance-single;
#DESCRIPTION:Oni-91;
#CHARTSTYLE:;
#DIFFICULTY:Easy;
#METER:5;
#RADARVALUES:0.328365,0.374271,0.098293,0.211709,0.000000,304.000000,291.000000,13.000000,28.000000,0.000000,0.000000,0.000000,0.000000,0.000000,0.328365,0.374271,0.098293,0.211709,0.000000,304.000000,291.000000,13.000000,28.000000,0.000000,0.000000,0.000000,0.000000,0.000000;
#CREDIT:Oni-91;
#DISPLAYBPM:170.000000:210.000000;
#NOTES:
// measure 0
1000
0000
0001
0000
,  // measure 1
1000
0010
1000
0000
,  // measure 2
0001
0100
0010
1000
,  // measure 3
0100
0010
0100
0000
,  // measure 4
0010
0000
0001
0000
,  // measure 5
1000
0100
1000
0000
,  // measure 6
0001
0010
1000
0010
,  // measure 7
0001
1000
0001
0000
,  // measure 8
1000
1000
0001
0001
,  // measure 9
1000
0010
0100
0000
,  // measure 10
0010
0010
0100
0100
,  // measure 11
0001
1000
0001
1000
,  // measure 12
0001
1000
0002
0003
,  // measure 13
1001
0000
0001
1000
,  // measure 14
0010
0100
0010
0110
,  // measure 15
0000
0100
0001
1000
,  // measure 16
0100
0010
0100
0000
,  // measure 17
0010
0001
1000
0100
,  // measure 18
0010
0100
1000
1001
,  // measure 19
0000
0001
0100
0010
,  // measure 20
1000
0001
1000
0000
,  // measure 21
0001
0010
0100
1000
,  // measure 22
0100
0010
0001
1000
,  // measure 23
0002
0000
1000
0000
,  // measure 24
0100
0000
1000
1000
,  // measure 25
2000
3003
0001
1000
,  // measure 26
0100
0010
0100
0020
,  // measure 27
0030
0100
0010
0100
,  // measure 28
0010
0001
1000
0002
,  // measure 29
0003
1000
0010
0100
,  // measure 30
0001
1000
0010
2000
,  // measure 31
3000
0010
1000
0001
,  // measure 32
1000
0100
0010
0220
,  // measure 33
0000
0000
0000
0000
,  // measure 34
0000
0000
0000
0000
,  // measure 35
0000
0000
0000
0000
,  // measure 36
0000
0000
0330
2002
,  // measure 37
0000
0000
0000
0000
,  // measure 38
3003
0000
0000
0000
,  // measure 39
0001
0000
1000
0000
,  // measure 40
0001
1000
0001
0000
,  // measure 41
1000
0100
0010
0001
,  // measure 42
0100
0010
1000
0001
,  // measure 43
2002
0000
0000
0000
,  // measure 44
3003
0001
0100
0010
,  // measure 45
0220
0000
0000
0000
,  // measure 46
0330
0010
1000
0001
,  // measure 47
2002
0000
0000
0000
,  // measure 48
3003
1000
0100
0010
,  // measure 49
0001
1000
0001
1000
,  // measure 50
0010
0100
0010
0100
,  // measure 51
0220
0000
0000
0000
,  // measure 52
0330
0010
1000
0001
,  // measure 53
2002
0000
0000
0000
,  // measure 54
3003
1000
0100
0010
,  // measure 55
0220
0000
0000
0000
,  // measure 56
0330
0100
0010
0001
,  // measure 57
1000
0010
0100
0001
,  // measure 58
0100
0010
1000
0001
,  // measure 59
2000
0000
0010
0000
,  // measure 60
0001
0000
0100
0100
,  // measure 61
3100
1000
0100
0010
,  // measure 62
0100
0010
0001
1000
,  // measure 63
0002
0000
0010
0000
,  // measure 64
1000
0000
0100
0100
,  // measure 65
0103
0001
0100
1000
,  // measure 66
0100
0001
1000
0100
,  // measure 67
0010
0001
0010
0100
,  // measure 68
0010
0001
0010
0100
,  // measure 69
0010
0001
1000
0001
,  // measure 70
0100
0010
1000
0001
,  // measure 71
1000
0000
0010
0000
,  // measure 72
1000
0010
0100
0001
,  // measure 73
0100
0000
0010
0000
,  // measure 74
1000
0001
1000
0000
,  // measure 75
1002
0000
1000
0000
,  // measure 76
0100
0000
0103
0001
,  // measure 77
1000
0000
0100
0000
,  // measure 78
0010
0000
0100
0010
,  // measure 79
0200
0000
0010
0000
,  // measure 80
0010
0000
0310
0100
,  // measure 81
1000
0000
0001
0000
,  // measure 82
1000
0001
0100
0000
,  // measure 83
0010
0000
1000
0000
,  // measure 84
0001
1000
0100
0010
,  // measure 85
0001
0000
0010
0000
,  // measure 86
0001
0010
0100
0001
,  // measure 87
0100
0000
0010
0000
,  // measure 88
0001
1000
0001
0100
,  // measure 89
0010
0000
1000
0000
,  // measure 90
0010
0000
1000
0000
,  // measure 91
0001
0010
0001
0010
,  // measure 92
0100
1000
0100
1000
,  // measure 93
0010
1000
0010
1000
,  // measure 94
0001
0100
0001
0100
,  // measure 95
0010
0100
0010
0100
,  // measure 96
0001
1000
0001
1000
,  // measure 97
0001
0010
0100
1000
,  // measure 98
0001
1000
0001
2002
,  // measure 99
3003
0000
0000
0000
;

//---------------dance-single - Oni-91----------------
#NOTEDATA:;
#CHARTNAME:;
#STEPSTYPE:dance-single;
#DESCRIPTION:Oni-91;
#CHARTSTYLE:;
#DIFFICULTY:Beginner;
#METER:2;
#RADARVALUES:0.174984,0.223996,0.052927,0.000000,0.000000,162.000000,155.000000,7.000000,0.000000,0.000000,0.000000,0.000000,0.000000,0.000000,0.174984,0.223996,0.052927,0.000000,0.000000,162.000000,155.000000,7.000000,0.000000,0.000000,0.000000,0.000000,0.000000,0.000000;
#CREDIT:Oni-91;
#DISPLAYBPM:170.000000:210.000000;
#NOTES:
// measure 0
1000
0000
0001
0000
,  // measure 1
1000
0000
0000
0000
,  // measure 2
0010
0000
0100
0000
,  // measure 3
0010
0000
0000
0000
,  // measure 4
0100
0000
0001
0000
,  // measure 5
0100
0000
0010
0000
,  // measure 6
1000
0000
0001
0000
,  // measure 7
1000
0000
0000
0000
,  // measure 8
0001
0000
1000
0000
,  // measure 9
0001
0000
0001
0000
,  // measure 10
1000
0000
0001
0000
,  // measure 11
1000
0000
0000
0000
,  // measure 12
0001
0000
0000
0000
,  // measure 13
1001
0000
0000
0000
,  // measure 14
1000
0000
0001
0001
,  // measure 15
0000
0000
1000
0000
,  // measure 16
0100
0000
0010
0000
,  // measure 17
0100
0000
0000
0000
,  // measure 18
0010
0000
0001
0001
,  // measure 19
0000
0000
1000
0000
,  // measure 20
0001
0000
0100
0000
,  // measure 21
0010
0000
0010
0000
,  // measure 22
0100
0000
0100
0000
,  // measure 23
1001
0000
0000
0000
,  // measure 24
1000
0000
0001
0000
,  // measure 25
1000
0000
1000
0000
,  // measure 26
0100
0000
0100
0000
,  // measure 27
0010
0000
0010
0000
,  // measure 28
0001
0000
0001
0000
,  // measure 29
1000
0000
0010
0000
,  // measure 30
0100
0000
0001
0000
,  // measure 31
1000
0000
0001
0000
,  // measure 32
1000
0000
0001
1001
,  // measure 33
0000
0000
0000
0000
,  // measure 34
0000
0000
0000
0000
,  // measure 35
0000
0000
0000
0000
,  // measure 36
0000
0000
0000
0110
,  // measure 37
0000
0000
0000
0000
,  // measure 38
0000
0000
0000
0000
,  // measure 39
0000
0000
0000
0000
,  // measure 40
0000
0000
0000
0000
,  // measure 41
0000
0000
0000
0000
,  // measure 42
0000
0000
0000
0000
,  // measure 43
1001
0000
0000
0000
,  // measure 44
1000
0000
0001
0000
,  // measure 45
1000
0000
0000
0000
,  // measure 46
0001
0000
0100
0000
,  // measure 47
0001
0000
0000
0000
,  // measure 48
1000
0000
0010
0000
,  // measure 49
1000
0000
0001
0000
,  // measure 50
1000
0000
0100
0000
,  // measure 51
0010
0000
0000
0000
,  // measure 52
0100
0000
0010
0000
,  // measure 53
0100
0000
0000
0000
,  // measure 54
0010
0000
0001
0000
,  // measure 55
1000
0000
0000
0000
,  // measure 56
0001
0000
1000
0000
,  // measure 57
0001
0000
1000
0000
,  // measure 58
0010
0000
0100
0000
,  // measure 59
0010
0000
0010
0000
,  // measure 60
0100
0000
0100
0000
,  // measure 61
0010
0000
0000
0000
,  // measure 62
1000
0000
0001
0000
,  // measure 63
1000
0000
1000
0000
,  // measure 64
0001
0000
0001
0000
,  // measure 65
1000
0000
0000
0000
,  // measure 66
0001
0000
0010
0000
,  // measure 67
0001
0000
0001
0000
,  // measure 68
0010
0000
0010
0000
,  // measure 69
0100
0000
0000
0000
,  // measure 70
1000
0000
0100
0000
,  // measure 71
1000
0000
0000
0000
,  // measure 72
0001
0000
1000
0000
,  // measure 73
0010
0000
0100
0000
,  // measure 74
0110
0000
0000
0000
,  // measure 75
1001
0000
0000
0000
,  // measure 76
0000
0000
0000
0000
,  // measure 77
0001
0000
1000
0000
,  // measure 78
0100
0000
0000
0000
,  // measure 79
0010
0000
0100
0000
,  // measure 80
1000
0000
0000
0000
,  // measure 81
0001
0000
1000
0000
,  // measure 82
0001
0000
0000
0000
,  // measure 83
1000
0000
0010
0000
,  // measure 84
0100
0000
0010
0000
,  // measure 85
0100
0000
0001
0000
,  // measure 86
1000
0000
0000
0000
,  // measure 87
0001
0000
0010
0000
,  // measure 88
0001
0000
1000
0000
,  // measure 89
0001
0000
1000
0000
,  // measure 90
0010
0000
0000
0000
,  // measure 91
1000
0000
1000
0000
,  // measure 92
0100
0000
0100
0000
,  // measure 93
0010
0000
0010
0000
,  // measure 94
0001
0000
0001
0000
,  // measure 95
1000
0000
0001
0000
,  // measure 96
1000
0000
0001
0000
,  // measure 97
0100
0000
0010
0000
,  // measure 98
0100
0100
0100
0100
;

//---------------dance-single - Oni-91----------------
#NOTEDATA:;
#CHARTNAME:;
#STEPSTYPE:dance-single;
#DESCRIPTION:Oni-91;
#CHARTSTYLE:;
#DIFFICULTY:Challenge;
#METER:9;
#RADARVALUES:0.676173,0.673688,0.325125,0.257075,0.000000,626.000000,583.000000,43.000000,34.000000,0.000000,0.000000,0.000000,0.000000,0.000000,0.676173,0.673688,0.325125,0.257075,0.000000,626.000000,583.000000,43.000000,34.000000,0.000000,0.000000,0.000000,0.000000,0.000000;
#CREDIT:Oni-91;
#DISPLAYBPM:170.000000:210.000000;
#NOTES:
// measure 0
1000
0100
1000
0001
0100
0000
1000
0000
,  // measure 1
0100
0010
1000
0100
0010
0000
0100
0000
,  // measure 2
0010
0001
1000
0100
0001
0100
1000
0000
,  // measure 3
1001
0101
1010
1001
,  // measure 4
1000
0100
0001
0100
0010
0000
0001
0100
,  // measure 5
1000
0100
0010
1000
0100
0000
0010
0000
,  // measure 6
0100
0010
0100
0010
0001
1000
0001
1000
,  // measure 7
1010
0101
0011
1100
,  // measure 8
1001
0000
1000
0010
0100
0010
1000
0100
,  // measure 9
0010
0010
0100
0100
0010
0000
0001
1000
,  // measure 10
0010
0100
0001
0010
0100
0001
0100
0010
,  // measure 11
0002
0010
2003
0010
,  // measure 12
3002
0000
0100
0000
2003
0000
3001
1000
,  // measure 13
1001
0000
1000
0010
0100
0010
1000
0001
,  // measure 14
1000
1000
0100
0001
0100
0000
2200
0000
,  // measure 15
3300
1000
1000
0100
0001
0100
0010
0001
,  // measure 16
2000
0000
0000
0010
0010
0020
3030
0000
,  // measure 17
1000
0010
0100
0001
0010
0100
0010
0001
,  // measure 18
0010
0010
0001
0100
0010
0000
0220
0000
,  // measure 19
0330
0010
0010
0100
0001
1000
0100
0010
,  // measure 20
0200
0000
0000
1000
1000
2000
3300
0000
,  // measure 21
1000
0100
1000
0100
0010
0001
0010
0001
,  // measure 22
1000
0010
1000
0010
0100
0001
0100
0001
,  // measure 23
1000
0000
0001
0100
1000
0100
0000
0100
,  // measure 24
0010
0000
1000
0100
0001
0100
0000
0100
,  // measure 25
0010
0001
0010
0100
1000
0100
0010
0001
,  // measure 26
1000
0001
1000
0001
0100
0000
0220
0000
,  // measure 27
0330
0010
1000
0010
0100
0001
0100
0010
,  // measure 28
1000
0100
0010
0100
1000
0000
2002
0000
,  // measure 29
3003
1000
0010
1000
0001
0010
0001
1000
,  // measure 30
0100
0001
0100
1000
0001
0000
2002
0000
,  // measure 31
3003
0001
0010
0001
0010
0100
0010
0001
,  // measure 32
1000
0010
0100
0010
0110
0000
2002
0000
,  // measure 33
3003
0000
1000
0000
1000
0100
0000
0100
,  // measure 34
0001
0000
0001
0010
0000
0010
1000
0000
,  // measure 35
1000
0001
0000
0001
1000
0000
1000
0001
,  // measure 36
0000
1000
0001
1000
0001
1000
2002
0000
,  // measure 37
0000
0000
0000
0000
,  // measure 38
3003
0000
0000
0000
,  // measure 39
1000
0000
0001
0010
0100
0000
0010
0001
,  // measure 40
0000
1000
0010
0100
0001
0100
0010
1000
,  // measure 41
0100
0000
0010
0100
0010
0100
1000
0100
,  // measure 42
1000
0001
0100
0010
1000
0001
1001
0000
,  // measure 43
0110
0000
0010
1000
0000
0010
1000
0000
,  // measure 44
0001
0010
0001
0000
0100
0000
0010
0000
,  // measure 45
1000
0000
0001
0100
0000
0010
0100
0000
,  // measure 46
0010
1000
0100
0000
0010
0001
1000
0000
,  // measure 47
0001
0000
1000
0100
0000
0010
0001
0000
,  // measure 48
1000
0010
0100
0000
0010
0100
0001
0000
,  // measure 49
1000
0100
0001
0010
,  // measure 50
1000
0100
0010
0001
,  // measure 51
1000
0000
0010
0100
0000
0010
0100
0000
,  // measure 52
0001
1000
0100
0000
0010
0001
1000
0000
,  // measure 53
0001
0000
1000
0100
0000
1000
0001
0000
,  // measure 54
1000
0010
0100
0000
0010
0100
0001
0000
,  // measure 55
0001
0000
1000
0001
0000
0001
1000
0000
,  // measure 56
0001
0010
0100
0000
0010
0000
0001
0000
,  // measure 57
1000
0010
0001
0100
,  // measure 58
1000
0010
0001
1000
,  // measure 59
0001
0100
0001
0100
0010
1000
0010
1000
,  // measure 60
0100
1000
0100
1000
0001
0010
0001
0010
,  // measure 61
0100
0000
0010
0000
0001
0010
0001
0000
,  // measure 62
1000
0010
1000
0002
0000
1000
1003
0000
,  // measure 63
0001
0010
0100
0010
0001
0010
0100
0010
,  // measure 64
0100
1000
0100
0001
0100
1000
0100
0010
,  // measure 65
0001
0000
1000
0010
0000
0010
1000
0000
,  // measure 66
0001
0100
0010
2000
0000
0010
3010
0000
,  // measure 67
1000
0100
0010
0001
1000
0010
0100
0001
,  // measure 68
1000
0100
0001
0100
1000
0010
0001
0010
,  // measure 69
0100
0000
0010
1000
0000
0001
0100
0000
,  // measure 70
0001
0010
0100
0010
0001
0000
1001
0000
,  // measure 71
0110
0000
0010
0000
0100
0000
0010
1000
,  // measure 72
0000
1000
0100
0010
0001
0100
0010
1000
,  // measure 73
0001
1000
1100
0000
0100
0110
0000
0010
,  // measure 74
0011
0000
0001
1001
0000
1000
1010
0000
,  // measure 75
1000
0100
0010
0001
0100
0010
1000
0001
,  // measure 76
1000
0100
1000
0000
0011
0000
0101
0000
,  // measure 77
0001
1000
0100
0010
0100
1000
0001
0000
,  // measure 78
1000
0010
0100
0001
0100
0000
0110
0000
,  // measure 79
0010
0000
1000
0001
0000
0001
1000
0000
,  // measure 80
0001
0010
0100
0010
0001
0000
1000
0000
,  // measure 81
0001
0000
0100
0010
0000
0010
1000
0010
,  // measure 82
1000
0100
0010
0100
1000
0001
1000
0000
,  // measure 83
0011
0000
0000
1001
0000
0000
1100
0000
,  // measure 84
0100
0010
0001
0100
1000
0100
0010
1000
,  // measure 85
1001
0000
0000
1010
0000
0000
1001
0000
,  // measure 86
0000
0001
0010
0100
0010
0001
1000
0010
,  // measure 87
0110
0000
0000
1010
0000
0000
2002
0000
,  // measure 88
3000
0010
1000
0103
,  // measure 89
0220
0000
0330
2002
0000
3003
0220
0000
,  // measure 90
0000
0000
0000
0330
,  // measure 91
0010
1000
0010
1000
0001
1000
0001
1000
,  // measure 92
0001
0010
0001
0010
0100
0010
0100
0010
,  // measure 93
0001
0010
0100
0010
0001
0010
0001
0010
,  // measure 94
0100
1000
0100
0010
0100
1000
0010
0100
,  // measure 95
0001
0100
1000
0100
0010
1000
0100
0001
,  // measure 96
0010
0100
0010
0100
0001
0100
1000
0001
,  // measure 97
1000
0100
0010
0001
1000
0010
0100
0001
,  // measure 98
1000
0001
1000
0001
1000
0000
2002
0000
,  // measure 99
3003
0000
0000
0000
;
