#VERSION:0.83;
#TITLE:I know You know;
#SUBTITLE:;
#ARTIST:Suke+Suke feat. Ribbon;
#TITLETRANSLIT:;
#SUBTITLETRANSLIT:;
#ARTISTTRANSLIT:;
#GENRE:;
#ORIGIN:;
#CREDIT:;
#BANNER:I know You know.png;
#BACKGROUND:I know You know-bg.png;
#PREVIEWVID:;
#JACKET:;
#CDIMAGE:;
#DISCIMAGE:;
#LYRICSPATH:;
#CDTITLE:;
#MUSIC:I know You know.mp3;
#OFFSET:-1.790000;
#SAMPLESTART:43.460873;
#SAMPLELENGTH:14.117645;
#SELECTABLE:YES;
#BPMS:0.000=136.000;
#STOPS:;
#DELAYS:;
#WARPS:;
#TIMESIGNATURES:0.000=4=4;
#TICKCOUNTS:0.000=4;
#COMBOS:0.000=1;
#SPEEDS:0.000=1.000=0.000=0;
#SCROLLS:0.000=1.000;
#FAKES:;
#LABELS:0.000=Song Start;
#BGCHANGES:-3.750=I know You know.avi=1.000=1=0=0=StretchNoLoop==CrossFade==,
261.000=I know You know-bg.png=1.000=1=0=1===CrossFade==,
99999=-nosongbg-=1.000=0=0=0 // don't automatically add -songbackground-
;
#KEYSOUNDS:;
#ATTACKS:
;

//---------------dance-single - Oni-91----------------
#NOTEDATA:;
#CHARTNAME:;
#STEPSTYPE:dance-single;
#DESCRIPTION:Oni-91;
#CHARTSTYLE:;
#DIFFICULTY:Hard;
#METER:7;
#RADARVALUES:0.469822,0.466206,0.228268,0.262086,0.054953,389.000000,362.000000,27.000000,31.000000,0.000000,0.000000,0.000000,0.000000,0.000000,0.469822,0.466206,0.228268,0.262086,0.054953,389.000000,362.000000,27.000000,31.000000,0.000000,0.000000,0.000000,0.000000,0.000000;
#CREDIT:Oni-91;
#NOTES:
// measure 0
1000
0000
0001
0100
0001
0000
1000
0000
,  // measure 1
0001
0010
0001
0000
1000
0000
0100
1000
,  // measure 2
0010
0000
0100
0010
0100
0000
0001
0010
,  // measure 3
0002
1000
0000
0010
0000
1000
0000
0100
,  // measure 4
0103
0000
0010
1000
0010
0000
0100
0010
,  // measure 5
1000
0000
0100
0000
0010
0000
0000
0000
0001
0000
0000
1000
0000
0000
0001
0000
,  // measure 6
0100
0010
0010
0000
1000
0100
0010
0002
,  // measure 7
0000
0103
0001
1000
2002
0000
3003
0000
,  // measure 8
0001
0010
0001
0010
0100
0010
0100
0010
,  // measure 9
0001
1000
0001
1000
0010
0200
0000
0310
,  // measure 10
1000
0010
1000
0001
0100
0000
0001
0020
,  // measure 11
0100
0000
0001
0000
1000
0000
0031
1000
,  // measure 12
0010
0100
0010
0100
0001
0100
0001
0100
,  // measure 13
1000
0100
0010
0100
0001
2000
0000
3001
,  // measure 14
0100
0000
0010
0200
0000
1000
0000
0010
,  // measure 15
0000
0001
0001
0001
0301
0000
1001
0000
,  // measure 16
0110
0000
1010
0000
0101
0000
0010
0001
,  // measure 17
0000
1000
0001
0100
0000
0010
0010
1000
,  // measure 18
1001
0000
0011
0000
1100
0000
0100
0010
,  // measure 19
0000
0000
0001
0000
1000
0000
0001
1000
0002
0000
0100
0000
0103
0000
0000
0000
,  // measure 20
0001
0010
0001
1000
0010
0200
0000
0010
,  // measure 21
0000
0301
0010
0100
0010
0000
0001
1000
,  // measure 22
1001
0000
0001
0101
0000
0010
0000
2002
,  // measure 23
0000
0000
3003
0110
,  // measure 24
1001
0000
0001
0010
0001
0100
1000
0200
,  // measure 25
0000
0010
0000
0301
0000
1000
0001
1000
,  // measure 26
0000
0001
1000
0010
1000
0100
0001
0200
,  // measure 27
0000
0010
0000
1300
0000
1000
0010
0001
,  // measure 28
0000
0010
0001
0100
0000
0001
0100
1000
,  // measure 29
0000
0100
1000
0010
0000
0011
0000
1000
,  // measure 30
0010
0100
0100
0010
1000
0100
0010
0002
,  // measure 31
0000
0010
0010
0000
1000
0000
0103
0000
,  // measure 32
1010
0000
0001
0000
0100
0010
1000
0200
,  // measure 33
0000
0001
0000
1300
0000
1000
0001
0100
,  // measure 34
0010
0000
1000
0000
0001
0010
0100
0020
,  // measure 35
0000
1000
0000
0031
0000
0001
0100
0010
,  // measure 36
2001
0000
0000
0001
0000
0000
0001
0000
0000
0000
0010
0000
3010
0000
0000
0000
,  // measure 37
0120
0000
0000
0100
0000
0000
0100
0000
0000
0000
1000
0000
1030
0000
0000
0000
,  // measure 38
1001
0000
0010
0001
2000
0000
0001
0002
,  // measure 39
0000
0000
0000
3003
,  // measure 40
0101
0000
0000
0000
0010
0000
1000
0010
0000
0010
0000
0000
1000
0000
0001
0010
,  // measure 41
0000
0010
0000
0000
0001
0000
1000
0000
0100
0000
0000
0000
0011
0000
0000
0000
,  // measure 42
2001
0000
0010
0000
0100
0000
0001
0001
,  // measure 43
3001
0000
1000
0010
0100
0001
1000
0100
,  // measure 44
0010
0000
0000
0100
0000
0000
0010
0000
0001
0000
1000
0000
0001
0000
0100
0000
,  // measure 45
0010
0000
0000
0000
0000
0000
0100
0000
0000
0000
0000
0000
0001
0000
1000
0000
0001
0000
1000
0000
0000
0100
0000
0000
,  // measure 46
1000
0000
0001
0000
0100
0010
1000
1002
,  // measure 47
0000
0000
0000
0100
0103
0000
1001
0000
,  // measure 48
0001
0010
0100
0000
0010
0001
1000
0020
,  // measure 49
0000
0100
0000
1030
0000
1000
0100
0010
,  // measure 50
0000
0100
0010
0001
1000
0001
0010
0200
,  // measure 51
0000
0001
0000
0310
0000
0010
0001
1000
,  // measure 52
0001
0000
0000
0001
0000
0000
0002
0000
0000
0000
0100
0000
0103
0000
0000
0000
,  // measure 53
1000
0000
0000
1000
0000
0000
2000
0000
0000
0000
0100
0000
3100
0000
1000
0000
,  // measure 54
2002
0000
0000
0000
,  // measure 55
3003
0000
0000
0000
,  // measure 56
1001
0000
0001
0100
0010
0000
1000
0000
,  // measure 57
0010
1000
0100
0000
0010
0001
0100
0010
,  // measure 58
0100
0000
0010
1000
0001
0000
0010
0001
,  // measure 59
0100
0001
0000
1100
0000
0010
0010
0001
,  // measure 60
1000
0100
1000
0010
0100
0000
0010
0100
,  // measure 61
0001
0010
0100
0000
0010
0001
0001
1000
,  // measure 62
0010
0100
0100
0000
0010
1000
0001
0010
,  // measure 63
0000
0001
1000
0010
0100
0010
1000
0000
,  // measure 64
2002
0000
3000
0000
0000
0100
0000
1003
;

//---------------dance-single - Oni-91----------------
#NOTEDATA:;
#CHARTNAME:;
#STEPSTYPE:dance-single;
#DESCRIPTION:Oni-91;
#CHARTSTYLE:;
#DIFFICULTY:Medium;
#METER:5;
#RADARVALUES:0.339383,0.356510,0.126816,0.219814,0.000000,281.000000,266.000000,15.000000,26.000000,0.000000,0.000000,0.000000,0.000000,0.000000,0.339383,0.356510,0.126816,0.219814,0.000000,281.000000,266.000000,15.000000,26.000000,0.000000,0.000000,0.000000,0.000000,0.000000;
#CREDIT:Oni-91;
#NOTES:
1000
0000
0001
1000
0001
0000
0000
0000
,
0100
0010
0100
0000
0001
0000
1000
0000
,
0100
0000
0010
0100
0010
0000
0000
0000
,
0001
1000
0000
0001
0000
1000
0000
1001
,
0000
0000
0001
0100
0001
0000
1000
0000
,
0100
1000
0100
0000
1000
0000
0001
0010
,
0200
0000
0010
0000
1000
0000
0010
0020
,
0000
0030
0010
0310
,
0001
1000
0001
0000
0100
0010
0100
0000
,
0001
1000
0001
0000
1000
0000
0100
0000
,
0010
0001
0010
0000
0001
0000
1000
0200
,
0000
1000
0010
1300
,
0001
0100
0001
0000
1000
0010
1000
0000
,
0001
1000
0001
0000
1000
0001
0100
0000
,
0001
0000
0100
0010
0000
1001
0000
0220
,
0000
0000
0000
0330
,
1000
0000
1000
0000
1000
0000
1000
1000
,
0000
0001
0010
0000
0100
0000
0010
0000
,
0001
0000
0001
0000
0001
0000
0001
0001
,
0000
0100
0010
2000
0000
0001
3001
0000
,
1000
0000
0001
0100
0001
0000
1000
0000
,
0100
0000
0010
0001
0000
0010
0001
0000
,
1000
0000
0001
1000
0000
0110
0000
2002
,
0000
0000
3003
0110
,
1001
0001
0100
0010
,
1000
0000
0100
0000
0010
0000
0001
1000
,
0001
1000
0010
0100
,
0001
0000
1000
0000
0100
0000
1000
0100
,
0000
0010
0001
0010
0000
0001
0100
0001
,
0000
1000
0010
1000
0000
0001
0000
1001
,
0000
1000
0100
0000
1000
0000
0001
0200
,
0000
0010
0010
0000
0001
0000
0301
0000
,
1000
0100
0010
0001
,
0100
0000
0010
0000
1000
0000
0001
0010
,
0001
1000
0100
0010
,
0100
0000
1000
0000
0001
0000
0100
0001
,
0200
0000
0000
0300
,
0020
0000
0000
0030
,
2002
0000
0000
0000
3003
0000
0000
0220
,
0000
0000
0000
0330
,
1000
0100
1000
0001
,
0100
0000
0001
0000
1000
0000
0001
1000
,
0001
1000
0100
0010
,
0001
0000
0100
0000
0010
0000
0100
0010
,
1000
0001
0100
0001
,
0010
0000
0100
0000
0010
0000
0001
0010
,
0100
0000
0010
0000
0001
0000
2000
0002
,
0000
0000
3003
1001
,
1000
0001
0100
0010
,
0100
0000
0001
0000
1000
0000
0001
1000
,
0001
1000
0100
0010
,
0001
0000
0100
0000
0010
0000
0100
0010
,
0200
0000
0300
0000
,
0220
0000
0330
0000
,
2002
0000
0000
0000
3003
0000
0000
0220
,
0000
0000
0000
0330
,
0010
0000
1000
0010
1000
0000
0001
1000
,
0001
1000
0001
0000
0100
0000
0001
0000
,
0100
0000
0010
0100
0010
0000
1000
0100
,
1000
0100
1000
0000
0100
0000
0010
0000
,
0001
0000
0010
0001
0010
0000
0001
1000
,
0001
1000
0100
0000
0010
0000
0001
0000
,
1000
0000
0010
0000
0100
0000
0001
1000
,
0100
0000
0010
0000
0001
1000
0001
0000
,
2002
0000
0000
0000
0000
0003
0000
3000
;

//---------------dance-single - Oni-91----------------
#NOTEDATA:;
#CHARTNAME:;
#STEPSTYPE:dance-single;
#DESCRIPTION:Oni-91;
#CHARTSTYLE:;
#DIFFICULTY:Easy;
#METER:3;
#RADARVALUES:0.219814,0.270540,0.076089,0.169087,0.000000,182.000000,173.000000,9.000000,20.000000,0.000000,0.000000,0.000000,0.000000,0.000000,0.219814,0.270540,0.076089,0.169087,0.000000,182.000000,173.000000,9.000000,20.000000,0.000000,0.000000,0.000000,0.000000,0.000000;
#CREDIT:Oni-91;
#NOTES:
1000
0000
0100
0000
,
1000
0000
0001
0000
,
0100
0000
0010
0000
,
1000
0000
0100
0100
,
0100
0000
1000
0000
,
0001
0000
0100
0100
,
0100
0000
0000
0000
0010
0000
0000
2002
,
0000
0000
0000
3003
,
1000
0100
1000
0100
,
0010
0001
1000
0000
,
0001
0100
0001
1000
,
0001
0000
0100
0000
,
0010
1000
0001
1000
,
0100
0010
0001
0000
,
1000
0000
0001
0000
1000
0000
0000
2002
,
0000
0000
0000
3003
,
1000
1000
0100
1000
,
0001
0100
0010
0000
,
0100
0100
0010
1000
,
0100
0010
0001
0000
,
1000
0001
1000
0010
,
0100
0001
0010
0100
,
0220
0000
0000
0000
0000
0000
0000
0330
,
0000
0000
0000
0000
,
0001
1000
0001
1000
,
0001
0100
0010
0000
,
0100
0001
1000
0100
,
0010
0001
0010
0001
,
1000
1000
0001
0001
,
0100
0100
0010
0100
,
0002
0000
1000
1000
,
2000
0000
0000
3003
,
1000
0100
1000
0001
,
0100
0100
0100
0000
,
0010
0100
0001
0010
,
0100
0100
0100
0010
,
2002
0000
3003
0000
,
0220
0000
0330
0000
,
2002
0000
0000
0000
,
3003
0000
0000
0000
,
0001
0000
0100
0000
,
0001
0000
1000
0100
,
1000
0000
0001
0000
,
0010
0100
0010
0001
,
1000
0000
0001
0000
,
1000
0000
0001
0100
,
0001
0000
1000
0000
0001
0000
0000
2002
,
0000
0000
3003
0000
,
0001
1000
0001
0100
,
0010
0100
0001
0000
,
1000
0100
0010
0001
,
0100
0010
1000
0001
,
0200
0000
0300
0000
,
0020
0000
0030
0000
,
2002
0000
0000
0000
0000
0000
0000
3003
,
0000
0000
0000
0000
,
1000
0100
1000
0000
,
0001
0000
1000
0000
,
0001
0100
0001
0000
,
1000
0100
0010
0001
,
0100
0010
0100
0000
,
0001
0000
1000
0000
,
0001
1000
0001
1000
,
0100
0010
0001
1000
,
1001
0000
0000
0000
;

//---------------dance-single - Oni-91----------------
#NOTEDATA:;
#CHARTNAME:;
#STEPSTYPE:dance-single;
#DESCRIPTION:Oni-91;
#CHARTSTYLE:;
#DIFFICULTY:Beginner;
#METER:1;
#RADARVALUES:0.150971,0.162324,0.050726,0.000000,0.000000,125.000000,119.000000,6.000000,0.000000,0.000000,0.000000,0.000000,0.000000,0.000000,0.150971,0.162324,0.050726,0.000000,0.000000,125.000000,119.000000,6.000000,0.000000,0.000000,0.000000,0.000000,0.000000,0.000000;
#CREDIT:Oni-91;
#NOTES:
1000
0000
0001
0000
,
0100
0000
0000
0000
,
0001
0000
1000
0000
,
0001
0000
0100
0100
,
0100
0000
0010
0000
,
1000
0000
0000
0000
,
0001
0000
0010
0010
,
0010
0000
0000
0000
,
1000
0000
0100
0000
,
1000
0000
0001
0000
,
0100
0000
0001
0000
,
1000
0000
0000
0000
,
0001
0000
0010
0000
,
0100
0000
0010
0000
,
0001
0000
1000
0000
,
0001
0000
0000
0000
,
1000
1000
1000
0000
,
0001
0000
0000
0000
,
0010
0010
0010
0000
,
0100
0000
0000
0000
,
0001
0000
0100
0000
,
0001
0000
1000
0000
,
1001
0000
0000
0000
,
0000
0000
0000
0001
,
0001
0000
1000
0000
,
0100
0000
0010
0010
,
0010
0000
0100
0000
,
1000
0000
0001
0001
,
0001
0000
1000
0000
,
0010
0000
0100
0000
,
1001
0000
0000
0000
,
0110
0000
0000
1000
,
1000
0000
0001
0000
,
0100
0000
0010
0010
,
0010
0000
1000
0000
,
0001
0000
1000
0000
,
0100
0000
0000
0000
,
0010
0000
0000
0000
,
1001
0000
0000
0000
,
0000
0000
0000
0000
,
0001
0000
1000
0000
,
0001
0000
0100
0000
,
0001
0000
1000
0000
,
0100
0000
1000
0000
,
0010
0000
0100
0000
,
0001
0000
0010
0000
,
0100
0000
0010
0010
,
0010
0000
0000
0100
,
0100
0000
1000
0000
,
0001
0000
0100
0100
,
0100
0000
0001
0000
,
1000
0000
0001
0000
,
0100
0000
0000
0000
,
0010
0000
0000
0000
,
1001
0000
0000
0000
,
0000
0000
0000
0000
,
1000
0000
0100
0000
,
1000
0000
0001
0000
,
0100
0000
0001
0000
,
1000
0000
0100
0100
,
0100
0000
0010
0000
,
0001
0000
1000
0000
,
0001
0000
0100
0000
,
0010
0000
1000
0000
,
1001
0000
0000
0000
;
