#TITLE:I Need You;
#SUBTITLE:;
#ARTIST:House Rulez feat. Chae Yeon;
#TITLETRANSLIT:;
#SUBTITLETRANSLIT:;
#ARTISTTRANSLIT:;
#GENRE:;
#CREDIT:;
#BANNER:I Need You.png;
#BACKGROUND:I Need You-bg.png;
#LYRICSPATH:;
#CDTITLE:;
#MUSIC:I Need You.mp3;
#OFFSET:-7.470000;
#SAMPLESTART:52.110001;
#SAMPLELENGTH:14.880000;
#SELECTABLE:YES;
#BPMS:0.000000=129.000000
;
#STOPS:
;
#BGCHANGES:;
#KEYSOUNDS:;
#ATTACKS:;

//---------------dance-single - Oni-91----------------
#NOTES:
     dance-single:
     :
     Hard:
     7:
     0.425439,0.490062,0.216758,0.216758,0.212046,316.000000,293.000000,23.000000,23.000000,0.000000,0.000000,0.425439,0.490062,0.216758,0.216758,0.212046,316.000000,293.000000,23.000000,23.000000,0.000000,0.000000:
// measure 0
1001
0000
0000
0000
0001
0000
0000
0000
0100
0000
0010
0000
0000
0100
0000
0000
,  // measure 1
0010
0000
1000
0001
1000
0100
0010
0000
,  // measure 2
0100
0000
0000
0000
0010
0000
0000
0000
0001
0000
1000
0000
0000
0001
0000
0000
,  // measure 3
0100
0000
0010
0100
0001
0000
1001
0000
,  // measure 4
1000
0000
0000
0000
0100
0000
0000
0000
0010
0000
0001
0000
0000
0010
0000
0000
,  // measure 5
0001
0000
1000
0001
1000
0010
0100
0000
,  // measure 6
1001
0000
0000
0000
1000
0000
0100
0000
0010
0000
0001
0000
0000
1000
0000
0000
,  // measure 7
1001
0000
1000
0001
0000
0000
1000
0000
0001
1000
0000
0000
1001
0000
0000
0000
,  // measure 8
1000
0000
0000
0100
1000
0000
0000
0000
0001
0000
0000
0100
0001
0000
0000
0000
,  // measure 9
1000
0000
0000
0001
1000
0000
0100
0000
0010
0000
0001
0000
0100
0000
0000
0000
,  // measure 10
0010
0000
0000
0100
0010
0000
0000
0000
0100
0000
0000
0001
0100
0000
0001
0000
,  // measure 11
1000
0000
0100
0010
0000
2002
0000
3003
,  // measure 12
1000
0000
0000
0010
0100
0000
0000
0000
0001
0000
0000
0010
0100
0000
0010
0000
,  // measure 13
0100
0000
0000
0010
0001
0000
0000
0000
0100
0000
0000
0010
1000
0000
0001
0000
,  // measure 14
1000
0000
0100
0000
0010
0000
0100
0000
1000
0000
0000
0001
0000
0000
0100
0000
,  // measure 15
0002
0010
1000
0103
,  // measure 16
1001
0000
1000
0100
0001
0000
0100
1000
,  // measure 17
0000
1001
0000
0001
0100
0010
1000
0100
,  // measure 18
0020
0000
0100
0000
0031
0000
0001
0100
,  // measure 19
0000
0010
1000
0100
0010
0100
1000
0000
,  // measure 20
1001
0000
0001
0100
1000
0000
0100
0001
,  // measure 21
0000
1001
0000
1000
0100
0010
0001
0100
,  // measure 22
0020
0000
1000
0000
0130
0000
0010
0200
,  // measure 23
0002
0000
0000
0303
,  // measure 24
1001
0000
0000
0001
0000
0000
1000
0000
0100
0000
0000
1000
0000
0000
0001
0000
,  // measure 25
0100
0000
0010
0100
0001
0000
1001
0000
,  // measure 26
1000
0000
0000
0100
0000
0000
0010
0000
0100
0000
0000
0010
0000
0000
0001
0000
,  // measure 27
1000
0011
1100
1001
,  // measure 28
0001
0000
0000
0100
0000
0000
0010
0000
0100
0000
0000
0001
0000
0000
1000
0000
,  // measure 29
0100
0001
0100
1000
0100
0010
0100
1000
,  // measure 30
0001
0000
0000
0100
0000
0000
0001
0000
1000
0000
0000
0100
0000
0000
1000
0000
,  // measure 31
1001
0000
0000
1001
0000
0000
1001
0000
0000
0001
0000
1000
0100
0000
0010
0000
,  // measure 32
0110
0000
0000
1000
0001
0000
1000
0000
0100
0000
0010
0000
0100
0000
1000
0000
,  // measure 33
0010
0000
0000
0100
0001
0000
0100
0000
0001
0000
0000
0000
1001
0000
0000
0000
,  // measure 34
1000
0000
0000
0100
0010
0000
0001
0000
1000
0000
0002
1000
0000
1003
0000
0000
,  // measure 35
1000
0000
0100
0000
0010
0000
0200
0000
0000
0000
0000
0010
0000
0000
0310
0000
,  // measure 36
0001
0010
0100
0000
1000
0010
0100
0000
,  // measure 37
0010
0100
0001
0010
0100
0010
0001
1000
,  // measure 38
0010
0000
0000
0100
0001
0000
0010
0000
1000
0000
0010
0000
0001
0000
0100
0000
,  // measure 39
0220
0000
0000
0330
,  // measure 40
1001
0000
0000
0100
1000
0000
0001
0000
0100
0000
0000
0001
0100
0000
0001
0000
,  // measure 41
2000
3200
0320
0032
,  // measure 42
1003
0000
0000
0010
1000
0000
0001
0000
0010
0000
0000
0001
0010
0000
0001
0000
,  // measure 43
0200
0302
2003
3020
,  // measure 44
1030
0000
0000
1000
0100
0000
1000
0000
0100
0000
0010
0000
0001
0000
0100
0000
,  // measure 45
0001
0000
0000
0100
0001
0000
1000
0000
0100
0000
0010
0000
0100
0000
1000
0000
,  // measure 46
0010
0000
0000
0100
0010
0000
0100
0000
0001
0000
0000
1000
0001
0000
1000
0000
,  // measure 47
1001
0000
0000
0001
0000
0000
1000
0000
0000
1000
0000
0001
1000
0000
0100
0000
,  // measure 48
0020
0000
0000
0000
,  // measure 49
0032
0000
0000
0000
,  // measure 50
0203
0000
0000
0000
,  // measure 51
0020
0000
0000
0000
,  // measure 52
0330
0000
0000
0000
;

//---------------dance-single - Oni-91----------------
#NOTES:
     dance-single:
     :
     Medium:
     5:
     0.323118,0.367547,0.188485,0.179061,0.009424,240.000000,220.000000,20.000000,19.000000,0.000000,0.000000,0.323118,0.367547,0.188485,0.179061,0.009424,240.000000,220.000000,20.000000,19.000000,0.000000,0.000000:
// measure 0
1001
0000
0001
0000
0100
0000
0001
1000
,  // measure 1
0001
1000
0100
0010
,  // measure 2
0100
0000
1000
0000
0001
0000
1000
0001
,  // measure 3
1000
0010
0100
0101
,  // measure 4
1001
0000
1000
0000
0100
0000
0010
0001
,  // measure 5
0100
0010
0100
0001
,  // measure 6
1000
0000
0100
0000
0010
0000
0001
1000
,  // measure 7
2002
0000
3003
0110
,  // measure 8
1001
0000
1000
0100
1000
0000
0001
0000
,  // measure 9
0100
0000
0001
0100
0001
0000
0000
0000
,  // measure 10
1000
0000
0001
0010
0001
0000
1000
0000
,  // measure 11
0010
0000
0100
0001
0000
0001
0100
0000
,  // measure 12
0001
0000
1000
0100
1000
0000
0001
0000
,  // measure 13
0010
0000
0001
1000
0001
0000
0000
0000
,  // measure 14
1000
0000
0100
0010
0001
0000
0100
0010
,  // measure 15
1000
0010
0220
0330
,  // measure 16
1001
0000
1000
0100
1000
0000
0001
0100
,  // measure 17
0000
0101
0000
0100
0001
1000
0100
0000
,  // measure 18
0020
0000
0100
0000
0100
0000
0000
0100
,  // measure 19
0000
0100
0000
0100
0130
0000
0011
0000
,  // measure 20
1001
0000
1000
0100
1000
0000
0001
0010
,  // measure 21
0000
0011
0000
0010
0001
1000
0100
0000
,  // measure 22
0020
0000
0001
0000
0031
0000
1000
0002
,  // measure 23
2000
0000
0000
3003
,  // measure 24
1001
0000
1000
0000
0001
0000
0100
0010
,  // measure 25
0100
0010
0220
0330
,  // measure 26
0010
0000
1000
0000
0001
0000
1000
0100
,  // measure 27
1000
0100
0220
0330
,  // measure 28
0010
0000
0001
0000
1000
0000
0001
0100
,  // measure 29
0001
1000
0100
0010
,  // measure 30
0100
0000
0010
0000
0001
0000
1000
0001
,  // measure 31
2002
0000
0000
3003
,  // measure 32
1001
0000
1000
0100
1000
0100
0010
0000
,  // measure 33
0100
0010
0001
0000
,  // measure 34
0100
0000
0001
0100
0001
0100
0010
0000
,  // measure 35
0100
0001
1000
0000
,  // measure 36
0100
1000
0001
0000
0100
0001
1000
0000
,  // measure 37
0001
0010
1000
0010
0001
0000
1001
0000
,  // measure 38
1000
0000
0001
0100
0001
0000
1000
0010
,  // measure 39
0200
0000
0000
0300
,  // measure 40
1001
0000
1000
0100
1000
0000
0001
0010
,  // measure 41
0001
0100
0010
0100
,  // measure 42
0001
0000
1000
0010
1000
0000
0001
0100
,  // measure 43
0001
0010
0100
0010
,  // measure 44
0001
0000
1000
0010
0100
0000
0010
0100
,  // measure 45
0001
0000
1000
0100
1000
0000
0000
0000
,  // measure 46
0001
0000
0010
0001
0100
0000
0010
1000
,  // measure 47
0100
0000
0000
0100
0000
0000
0010
0000
0000
0010
0000
0000
0110
0000
0000
0000
,  // measure 48
0200
0000
0000
0000
,  // measure 49
0302
0000
0000
0000
,  // measure 50
2003
0000
0000
0000
,  // measure 51
0002
0000
0000
0000
,  // measure 52
3003
0000
0000
0000
;

//---------------dance-single - Oni-91----------------
#NOTES:
     dance-single:
     :
     Easy:
     3:
     0.215412,0.245031,0.113091,0.141364,0.000000,160.000000,148.000000,12.000000,15.000000,0.000000,0.000000,0.215412,0.245031,0.113091,0.141364,0.000000,160.000000,148.000000,12.000000,15.000000,0.000000,0.000000:
// measure 0
1001
0000
1000
0100
,  // measure 1
1000
0001
0100
0000
,  // measure 2
0010
0000
0100
0010
,  // measure 3
0100
0010
1000
0000
,  // measure 4
1001
0000
0001
0010
,  // measure 5
0001
1000
0100
0000
,  // measure 6
0010
0000
0100
0010
,  // measure 7
0200
0000
0000
0300
,  // measure 8
1001
0000
0001
1000
,  // measure 9
0001
0100
0010
0000
,  // measure 10
0100
0010
0100
0000
,  // measure 11
0010
1000
0010
0000
,  // measure 12
1000
0000
0001
1000
,  // measure 13
0001
0010
0001
0000
,  // measure 14
1000
0010
1000
0000
,  // measure 15
2002
0000
0000
3003
,  // measure 16
1001
1000
0001
0100
,  // measure 17
0010
0000
0100
0010
,  // measure 18
0100
0100
0100
0000
,  // measure 19
0001
1000
0001
0000
,  // measure 20
1000
0100
0010
0001
,  // measure 21
0100
0000
0010
1000
,  // measure 22
0001
0001
0001
0000
,  // measure 23
2002
0000
0000
3003
,  // measure 24
1001
1000
0100
1000
,  // measure 25
0001
0100
0010
0010
,  // measure 26
0010
0100
0001
0010
,  // measure 27
0100
0010
0001
0001
,  // measure 28
0001
1000
0010
0100
,  // measure 29
0001
1000
0100
0010
,  // measure 30
0100
1000
0100
0010
,  // measure 31
2002
0000
0000
3003
,  // measure 32
1001
0000
1000
0000
,  // measure 33
0001
0100
0001
0000
,  // measure 34
0100
0010
0100
0001
,  // measure 35
1000
0001
1000
0000
,  // measure 36
0100
0000
0010
0000
,  // measure 37
0001
1000
0001
0000
,  // measure 38
0010
0001
0100
0010
,  // measure 39
0220
0000
0000
0330
,  // measure 40
1001
0000
1000
0100
,  // measure 41
1000
0100
0010
0001
,  // measure 42
0010
0000
0001
0100
,  // measure 43
0001
1000
0010
0100
,  // measure 44
0001
0000
1000
0001
,  // measure 45
1000
0100
0010
0000
,  // measure 46
0100
0010
0100
0010
,  // measure 47
2002
0000
0000
3003
,  // measure 48
2000
0000
0000
0000
,  // measure 49
3002
0000
0000
0000
,  // measure 50
0203
0000
0000
0000
,  // measure 51
0020
0000
0000
0000
,  // measure 52
0330
0000
0000
0000
;

//---------------dance-single - Oni-91----------------
#NOTES:
     dance-single:
     :
     Beginner:
     1:
     0.121169,0.135709,0.084818,0.000000,0.000000,90.000000,81.000000,9.000000,0.000000,0.000000,0.000000,0.121169,0.135709,0.084818,0.000000,0.000000,90.000000,81.000000,9.000000,0.000000,0.000000,0.000000:
// measure 0
1001
0000
0000
0000
,  // measure 1
1000
0000
0001
0000
,  // measure 2
1000
0000
0000
0000
,  // measure 3
0001
0000
0100
0000
,  // measure 4
0001
0000
0000
0000
,  // measure 5
1000
0000
0100
0000
,  // measure 6
0010
0000
0000
0000
,  // measure 7
0110
0000
0000
0000
,  // measure 8
1001
0000
1000
0000
,  // measure 9
0001
0000
0000
0000
,  // measure 10
0100
0000
0001
0000
,  // measure 11
0100
0000
0000
0000
,  // measure 12
0010
0000
0100
0000
,  // measure 13
0010
0000
0000
0000
,  // measure 14
1000
0000
0001
0000
,  // measure 15
1000
0000
0000
0000
,  // measure 16
1001
0000
1000
0000
,  // measure 17
0100
0000
0010
0000
,  // measure 18
0100
0100
0100
0000
,  // measure 19
0010
0000
0001
0000
,  // measure 20
1000
0000
0001
0000
,  // measure 21
0100
0000
0010
0000
,  // measure 22
0100
0100
0100
0000
,  // measure 23
0001
0000
0000
0000
,  // measure 24
1001
0000
0000
0000
,  // measure 25
1000
0000
0001
0000
,  // measure 26
0100
0000
0000
0000
,  // measure 27
0010
0000
0100
0000
,  // measure 28
0001
0000
1000
0000
,  // measure 29
0100
0000
0010
0000
,  // measure 30
0001
0000
0000
0000
,  // measure 31
1001
0000
0000
0000
,  // measure 32
0110
0000
0100
0000
,  // measure 33
0001
0000
1000
0000
,  // measure 34
0100
0000
0010
0000
,  // measure 35
0100
0000
0010
0000
,  // measure 36
0001
0000
1000
0000
,  // measure 37
0001
0000
1000
0000
,  // measure 38
0010
0000
0100
0000
,  // measure 39
0010
0000
0000
0000
,  // measure 40
1001
0000
0000
0000
,  // measure 41
1000
0000
0100
0000
,  // measure 42
1000
0000
0000
0000
,  // measure 43
0001
0000
0100
0000
,  // measure 44
0001
0000
1000
0000
,  // measure 45
0001
0000
0010
0000
,  // measure 46
0100
0000
0010
0000
,  // measure 47
0001
0000
0000
0000
,  // measure 48
1001
0000
0000
0000
;
